#TITLE:Cabin Fever;
#SUBTITLE:;
#ARTIST:From Mario Party 5;
#TITLETRANSLIT:;
#SUBTITLETRANSLIT:;
#ARTISTTRANSLIT:;
#GENRE:;
#CREDIT:;
#BANNER:Cabin Fever-bn.png;
#BACKGROUND:Cabin Fever-bg.png;
#LYRICSPATH:;
#CDTITLE:;
#MUSIC:Cabin Fever.ogg;
#OFFSET:0.016492;
#SAMPLESTART:18.730003;
#SAMPLELENGTH:20.000000;
#SELECTABLE:YES;
#DISPLAYBPM:128.000000;
#BPMS:0.000000=128.000000
;
#STOPS:
;
#BGCHANGES:;
#KEYSOUNDS:;
#ATTACKS:;

//---------------dance-single - ----------------
#NOTES:
     dance-single:
     :
     Hard:
     16:
     0.862386,0.788339,0.385732,0.135006,1.263272,626.000000,586.000000,40.000000,14.000000,0.000000,0.000000,0.862386,0.788339,0.385732,0.135006,1.263272,626.000000,586.000000,40.000000,14.000000,0.000000,0.000000:
0000
0000
0000
0000
,
0020
0000
0000
0000
0000
0000
0031
1000
0001
1000
0010
0100
0001
0000
0000
0011
,
0000
1000
0001
0000
0001
0100
0000
0010
0000
0010
0000
0010
1000
0001
0000
0001
,
0100
0000
0000
0000
0001
0010
0000
0001
0000
1000
0010
0200
0000
0000
0300
0000
,
0101
0000
0000
0000
0001
0010
0000
0100
0000
1000
0010
1000
0000
0001
0000
1000
,
0100
0000
0010
0000
0010
0000
0001
1000
0001
0010
0100
1000
0010
0100
0001
1000
,
0000
0001
0010
0000
0010
0100
0000
1000
0000
1000
0000
1000
0001
0100
0000
0010
,
1000
0000
0000
0000
0001
1000
0000
0010
0000
0100
0001
2000
0010
0000
0010
0000
,
3020
0000
0000
0000
1030
0001
0000
0010
0000
0001
0100
0001
1000
0010
0100
0000
,
0101
0000
1100
0000
0000
1001
0000
0100
0010
0000
0110
0000
1000
0001
0100
0010
,
1000
0000
0000
0100
0000
0000
0001
0000
0000
0010
0000
0001
0100
0000
0000
0010
0000
1000
0100
0000
0000
0010
0000
0001
,
1000
0000
0000
0010
0000
1000
0100
0000
0000
0010
0000
0001
1000
0000
0001
1000
0000
0010
0100
0000
0001
1000
0000
0000
,
0010
0000
0000
1000
0000
0000
0001
0000
0000
1000
0000
1000
0100
0000
0100
0010
0000
0000
0001
0000
0000
0100
0000
0001
,
1000
0000
0010
0000
0100
0000
0001
0010
0100
1000
0010
1000
0001
0000
0100
0010
,
0100
0000
0000
0001
0000
0000
0010
0000
0000
0100
0000
1000
0001
0000
1000
0010
0000
0100
0001
0000
0000
0010
0000
0100
,
1000
0000
0000
0000
0000
0000
0010
0000
0000
1000
0000
0000
0001
0000
0000
0000
0000
0000
1000
0000
0000
0000
0100
0000
0010
0000
0000
0000
0001
0000
0100
0000
0000
0000
0001
0000
1000
0000
0000
0000
0000
0000
0010
0000
0000
0000
0000
0000
,
1001
0000
0000
0100
0000
0000
0001
0000
0000
0010
0000
0000
1000
0000
0001
1000
0000
0010
0100
0000
0001
1000
0000
0100
,
0010
0000
0011
0000
1000
0100
0001
0000
0010
0001
1000
0010
0100
0001
1000
0100
,
0010
0000
0000
0001
0000
0000
0100
0000
0000
0000
0000
0000
0010
0000
0000
0000
0000
0000
1000
0000
0000
0000
1000
0000
0001
0000
0000
0000
0010
0000
0001
0000
0000
0000
1000
0000
0001
0000
0000
0000
0000
0000
0100
0000
0000
0000
0100
0000
,
0010
0000
0000
1000
0000
0000
0001
0000
0000
0010
0000
0001
0100
0000
0010
1000
0000
0100
1000
0000
0001
0100
0000
0000
,
0010
0000
0000
1000
0000
0100
1000
0000
0000
0001
0000
0100
0001
0000
0010
0100
0000
1000
0001
0000
0000
1000
0000
0010
,
0100
0000
0000
0001
0000
0000
0001
0000
1000
0000
0000
0001
0010
0000
0000
0100
0000
1000
0001
0000
0000
0100
0000
0010
,
0100
0000
0000
0001
0000
0000
0010
0000
0000
0100
0000
1000
0010
0000
1000
0001
0000
0010
0100
0000
0000
1000
0000
0001
,
1000
0000
0000
0010
0000
0000
0001
0000
0000
0100
0000
0001
1000
0000
0001
1000
0000
0100
0010
0000
0000
0001
0000
0000
,
0101
0000
0000
0010
0000
0000
1000
0000
0000
0100
0000
1000
0010
0000
0100
0001
0000
0100
0010
0000
1000
0001
0000
0100
,
0001
0000
0000
0000
0000
0000
0000
0000
0000
0011
0000
0000
0000
0000
0000
0000
0000
0000
1100
0000
0000
0000
0000
0000
0101
0000
0000
0000
0000
0000
1000
0000
0001
0000
1000
0000
0001
0000
0000
0000
0010
0000
0100
0000
0000
0000
0000
0000
,
1000
0010
0000
0000
0100
0001
0000
0000
1000
0100
0000
0010
0001
0000
0100
0000
,
0110
0000
0010
1000
0000
0001
0000
0010
0000
0001
0000
0100
0010
0000
1010
0000
,
0101
0000
0010
0001
0000
1000
0000
0010
0000
1000
0100
0010
0001
0000
0101
0000
,
1100
0000
0001
1000
0000
0010
0000
1000
0000
0100
0010
0001
0100
0000
1001
0000
,
1010
0000
0100
0001
0000
0010
0000
0100
0000
1000
0010
1000
0001
0000
0110
0000
,
0101
0000
0010
0100
0000
0001
0000
1000
0000
0001
0000
0010
0100
0000
1100
0000
,
0011
0000
0100
0010
0000
1000
0000
0110
0000
0001
1000
0001
0010
0000
0011
0000
,
1010
0000
0100
0001
0010
0001
1000
0010
0000
1000
0100
0010
0001
0100
0010
0000
,
1000
0000
0001
0010
0100
1000
0010
1000
0001
0010
0001
0100
0010
0000
1000
0000
,
0001
0100
0010
1000
0010
0001
1000
0100
1000
0100
0001
0010
1000
0001
0010
0100
,
1000
0000
0010
0100
0001
1000
0000
1010
0000
1001
0000
0001
0010
0000
0100
0000
,
1000
0000
0010
0100
0010
1000
0000
0001
0000
0010
0001
1000
0010
0000
0010
0000
,
0010
0000
1000
0001
1000
0100
0000
0010
0000
0001
1000
0001
0100
0000
0100
0000
,
0110
0000
0001
0010
0000
0100
0000
1000
0000
0010
1000
0001
1000
0100
0010
0000
,
0011
0000
0100
1000
0010
1000
0001
0100
0000
0010
0000
1000
0001
1000
0100
0000
,
0010
0000
0001
0100
0001
1000
0000
0010
0000
1000
0100
0010
0001
0000
1000
0000
,
0001
0000
0100
0010
1000
0001
0010
0100
0000
1000
0100
1000
0001
0000
0010
0000
,
1001
0000
0000
0000
0000
0000
1100
0000
0000
0000
0000
0000
1000
0000
0000
0010
0000
0000
0000
0000
0000
0100
0000
0000
0001
0000
0000
0000
0000
0000
1000
0000
0100
0000
1000
0000
0001
0000
0100
0000
0001
0000
1000
0000
0100
0000
0010
0000
,
0001
0000
0100
0000
0010
0000
0100
0001
1000
0001
0010
0100
0000
0100
1000
0000
,
0010
0000
1000
0000
0001
0000
0010
0100
1000
0010
1000
0001
1000
0010
0100
0001
,
0020
0031
0200
0301
0020
1030
0200
1300
,
0002
0000
0100
0000
0010
0000
2003
0001
0000
3100
1000
0010
1000
0100
0010
0001
,
0000
0100
0010
0000
1000
0001
0000
0011
0000
0110
0000
1100
0000
0010
1000
0000
,
0101
0000
0000
0000
0010
1000
0010
0100
0000
0001
1000
0100
0000
0010
0001
0000
,
0110
0000
1000
0000
1000
0001
0000
0010
0000
0001
0100
0010
1000
0100
1000
0000
,
1010
0000
1100
0000
0000
0101
0000
1000
0010
0100
0010
0100
0000
0002
0000
0000
,
2003
0000
0020
0000
0000
0000
3000
0000
0000
0000
0000
0000
,
0130
0000
0000
0000
0000
0000
0000
0000
0000
0000
0001
0000
0000
0000
0000
0000
0000
0000
0000
0100
0000
0000
0000
0000
0000
0000
0000
0000
0000
0001
0000
0000
0000
0000
0000
0000
0000
0000
0100
0000
0000
0000
0000
0000
0000
0000
0000
0000
0001
0000
0000
0000
0000
0000
0000
0000
0000
0000
0100
0000
0000
0000
0000
0000
0000
0000
0000
0001
0000
0000
0000
0000
0000
0000
0000
0000
0000
0100
0000
0000
0000
0000
0000
0000
0000
0000
0001
0000
0000
0000
0000
0000
0000
0000
0000
0000
0100
0000
0000
0000
0000
0000
0000
0000
0000
0000
0001
0000
0000
0000
0000
0000
0000
0000
0000
0100
0000
0000
0000
0000
0000
0000
0000
0000
0000
0001
0000
0000
0000
0000
0000
0000
0000
0000
0100
0000
0000
0000
0000
0000
0000
0000
0000
0000
0001
0000
0000
0000
0000
0000
0000
0000
0000
0000
0100
0000
0000
0000
0000
0000
0000
0000
0000
0001
0000
0000
0000
0000
0000
0000
0000
0000
0000
0100
0000
0000
0000
0000
0000
0000
0000
0000
0001
0000
0000
0000
0000
0000
0000
0000
0000
0000
,
0200
0000
0300
0000
;

//---------------dance-single - ----------------
#NOTES:
     dance-single:
     :
     Medium:
     12:
     0.501451,0.578116,0.347159,0.443592,0.361624,364.000000,328.000000,36.000000,46.000000,0.000000,0.000000,0.501451,0.578116,0.347159,0.443592,0.361624,364.000000,328.000000,36.000000,46.000000,0.000000,0.000000:
0000
0000
0000
0000
,
0020
0000
0000
0000
0000
0000
0001
0000
0031
0000
0100
0000
0010
0000
0000
1010
,
0000
0000
0100
0000
1000
0000
0000
0001
0000
0001
0000
0002
0000
0000
0000
0000
,
0013
0000
0001
0100
0010
1000
0002
0000
,
1003
0000
0010
1000
0001
0010
0200
0000
,
1300
0000
0000
0000
1100
0000
0000
0001
0000
0100
0000
0010
0000
0000
0000
0101
,
0000
0000
1000
0000
0001
0000
0000
0010
0000
0010
0000
0020
0000
0000
0000
0000
,
0031
0000
1000
0001
1000
0100
0020
0000
,
0032
0000
0103
0001
1000
0010
0200
0000
,
0310
0000
0110
0000
0000
1001
0000
0000
0110
0000
1000
0000
0001
0000
0000
0000
,
0020
0032
0203
0302
,
1003
0010
0100
0002
0000
0000
0000
1000
,
2003
0000
3200
0000
1300
0001
0000
0020
,
0000
0000
0001
0000
0031
0000
0000
1000
0000
0001
0000
0100
0000
0000
0010
1000
,
0010
0000
0101
0000
1100
0000
0001
0100
,
0010
0000
0000
0010
0000
0000
0020
0000
0000
0000
0000
0000
0030
0000
1000
0000
,
0002
0000
0010
0000
1003
0002
0000
0103
,
0001
0011
0000
0000
1000
0010
0100
0000
,
0020
2030
3002
2003
,
3100
0010
0001
2000
0000
0000
0000
0010
,
3020
0000
0230
0000
0310
1000
0000
0001
,
0010
0000
0010
0000
0010
0001
0000
0001
1000
0000
0020
0000
0000
0000
0130
0000
,
0110
0000
1010
0000
0101
0000
1000
0001
,
1000
0100
0010
0002
0000
0000
0000
0103
,
1001
0000
0010
0100
0001
1000
0000
0100
,
1000
0000
0000
0001
0000
0000
0100
0000
0010
0000
0000
0000
0000
0000
0000
0000
,
0100
0000
0001
0000
0100
0000
0010
0000
1000
0000
0000
0100
0000
0000
0010
0000
,
0011
0000
0000
1000
0000
0010
0000
0100
0000
0010
0000
1000
0001
0000
0101
0000
,
0101
0000
0000
1000
0000
0001
0000
0010
0000
0100
0000
1000
0010
0000
1010
0000
,
1010
0000
0000
0001
0000
0100
0000
0010
0000
0000
1000
0000
0001
0000
1001
0000
,
1001
0000
0000
0010
0000
1000
0000
0001
0000
0000
0010
0000
0100
0000
1000
0000
,
0100
1100
0000
0011
0000
0101
0000
0010
,
1000
1001
0000
0110
0000
0001
0100
0010
,
1000
1001
0000
0011
0000
1010
0100
0001
,
2000
0001
3001
0100
0020
1000
1030
0100
,
0010
0000
0000
0001
0000
0000
1000
0000
0001
0000
0100
0000
0001
0000
1000
0000
,
0010
1000
0100
0010
0001
0100
2000
0000
,
3010
0000
0000
1000
0000
0100
0000
0010
0000
0001
0000
0200
0000
0000
0010
0000
,
0310
1000
0001
1000
0100
0010
0001
0100
,
0010
0000
0000
0100
0000
0001
0000
1000
0000
0000
0010
0000
1000
0000
0100
0000
,
0010
0001
0100
0001
1000
0100
0020
0000
,
0130
0000
0000
1000
0000
0001
0000
0100
0000
0010
0000
2000
0000
0000
0001
0000
,
3001
0000
0000
0010
0000
0001
0000
0100
0000
0000
0010
0000
1000
0000
0100
0000
,
1000
0000
1100
0000
0000
0101
0000
0000
1100
0000
0000
0000
0010
0001
0010
0001
,
0010
0000
0100
0000
1000
0000
0000
0000
0001
0000
0200
0000
0000
0310
0000
0000
,
0110
0000
0000
1000
0000
0001
0000
0000
0010
0000
0100
0000
1000
0000
0001
0000
,
0200
0320
0230
0320
,
2030
0000
0010
0000
3010
0000
0100
0000
0002
0000
1000
0000
1003
0000
0000
0101
,
0000
0000
0010
0000
1000
0000
0000
0100
0000
0100
0000
0200
0000
0000
0000
0000
,
1300
0000
0010
0100
0010
1000
0002
0000
,
0013
0000
0001
1000
0001
0100
0020
0000
,
1030
0000
1010
0000
0000
1001
0000
0000
0101
0000
0000
0000
0010
1000
0010
1000
,
0020
0100
0100
0100
,
0130
0001
0100
0001
0100
0001
0100
0001
0100
0001
0100
0001
,
0200
0000
0300
0000
;

//---------------dance-single - ----------------
#NOTES:
     dance-single:
     :
     Easy:
     8:
     0.315473,0.341614,0.173579,0.173579,0.101255,229.000000,211.000000,18.000000,18.000000,0.000000,0.000000,0.315473,0.341614,0.173579,0.173579,0.101255,229.000000,211.000000,18.000000,18.000000,0.000000,0.000000:
0000
0000
0000
0000
,
0020
0000
0000
0000
0030
0000
0000
0000
0001
0000
0100
0000
1000
0000
0000
1001
,
0000
0000
0000
0000
0000
0000
0000
0000
0000
0000
0010
0000
0000
1000
0000
0000
,
0100
0000
0000
0000
,
0110
0000
0000
0000
0000
0000
0000
0000
0000
0000
0010
0000
0000
0001
0000
0000
,
1000
0000
0000
0000
0000
0000
0000
0010
0000
0100
0000
0010
0000
0000
0000
0110
,
0000
0000
0000
0000
1001
0000
0000
0000
0000
0000
0010
0000
0000
0001
0000
0000
,
0100
0000
0010
0000
1000
0000
0001
0010
,
0200
0000
0300
1000
0002
0000
0003
0000
,
0200
0000
0010
0000
0000
0010
0000
0000
0310
0000
0000
0000
0000
0000
0000
0000
,
1000
0001
1000
0100
,
0010
0000
0001
2000
0000
0000
3000
0010
,
0100
0000
0100
0000
0001
1000
0000
0002
,
0000
0000
0000
0000
0000
0000
0003
0010
,
0001
0000
0100
0000
0010
0000
0100
0001
,
1000
0000
0000
1000
0000
0000
2000
0000
0000
0000
0000
0000
3000
0000
0001
0000
,
0200
0000
0000
0000
0300
0010
0000
0100
,
0001
1000
0010
0000
1001
0000
0110
0000
,
1000
0100
0010
0001
,
0100
0000
0001
0020
0000
0000
0030
0100
,
1000
0000
1000
0000
0010
0100
0000
0002
,
0000
0000
0000
0000
0003
1000
0000
0001
,
0100
0000
0010
0000
0100
0000
0001
1000
,
0010
1000
0010
0200
0000
0000
0300
0001
,
0020
0000
0000
0000
0030
0100
0000
1000
,
0001
0000
0000
0001
0000
0000
1000
0000
0001
0000
0000
0000
0000
0000
0000
0000
,
0110
0000
0000
0000
1001
0000
0000
0000
0100
0000
0000
0010
0000
0000
1000
0000
,
0001
0000
0000
0000
0000
0000
0000
1000
,
1000
0000
0000
0001
0000
0000
0000
0000
0000
0000
0000
0000
0000
0000
0010
0000
,
0010
0000
0000
0000
0000
0000
0000
0100
,
0100
0000
0000
0000
0000
0000
0000
1000
,
0001
0100
0000
0100
0000
0100
0000
0100
,
0000
0010
0000
0010
0000
0010
0000
0010
,
0000
1000
0000
1000
0000
0001
0000
0001
,
0200
0000
0300
0001
2000
0000
3000
0000
,
0010
1000
0010
0000
0100
0001
0100
0000
,
1010
0001
0010
1000
,
0001
0000
0010
0000
0100
0000
1000
0001
,
1000
0010
0100
0001
,
0101
0000
0010
1000
0001
0000
1001
0000
,
0010
1000
0000
0001
0000
0010
0000
0001
,
0000
0100
0000
0010
0000
1000
0000
0100
,
0000
1000
0000
0010
0000
0100
0000
0001
,
0010
0000
0100
0000
0000
1000
0000
0000
0001
0000
0000
0000
0000
0000
0000
0000
,
1100
0000
0000
0000
0001
0000
0000
0000
0000
0000
0100
0000
0000
0010
0000
0000
,
0100
0000
0000
0001
0000
1000
0000
0000
0000
0000
0000
0000
0000
0000
0000
0000
,
0110
1001
0110
1001
,
0020
0000
0000
0000
0030
0000
1000
0000
0002
0000
0000
0000
0003
0000
0000
0011
,
0000
0000
0100
0000
1000
0000
0000
0000
0010
0000
0000
0100
0000
0000
0001
0000
,
1000
0000
0001
0000
0100
0000
0000
0000
0010
0000
0000
1000
0000
0000
0100
0000
,
1000
0000
0001
0000
0010
0000
0001
0100
,
0001
0000
1000
0000
0000
0010
0000
0000
1000
0000
0000
0000
1010
0000
0000
0000
,
0020
0000
0000
0000
,
0130
0001
0100
0001
0100
0001
0100
0001
,
0200
0000
0300
0000
;

//---------------dance-single - ----------------
#NOTES:
     dance-single:
     :
     Beginner:
     4:
     0.192866,0.236502,0.231439,0.038573,0.000000,140.000000,116.000000,24.000000,4.000000,0.000000,0.000000,0.192866,0.236502,0.231439,0.038573,0.000000,140.000000,116.000000,24.000000,4.000000,0.000000,0.000000:
// measure 0
0000
0000
0000
0000
,  // measure 1
0010
0000
0001
0000
,  // measure 2
1001
0000
0000
0100
,  // measure 3
0100
0000
0000
0000
,  // measure 4
0110
0000
0000
0001
,  // measure 5
0001
0000
0000
0000
,  // measure 6
1001
0000
1000
1000
,  // measure 7
1000
0000
0010
0010
,  // measure 8
0010
0000
0110
0000
,  // measure 9
1001
0000
0110
0000
,  // measure 10
1000
1000
1000
0000
,  // measure 11
0001
0001
0000
0000
,  // measure 12
0010
0010
0010
0000
,  // measure 13
0002
0000
0003
0000
,  // measure 14
0100
0100
0100
0000
,  // measure 15
0010
0010
0010
0000
,  // measure 16
1001
0000
0000
1000
,  // measure 17
1000
0000
0000
0000
,  // measure 18
0100
0100
0100
0000
,  // measure 19
1000
1000
0000
0000
,  // measure 20
0001
0001
0001
0000
,  // measure 21
0020
0000
0030
0000
,  // measure 22
0100
0100
0100
0000
,  // measure 23
1000
1000
0000
0000
,  // measure 24
0110
0000
0000
0001
,  // measure 25
0001
0001
0001
0000
,  // measure 26
1001
0000
0110
0000
,  // measure 27
1001
0000
0000
0000
,  // measure 28
0110
0000
0000
0000
,  // measure 29
1001
0000
0000
0000
,  // measure 30
0110
0000
0000
0000
,  // measure 31
1001
0000
0001
0000
,  // measure 32
0110
0000
0100
0000
,  // measure 33
1001
0000
0010
0000
,  // measure 34
0100
0000
0110
0000
,  // measure 35
1000
1000
1000
0000
,  // measure 36
0001
0100
0001
0000
,  // measure 37
0010
0000
0100
0000
,  // measure 38
1000
0001
1000
0000
,  // measure 39
0010
0000
0100
0000
,  // measure 40
0010
1000
0001
0000
,  // measure 41
0010
0001
0100
0000
,  // measure 42
0001
1000
0100
0000
,  // measure 43
1001
0000
0110
0000
,  // measure 44
1000
0000
0000
0001
,  // measure 45
0001
0000
0000
0000
,  // measure 46
0100
0010
0100
0010
,  // measure 47
0100
0000
0001
0000
,  // measure 48
1001
0000
0100
0000
,  // measure 49
0110
0000
0010
0000
,  // measure 50
1000
0000
0100
0000
,  // measure 51
1001
0000
0110
0000
,  // measure 52
0020
0000
0030
0000
,  // measure 53
0100
0001
0100
0001
,  // measure 54
0200
0000
0300
0000
;
