#TITLE:COTTON-EYE JOE;
#ARTIST:REDNEX;
#BANNER:COTTON-EYE JOE-bn.png;
#BACKGROUND:COTTON-EYE JOE-bg.png;
#JACKET:COTTON-EYE JOE-jacket.png;
#MUSIC:COTTON-EYE JOE.ogg;
#OFFSET:-0.04;
#SAMPLESTART:23.689;
#SAMPLELENGTH:20;
#DISPLAYBPM:132;
#BPMS:0=132;
#BGCHANGES:20=COTTON-EYE JOE.mp4=1=1=0=0=StretchNoLoop==CrossFade==,
;

//---------------dance-single - ----------------
#NOTES:
     dance-single:
     :
     Beginner:
     3:
     :
0000
0000
0000
0000
,
0000
0000
0000
0000
,
0000
0000
0000
0000
,
0000
0000
0000
0000
,
0000
0000
0000
0000
,
0010
0000
0000
0000
,
0010
0000
0000
0000
,
0100
0000
0000
0000
,
0100
0000
0000
0000
,
0010
0000
1000
0000
,
0010
0000
0001
0000
,
0100
0000
0010
0000
,
1001
0000
0000
0000
,
0010
0000
1000
0000
,
0100
0000
0001
0000
,
0100
0000
0010
0000
,
1000
0000
0001
0000
,
0010
0000
0110
0000
,
1000
0000
1001
0000
,
0100
0000
0110
0000
,
0001
0000
1001
0000
,
0001
0000
0100
0000
,
1000
0000
0100
0000
,
0010
0000
0001
0000
,
0010
0000
1000
0000
,
0001
0000
0001
0000
,
1000
0000
1000
0000
,
0010
0000
0010
0000
,
0100
0000
0100
0000
,
0001
0000
1000
0000
,
1000
0000
0001
0000
,
0010
0000
0100
0000
,
0010
0000
0000
0100
,
0100
0000
1001
0000
,
0100
0000
1001
0000
,
0010
0000
1001
0000
,
0010
0000
1001
0000
,
1000
0000
0110
0000
,
1000
0000
0110
0000
,
0001
0000
0110
0000
,
0001
0000
0110
0000
,
1000
0000
0001
0000
,
1000
0000
0001
0000
,
0010
0000
0100
0000
,
0010
0000
0100
0000
,
0001
0000
1001
0000
,
1000
0000
1001
0000
,
0010
0000
0110
0000
,
0100
0000
0110
0000
,
1000
0000
0000
0000
,
0001
0000
0000
0000
,
0100
0000
0000
0000
,
0010
0000
1001
0000
;

//---------------dance-single - ----------------
#NOTES:
     dance-single:
     :
     Easy:
     5:
     :
0000
0000
0000
0000
,
0000
0000
0000
0000
,
0000
0000
0000
0000
,
0000
0000
0000
0000
,
0000
0000
0000
0000
,
0010
0000
0000
0000
,
0010
0000
0000
0000
,
0100
0000
0000
0000
,
0100
0000
0100
0100
,
1001
0000
0100
0000
,
1001
0000
0010
0010
,
1001
0000
0100
0000
,
1001
0000
0000
0000
,
0010
0000
0100
0000
,
0001
1000
0001
0000
,
0010
0000
1000
0000
,
0001
0000
0100
1000
,
0001
0000
1000
0000
,
1000
0100
0001
0000
,
0010
0000
0100
0000
,
0001
0000
1000
0010
,
0100
0000
1001
0000
,
0100
0100
1001
0000
,
0010
0000
1001
0000
,
0010
0010
1001
0000
,
1000
0000
0001
0000
,
0010
0000
0100
0000
,
0010
0000
1000
0000
,
0001
0000
0100
0000
,
0001
0000
1000
0000
,
0100
0000
0010
0000
,
0100
0000
0001
0000
,
1000
0000
0000
1001
,
0001
1000
0001
0000
,
0010
0000
0100
0000
,
0100
0000
0010
0000
,
0001
0000
1000
1001
,
1000
0001
1000
0000
,
0010
0000
0100
0000
,
0100
0000
0010
0000
,
1000
0000
0001
1001
,
0010
0000
1001
0000
,
0010
0100
1001
0000
,
0100
0000
1001
0000
,
0100
0010
0100
1001
,
0001
0000
0110
0000
,
0001
1000
0110
0000
,
1000
0000
0001
0000
,
0010
0100
1000
0001
,
1000
0000
0001
0000
,
0010
0100
0010
0000
,
1000
0000
0010
0000
,
0100
0000
0001
0000
;

//---------------dance-single - ----------------
#NOTES:
     dance-single:
     :
     Medium:
     7:
     :
0000
0000
0000
0000
,
0000
0000
0000
0000
,
0000
0000
0000
0000
,
0000
0000
0000
0000
,
0000
0000
0000
0000
,
0100
0100
0100
1001
,
0010
0000
0010
0000
0010
1000
0001
0000
,
0100
0010
0100
1001
,
0010
0000
0100
0000
0010
1000
0001
0000
,
0100
0001
0100
0010
,
1000
0000
0100
0000
0010
0001
0100
0000
,
0010
0100
0001
1000
,
0110
0000
0000
0000
,
0001
1100
0001
1100
,
0010
0000
1001
0000
0010
0001
1000
0000
,
1000
0101
1000
0101
,
0010
0000
1001
0000
0010
0001
1000
0000
,
0001
1010
0001
1010
,
0100
0000
1001
0000
0100
0001
1000
0000
,
1000
0011
1000
0011
,
0100
0000
1001
0000
0100
0001
1000
0000
,
0010
1001
1000
1001
,
0010
1001
0001
1001
,
0100
1001
1000
1001
,
0100
1001
0001
1001
,
0010
0100
0010
0100
,
1000
0001
0000
0000
0110
0000
0100
0000
,
1000
0001
1000
0001
,
0010
0100
1000
0000
1001
0000
0000
0000
,
0010
0100
1000
0001
,
1000
0010
0000
1010
0000
0000
0001
0000
,
1000
0101
0001
1100
,
0010
0100
0010
1001
,
0100
1001
0100
1001
,
0100
0000
1001
0000
0100
0001
1000
0000
,
0010
1001
0010
1001
,
0010
0000
1001
0000
0010
0001
1000
0000
,
0001
0110
0001
0110
,
0001
0000
0110
0001
0000
0010
0100
0000
,
1000
0110
1000
0110
,
1000
0000
0110
0000
1000
0010
0100
0000
,
0000
0001
0000
0100
0000
0010
0000
1000
,
0000
0100
0000
0010
0000
0001
0000
0100
,
0000
0010
0000
1000
0000
0100
0000
0001
,
0000
0100
0000
1000
0000
0010
0000
0001
,
0000
0010
0000
1000
0000
0100
0000
0010
,
0000
0001
0000
1000
0000
0010
0000
0100
,
0000
0001
0000
1000
0000
0010
0000
0100
,
0000
0010
0000
1000
0000
0001
1000
0000
,
0010
0010
0010
0010
,
0100
0000
0100
0000
0100
0010
0100
0000
,
0001
0000
0001
1000
0001
0000
0100
0000
,
1000
0000
1000
0000
1000
0001
0100
0000
;

//---------------dance-single - ----------------
#NOTES:
     dance-single:
     :
     Hard:
     10:
     :
0000
0000
0000
0000
,
0000
0000
0000
0000
,
0000
0000
0000
0000
,
0000
0000
0000
0000
,
0000
0000
0000
0000
,
0010
0000
0000
0000
0101
0000
0000
1000
0000
0000
0001
0000
0100
0000
0000
0000
,
0010
0000
1100
0000
0001
1000
0100
0000
,
0100
0011
0100
1010
,
0100
0000
1001
0000
0010
0001
1000
0000
,
0100
0100
0010
0010
,
1000
0000
1000
0000
0001
0000
0001
0100
,
0010
1001
0100
1001
,
0110
0000
0000
0000
,
0001
0010
0000
0000
1100
0000
0000
0010
0000
0000
0001
0000
0100
0000
0000
0000
,
0010
1000
0010
0000
0100
0001
0100
0000
,
0010
1000
0000
0000
1001
0000
0000
0000
0010
0001
0000
0000
1001
0000
0000
0000
,
0010
0100
0000
0000
0110
0000
0000
0000
1000
0000
0001
0000
0100
0000
0000
0000
,
0001
0100
0000
0000
1010
0000
0000
0100
0000
0000
0001
0000
0010
0000
0000
0000
,
0100
1000
0100
0000
0010
0001
0010
0000
,
0100
1000
0000
0000
0110
0000
0000
0000
0100
0001
0000
0000
0110
0000
0000
0000
,
0100
0010
0000
0000
1001
0000
0000
0000
1000
0000
0001
0000
0010
0000
0000
0000
,
0001
0100
0101
0000
1000
0100
1100
0000
,
0010
0001
0011
0000
0100
1000
0100
1000
,
0010
0001
1001
0000
0100
1000
1001
0000
,
0010
0100
0110
0000
1000
0001
1000
0001
,
0010
0000
0001
0100
0001
0000
0010
0100
,
0010
0001
0000
1000
0000
0000
0010
1000
,
0010
0000
1000
0100
1000
0000
0010
0100
,
0010
1000
0001
0000
0110
0000
0000
0100
,
0010
0000
1000
0010
1000
0000
0100
0010
,
0100
1000
0001
1000
0000
0000
0000
0001
,
0100
0010
1000
0010
0100
0001
0100
0010
,
0100
0001
1000
0000
0100
0000
1001
0000
,
0010
0001
0000
0000
0100
0000
0000
0010
0000
0000
1000
0000
0100
0000
0000
0000
,
0010
0001
0010
0100
1000
0010
0100
0000
,
0010
1000
0000
0000
0100
0000
0010
0000
0001
0100
0000
0000
0101
0000
0000
0000
,
0010
1000
0000
0000
0100
0000
0010
0000
0001
0000
0100
0000
0010
0000
0000
0000
,
0100
0001
0000
0000
0010
0000
0000
0100
0000
0000
1000
0000
0010
0000
0000
0000
,
0100
0001
0100
0010
1000
0100
0010
0000
,
0100
1000
0000
0000
0010
0000
0100
0000
0001
0010
0000
0000
0011
0000
0000
0000
,
0100
1000
0000
0000
0010
0000
0100
0000
0001
0000
0010
0000
0100
0000
0000
0000
,
0000
1000
0100
1000
0000
0001
0100
0001
,
0000
0010
0100
0010
0000
0100
0000
0100
,
0000
0010
0001
0010
0000
0100
1000
0100
,
0000
1000
0001
1000
0000
0010
0000
0010
,
1000
0100
1000
0000
0001
0000
0001
0000
0000
0000
0100
0000
0000
0000
0100
0000
,
0001
0100
0001
0000
1000
0000
1000
0000
0000
0000
0010
0000
0000
0000
0010
0000
,
0100
0001
0100
0000
0010
0000
0010
0000
0000
0000
1000
0000
0000
0000
1000
0000
,
0100
1000
0100
0000
0010
0000
0010
0000
0000
0000
0001
0000
1000
0000
0001
0000
,
0010
0100
0000
0000
1000
0000
0000
0001
0000
0000
0010
0000
0100
0000
0000
0000
,
1000
0100
0010
0001
0100
0010
1000
0000
,
1000
0100
0000
0100
1000
0000
0100
0000
0010
0001
0000
0001
0010
0000
0000
0000
,
0001
0100
0000
0100
0001
0000
0100
0000
0010
0000
1000
0000
1001
0000
0000
0000
;

//---------------dance-single - ----------------
#NOTES:
     dance-single:
     :
     Challenge:
     13:
     :
0000
0000
0000
0000
,
0000
0000
0000
0000
,
0000
0000
0000
0000
,
0000
0000
0000
0000
,
0000
0000
0000
0000
,
1000
0100
0000
0100
0010
0000
0010
0001
0000
0001
0100
0000
0010
0000
0000
0000
,
1000
0000
0100
0000
0010
0000
0001
0100
0001
0000
1000
0100
1000
0000
0000
0000
,
0001
0100
0000
0100
0010
0000
1000
0000
0100
0010
0000
0010
0001
0000
0000
0000
,
1000
0001
0000
0001
0100
0000
0010
0000
1000
0100
0010
0000
0110
0000
0000
0000
,
0001
0100
0000
0000
0010
0000
1000
0100
0000
1000
0001
0000
0001
0000
0000
0100
,
0010
0001
0010
1000
0010
0001
0010
1000
,
0100
0010
0000
0000
0001
0000
1000
0010
0000
1000
0100
0000
0100
0000
0000
0010
,
0001
0100
1000
0100
0001
0010
1000
0010
,
0001
0100
0000
0100
0010
0000
0010
1000
0000
1000
0100
0000
0010
0000
0000
0000
,
0001
0000
0100
0000
0010
0000
1000
0100
1000
0000
0001
0100
0001
0000
0000
0000
,
0010
0001
0000
0001
1000
0000
0010
0000
0100
0001
0000
0001
1000
0000
0000
0000
,
0100
1000
0000
1000
0010
0000
0100
0000
0001
0010
0001
0000
1001
0000
0000
0000
,
0010
0100
0000
0100
0001
0000
0001
1000
0000
1000
0100
0000
0010
0000
0000
0000
,
0001
0000
1000
0000
0010
0000
1000
0100
1000
0000
0001
0100
0001
0000
0000
0000
,
0100
0001
0000
0001
0010
0000
0100
0000
1000
0010
0000
0010
0100
0000
0000
0000
,
0001
1000
0000
1000
0100
0000
0010
0000
0001
0100
0010
0000
1010
0000
0000
0000
,
0001
0100
1000
0100
0001
0100
1000
0100
,
0010
0000
0100
0000
1000
0000
0100
0000
0001
0000
0010
0100
2000
0000
0000
0000
,
3001
0100
0010
0100
1000
0100
0001
0100
,
1000
0000
0100
0000
0010
0000
0100
0000
0001
0000
0010
0100
2000
0000
0000
0000
,
3002
0100
0103
0010
2000
0100
3100
0010
,
0001
0100
0010
0101
0000
1000
0001
0100
,
0100
0010
1000
0010
0001
0010
1000
0100
,
0001
0100
0010
0100
1000
0001
0000
0100
,
1010
0000
0101
0000
0011
0100
1000
0010
,
0001
0010
1000
1100
0000
0001
1000
0100
,
0100
0001
0100
1000
0010
0100
0001
0000
,
0010
0100
1000
0001
0100
0110
1001
0000
,
1000
0010
0000
0010
0100
0000
0100
0001
0000
0001
0010
0000
0100
0000
0000
0000
,
1000
0000
0010
0000
0100
0000
0001
0010
0001
0000
1000
0010
1000
0000
0000
0000
,
0100
0010
0000
0010
0001
0000
1000
0000
0001
0100
0000
0100
0010
0000
0000
0000
,
1000
0001
0000
0001
0100
0000
0010
0000
1000
0010
0100
0000
0110
0000
0000
0000
,
0100
0001
0000
0001
1000
0000
1000
0100
0000
0100
0010
0000
0001
0000
0000
0000
,
0100
0000
0001
0000
0010
0000
0001
0100
0001
0000
1000
0100
1000
0000
0000
0000
,
0100
0010
0000
0010
0001
0000
1000
0000
0010
0100
0000
0100
0001
0000
0000
0000
,
0010
0100
0000
0100
1000
0000
0001
0000
0010
0001
1000
0000
1001
0000
0000
0000
,
0010
0100
1000
0100
0010
0100
0001
0100
,
1000
0000
0100
0000
0001
0000
0100
0000
1000
0000
0100
0001
0020
0000
0000
0000
,
1030
0010
0100
0010
1000
0010
0001
0010
,
0100
0000
0010
0000
1000
0000
0010
0000
0001
0000
1000
0010
0200
0000
0000
0000
,
0301
0100
0001
0100
0000
0000
0010
1000
0100
0000
0010
0001
0100
0000
0010
0000
,
1000
0000
0100
0000
0001
0000
0100
0000
1000
0000
0010
0100
0002
0000
0000
0000
,
0013
0100
0010
0100
0000
0000
1000
0010
0100
0000
0001
0010
0100
0000
1000
0000
,
0010
0000
0100
0000
1000
0000
0100
0000
0001
0000
0100
0010
2000
0000
0000
0000
,
3100
0010
0001
0010
0100
1000
1100
0000
,
0001
0000
0100
0000
0010
0000
1000
0100
1000
0000
0001
0100
0001
0000
0000
0000
,
0010
0001
0000
0001
0100
0000
0010
0000
1000
0100
0000
0100
0010
0000
0000
0000
,
0001
0100
0000
0100
0010
0000
1000
0000
0001
1000
0010
0000
0101
0000
0000
0000
;

//---------------dance-double - ----------------
#NOTES:
     dance-double:
     :
     Easy:
     4:
     :
00000000
00000000
00000000
00000000
,
00000000
00000000
00000000
00000000
,
00000000
00000000
00000000
00000000
,
00000000
00000000
00000000
00000000
,
00000000
00000000
00000000
00000000
,
00100000
00000000
00100000
00000000
,
00001000
00000000
00001000
00000000
,
00010000
00000000
00010000
00000000
,
00000100
00000000
00000100
00000100
,
00000010
00000000
00000001
00000000
,
00000100
00000000
00001000
00000000
,
00010000
00000000
00100000
00000000
,
10000000
00000000
01000000
00000000
,
00010000
00000000
00001000
00000000
,
00001000
00000000
00000100
00000000
,
00000001
00000000
00001000
00000000
,
00000001
00000000
00000100
00000000
,
00001000
00000000
00010000
00000000
,
00010000
00000000
01000000
00000000
,
10000000
00000000
00010000
00000000
,
10000000
00000000
00100000
00000000
,
01000000
00000000
00001000
00000000
,
00010000
00000000
00000100
00000000
,
00000010
00000000
00000001
00000000
,
00000100
00000000
00000110
00000000
,
00010000
00000000
00011000
00000000
,
01000000
00000000
01100000
00000000
,
10000000
00000000
10010000
00000000
,
00100000
00000000
01100000
00000000
,
00001000
00000000
00011000
00000000
,
00000010
00000000
00000110
00000000
,
00000001
00000000
00001001
00000000
,
00000010
00000000
00000000
00000011
,
00000010
00000000
00000001
00000000
,
00000001
00000100
00001000
00000000
,
00001000
00000000
00010000
00000000
,
01000000
00000000
10000000
00100000
,
00100000
00000000
10000000
00000000
,
10000000
01000000
00010000
00000000
,
00010000
00000000
00001000
00000000
,
00000100
00000000
00000001
00000010
,
00000000
00000001
00000000
00000100
,
00000000
00001000
00000000
00010000
,
00000000
00010000
00000000
01000000
,
00000000
10000000
10010000
00000000
,
00000000
10000000
00000000
01000000
,
00000000
00010000
00000000
00001000
,
00000000
00001000
00000000
00000100
,
00000000
00000001
00001000
00001001
,
00000010
00000000
00000001
00000000
,
00000100
00001000
00010000
00000000
,
01000000
00000000
10000000
00000000
,
00100000
00000000
01100000
00000000
;

//---------------dance-double - ----------------
#NOTES:
     dance-double:
     :
     Medium:
     7:
     :
00000000
00000000
00000000
00000000
,
00000000
00000000
00000000
00000000
,
00000000
00000000
00000000
00000000
,
00000000
00000000
00000000
00000000
,
00000000
00000000
00000000
00000000
,
00100000
10000000
10000000
00000000
,
01000000
00010000
00010000
00000000
,
00001000
00000000
00000010
00000010
,
00001000
00000000
00010000
00010000
,
00100000
00010000
00001000
00000100
,
00001000
00010000
01000000
00010000
,
00001000
00000010
00001000
00010000
,
00011000
00000000
00000000
00000000
,
00100000
10000000
01000000
00000000
,
01000000
00010000
00001000
00000000
,
00001000
00000000
00000010
00001010
,
00000001
00000000
00000100
00000101
,
00000010
00000001
00000100
00000000
,
00000100
00001000
00010000
00000000
,
00010000
00000000
00100000
00110000
,
10000000
00000000
01000000
11000000
,
00000000
10000000
00000000
11000000
00000000
01000000
00000000
01010000
,
00000000
00010000
00000000
00011000
00000000
00001000
00000000
00001010
,
00000000
00000010
00000000
00000011
00000000
00000001
00000000
00000101
,
00000000
00000100
00000000
00001100
00000000
00001000
00000000
00011000
,
00010000
00000000
00000000
00100000
10000000
00000000
00000000
10000000
,
01000000
00010000
00001000
00000000
,
00001000
00000000
00000000
00000010
00000001
00000000
00000000
00000001
,
00000100
00001000
00010000
00000000
,
00010000
00000000
00000000
01000000
10000000
00000000
00000000
10000000
,
00100000
00010000
00001000
00000000
,
00001000
00000000
00000000
00000100
00000001
00000000
00000000
00000001
,
00000010
00001000
00010000
00011000
,
00010000
00100000
01100000
00000000
,
10000000
01000000
01100000
00000000
,
00010000
00001000
00000010
00001000
,
00010000
01000000
00010000
00001000
,
00001000
00000010
00000110
00000000
,
00000001
00000100
00000110
00000000
,
00001000
00010000
00100000
00010000
,
00001000
00000100
00001000
00010000
,
00000000
00100000
00000000
10000000
00000000
00010000
00000000
01000000
,
00000000
00001000
00000000
00010000
00000000
00000100
00000000
00001000
,
00000000
00000001
00000000
00000010
00000000
00001000
00000000
00010000
,
00000000
01000000
00000000
10000000
00000000
00100000
00000000
00010000
,
00000000
00001000
00000000
00000010
00000001
00000000
00000100
00000000
,
00000000
00001000
00000000
00010000
00100000
00000000
10000000
00000000
,
00000000
01000000
00000000
00010000
00001000
00000000
00000100
00000000
,
00000000
00001000
00000000
00010000
00100000
00000000
10000000
00000000
,
10000000
01000000
00010000
00000000
,
00001000
00000100
00000001
00000000
,
00000010
00000000
00000100
00010000
,
00001000
00000000
01000000
00100000
;

//---------------dance-double - ----------------
#NOTES:
     dance-double:
     :
     Hard:
     9:
     :
00000000
00000000
00000000
00000000
,
00000000
00000000
00000000
00000000
,
00000000
00000000
00000000
00000000
,
00000000
00000000
00000000
00000000
,
00000000
00000000
00000000
00000000
,
00100000
10000000
01000000
00010000
,
01000000
00010000
00001000
00000100
,
00001000
00000100
00000001
00000100
,
00001000
00010000
00100000
10000000
,
10010000
11000000
01100000
00101000
,
00011000
00010100
00000110
00000011
,
00000101
00001010
00010100
00011000
,
00101000
00000000
00000000
00000000
,
00100000
10000000
01000000
00000000
01000000
00010000
00001000
00000000
,
00001000
00000010
00000001
00000000
00000001
00000100
00001000
00000000
,
00000100
00000001
00000010
00000000
00000010
00000001
00000100
00000000
,
00000100
00001000
00010000
00000000
00010000
00100000
10000000
00000000
,
00100000
10000000
01000000
00000000
00010000
00001000
00000010
00000000
,
00000010
00000001
00000100
00000000
00001000
00010000
00100000
00000000
,
00100000
00010000
00001000
00000000
00000100
00000001
00000010
00000000
,
00000010
00000001
00000100
00000000
00001000
00010000
00100000
00000000
,
00100000
10000000
00000000
10000000
00000000
10000000
01000000
00010000
,
00010000
00001000
00000000
00001000
00000000
00001000
00000010
00000001
,
00000001
00000100
00000000
00000100
00000000
00000100
00001000
00010000
,
00010000
00100000
00000000
00100000
00000000
00100000
10000000
01000000
,
00010000
00000000
00001000
00000010
00001000
00000000
00000010
00000001
,
00000100
00000000
00000100
00001000
00000000
00010000
00000000
00010000
,
00100000
00000000
10000000
01000000
10000000
00000000
01000000
00010000
,
00001000
00000000
00001000
00000010
00000000
00000001
00000000
00000001
,
00000100
00000000
00001000
00010000
01000000
00000000
00010000
00001000
,
00000010
00000000
00000001
00000010
00000000
00001000
00000000
00010000
,
00001000
00000000
00010000
00100000
10000000
00000000
10000000
01000000
,
00010000
00001000
00000010
00000011
,
00000001
00000100
00000001
00000000
00000010
00001000
00000010
00000000
,
00000100
00010000
00000100
00000000
00001000
00100000
00001000
00000000
,
00010000
00000000
00100000
10000000
00100000
00000000
01000000
00000000
,
10000000
00000000
01000000
00010000
01000000
00000000
10000000
00000000
,
10000000
01000000
10000000
00000000
00100000
00010000
00100000
00000000
,
01000000
00001000
01000000
00000000
00010000
00000010
00010000
00000000
,
00001000
00000000
00000010
00000001
00000010
00000000
00000100
00000000
,
00000001
00000000
00000100
00001000
00000100
00000000
00000001
00000000
,
00000000
00000001
00000100
00000001
00000000
00000100
00001000
00000100
,
00000000
00010000
00000000
00010000
00000000
00100000
10000000
00100000
,
00000000
10000000
01000000
10000000
00000000
01000000
00010000
01000000
,
00000000
00001000
00000000
00001000
00000000
00000010
00000001
00000010
,
00000000
00000001
00000100
00000100
00000000
00001000
00010000
00010000
,
00000000
00100000
00000000
00100000
00000000
10000000
01000000
01000000
,
00000000
00010000
00001000
00001000
00000000
00000100
00000001
00000001
,
00000000
00000010
00000000
00000010
00000000
00001000
00010000
00010000
,
00001000
00000100
00001000
00000000
00010000
01000000
00010000
00000000
,
00001000
00000010
00001000
00000000
00010000
00100000
00010000
00000000
,
00100000
00000000
10000000
01000000
10000000
00000000
01000000
00000000
,
00010000
00000000
00001000
00000100
00001000
00000000
00011000
00000000
;
