#VERSION:0.83;
#TITLE:COREDESAT;
#SUBTITLE:;
#ARTIST:Des-ROW;
#TITLETRANSLIT:;
#SUBTITLETRANSLIT:;
#ARTISTTRANSLIT:;
#GENRE:;
#ORIGIN:;
#CREDIT:;
#BANNER:COREDESAT-bn.png;
#BACKGROUND:COREDESAT-bg.png;
#PREVIEWVID:;
#JACKET:COREDESAT-jacket.png;
#CDIMAGE:;
#DISCIMAGE:;
#LYRICSPATH:;
#CDTITLE:;
#MUSIC:COREDESAT.ogg;
#OFFSET:-0.100000;
#SAMPLESTART:11.736000;
#SAMPLELENGTH:20.000000;
#SELECTABLE:YES;
#DISPLAYBPM:158.000000:165.000000;
#BPMS:0.000=165.000,
76.000=158.000,
148.000=160.000;
#STOPS:;
#DELAYS:;
#WARPS:;
#TIMESIGNATURES:0.000=4=4;
#TICKCOUNTS:0.000=4;
#COMBOS:0.000=1;
#SPEEDS:0.000=1.000=0.000=0;
#SCROLLS:0.000=1.000;
#FAKES:;
#LABELS:0.000=Song Start;
#BGCHANGES:;
#KEYSOUNDS:;
#ATTACKS:
;

//---------------dance-single - ----------------
#NOTEDATA:;
#CHARTNAME:;
#STEPSTYPE:dance-single;
#DESCRIPTION:;
#CHARTSTYLE:;
#DIFFICULTY:Hard;
#METER:14;
#RADARVALUES:0.804924,0.788951,0.824557,0.000000,0.630911,451.000000,385.000000,66.000000,0.000000,0.000000,0.000000,0.000000,0.000000,0.000000,0.804924,0.788951,0.824557,0.000000,0.630911,451.000000,385.000000,66.000000,0.000000,0.000000,0.000000,0.000000,0.000000,0.000000;
#CREDIT:;
#DISPLAYBPM:158.000000:165.000000;
#NOTES:
0000
0000
0000
0000
,
0000
0000
0000
0000
,
0000
0000
0000
0000
,
0000
0000
0000
0000
,
0001
0100
1000
0100
0001
0000
0001
0000
,
0010
0000
0010
0000
0001
0100
1000
0000
,
1001
0100
0001
0001
,
0010
0001
0010
1000
0010
0001
0100
0000
,
0110
0000
0000
1000
0000
0000
0100
0000
0000
0001
0010
0000
0100
0000
1000
0000
,
0010
1000
0000
0010
0100
0000
0000
0001
0000
0000
0010
0000
0010
0000
0000
0000
,
0001
0000
0000
0000
1000
0000
0000
0010
0100
0000
0001
0000
0001
0000
0000
0000
,
1001
0000
0000
0000
1000
0010
0000
1000
0001
0000
0100
0000
0100
0000
0000
0000
,
0010
1000
0000
0010
0100
0000
0001
0010
0000
0001
0010
0000
0100
0000
1000
0000
,
0001
0100
0000
0001
0100
0000
0000
0010
0000
0000
1000
0000
1000
0000
0000
0000
,
0100
0000
0000
0000
1000
0000
0000
0001
1000
0000
0010
0000
0010
0000
0000
0000
,
0110
0000
0000
0001
0100
0000
0000
0010
1000
0000
0100
0000
0100
0000
0000
0000
,
1000
0001
0000
0001
1000
0000
0000
0010
0000
0000
0100
0000
0100
0000
0001
0000
,
0010
0000
0001
0000
0100
0000
0010
1000
0010
1000
0010
0000
0100
0001
0100
0000
,
0010
0000
1000
0001
1000
0100
0100
0000
,
1000
0010
1000
0000
0001
0100
0001
0000
1000
0100
1000
0000
0001
0010
0001
0000
,
1000
0000
1000
0000
1000
0100
0001
0000
,
1000
0010
1000
0010
1000
0000
0001
0010
0001
0010
0001
0000
1000
0001
1000
0000
,
1010
0000
0010
0101
0000
1000
0011
0000
,
0001
0100
0001
0100
0001
0000
1000
0100
1000
0100
1000
0000
0001
1000
0001
0000
,
0101
0000
0010
1100
0000
1000
0011
0000
,
1000
0010
1001
0100
0001
1000
1010
0001
,
0100
0010
0101
0100
0010
1000
0011
0001
,
1000
0100
1100
0010
0001
1000
0110
0001
,
0010
0100
0011
0010
0100
1000
0101
0001
,
0010
1000
1001
0001
0100
0010
1010
0100
,
0001
1000
0011
0010
1000
0100
0101
0001
,
1000
0001
0011
1000
0010
0100
1001
0010
,
0100
0001
1010
0100
0001
0010
0110
0000
,
1000
0100
0010
0100
1000
0000
0001
0010
0100
0010
0001
0000
1000
0001
1000
0000
,
0101
0000
0010
1100
0000
0001
0110
0000
,
0001
0100
0010
0100
0001
0000
1000
0010
0100
0010
1000
0000
0001
1000
0001
0000
,
1010
0000
0100
1001
0000
0010
1100
0000
,
0001
0000
1000
0000
0010
1000
0000
1000
0100
0000
0100
0010
0000
0010
0001
0000
,
1000
0000
0001
0000
0100
0010
0000
0010
1000
0000
1000
0001
0000
0001
0100
0000
,
0001
0000
0010
0000
0100
1000
0000
1000
0001
0000
0001
1000
0000
1000
0010
0000
,
0100
0000
0001
0010
0000
0010
0100
0000
1000
0000
0001
1000
0000
0010
0000
0100
,
0001
0000
0000
0011
0000
0000
1001
0000
0000
0101
0000
0000
1100
0000
0000
0010
,
1000
0000
0000
1001
0000
0000
0101
0000
0000
1010
0000
0000
0110
0000
0000
0000
,
0101
0000
0000
1100
0000
0000
0011
0000
0000
1100
0000
0000
0101
0000
0000
0000
,
1001
0000
0000
1010
0000
0000
0101
0000
0000
0011
0000
0000
1100
0000
0001
1000
,
0100
0000
0000
0110
0000
0000
1001
0000
0000
1010
0000
0000
0011
0000
0001
1000
,
0010
0000
0000
0110
0000
0000
1010
0000
0000
1100
0000
0000
0101
0000
0010
1000
,
0100
0000
0000
1100
0000
0000
0110
0000
0000
0011
0000
0000
1001
0000
0001
0100
,
0010
0000
0000
1010
0000
0000
1100
0000
0000
1010
0000
0000
1001
0000
0000
0000
,
0100
0000
0001
0100
0000
0010
1000
0000
0100
0010
0000
0010
0001
0000
1000
0000
,
0001
0000
1000
0010
0000
1000
0100
0000
1000
0001
0100
0010
1000
0000
0001
0000
,
0010
0000
0001
0100
0000
0100
0010
0000
1000
0100
1000
0001
0100
0000
0010
1000
,
0001
0000
0010
0100
1000
0000
0001
0000
0000
1000
0001
0000
0000
0000
0000
0000
;

//---------------dance-single - ----------------
#NOTEDATA:;
#CHARTNAME:;
#STEPSTYPE:dance-single;
#DESCRIPTION:;
#CHARTSTYLE:;
#DIFFICULTY:Medium;
#METER:10;
#RADARVALUES:0.506870,0.525967,0.224879,0.199893,0.231126,284.000000,266.000000,18.000000,16.000000,0.000000,0.000000,0.000000,0.000000,0.000000,0.506870,0.525967,0.224879,0.199893,0.231126,284.000000,266.000000,18.000000,16.000000,0.000000,0.000000,0.000000,0.000000,0.000000;
#CREDIT:;
#DISPLAYBPM:158.000000:165.000000;
#NOTES:
0000
0000
0000
0000
,
0000
0000
0000
0000
,
0000
0000
0000
0000
,
0000
0000
0000
0000
,
0001
0001
1000
1000
,
0010
0000
0010
0000
1000
0100
0001
0000
,
1001
0100
0010
0010
,
1000
0000
1000
0000
1000
0100
0001
0000
,
0110
0000
0000
0100
0000
0000
0100
0000
0000
0000
0001
0000
0010
0000
0001
0000
,
1000
0000
0000
0010
0000
0000
1000
0000
0100
0000
0010
0000
0001
0000
0000
0000
,
1000
0000
0000
0000
0001
0000
0000
1000
0000
0000
0010
0000
0100
0000
0000
0000
,
1001
0000
0000
0000
0010
0000
0000
1000
0000
0000
0001
0000
0100
0000
0000
0000
,
0010
0000
0000
0010
0000
0000
0010
0000
0000
0000
1000
0000
0001
0000
1000
0000
,
0100
0000
0000
0010
0000
0000
0001
0000
0000
0000
1000
0000
0010
0000
0000
0000
,
1000
0000
0000
0000
0001
0000
0000
1000
0000
0000
0100
0000
0010
0000
0000
0000
,
1001
0000
0000
0000
0100
0000
0000
0001
0000
0000
1000
0000
0100
0000
0000
0000
,
1000
0000
0000
0000
0001
0000
0000
0010
0000
0000
0001
0000
0100
0000
0000
0000
,
0010
0000
0010
1000
0100
0010
0001
0000
,
0110
0000
0001
0100
0001
0100
0010
0000
,
1000
0100
0010
0001
0100
0010
1000
0001
,
0100
0000
0100
0000
0001
0100
1000
0000
,
0020
1000
1030
0020
1000
1030
0010
0100
,
0101
0000
0000
1100
0000
0000
0101
0000
,
0002
0010
0013
0002
0010
0013
0001
1000
,
1010
0000
0000
0101
0000
0000
1010
0000
,
0000
0001
0010
1000
0000
0100
0010
0001
,
0000
0100
0010
1000
0000
0001
1000
0100
,
0000
0010
0001
0010
0000
0001
0100
1000
,
0000
0001
1000
0010
0000
1000
0100
0010
,
0000
0001
1000
0010
0000
1000
0001
1000
,
0000
0100
0010
0001
0000
0100
0010
0100
,
0000
0010
1000
0100
0000
1000
0010
0001
,
0000
1000
0100
0010
0000
0001
1001
0000
,
2000
0100
3100
2000
0100
3100
1000
0001
,
0011
0000
0000
1010
0000
0000
0011
0000
,
0200
0001
0301
0200
0001
0301
0100
0010
,
1010
0000
0000
0101
0000
0000
1100
0000
,
0001
0000
0010
0000
0000
0001
0000
0000
0100
0000
0000
0010
0000
0000
1000
0000
,
0000
0000
0100
0000
0000
0010
0000
0000
0100
0000
0000
1000
0000
0000
0001
0000
,
1000
0000
0001
0000
0000
1000
0000
0000
0010
0000
0000
0100
0000
0000
0001
0000
,
0000
0000
0010
0000
0000
0001
0000
0000
0100
0000
0000
0010
0000
1000
0000
0000
,
0001
0000
0000
0001
0000
0000
1000
0000
0000
1000
0000
0000
0100
0000
0000
0000
,
1000
0000
0000
1000
0000
0000
0010
0000
0000
0010
0000
0000
0100
0000
0000
0000
,
0001
0000
0000
0010
0000
0000
0001
0000
0000
0010
0000
0000
0100
0000
0000
0000
,
1000
0000
0000
0001
0000
0000
1000
0000
0000
0001
0000
0000
0100
0000
0000
0000
,
0010
0000
0000
0010
0000
0000
1000
0000
0000
0001
0000
0000
1000
0000
0100
0000
,
0010
0000
0000
0010
0000
0000
0001
0000
0000
0001
0000
0000
1000
0000
0000
0000
,
0001
0000
0000
0001
0000
0000
0010
0000
0000
0010
0000
0000
0001
0000
0000
0000
,
1000
0000
0000
0010
0000
0000
0100
0000
0000
0010
0000
0000
1000
0000
0000
0000
,
0002
0000
1003
0020
0000
0100
0130
0001
,
2000
0000
3001
0200
0000
0010
0310
0000
,
2000
0000
0000
0010
0000
0000
3002
0000
0000
1000
0000
0000
0103
0000
0010
0000
,
0200
0000
0000
0001
0000
0000
0320
0000
0000
0000
1030
0000
0000
0000
0000
0000
;

//---------------dance-single - ----------------
#NOTEDATA:;
#CHARTNAME:;
#STEPSTYPE:dance-single;
#DESCRIPTION:;
#CHARTSTYLE:;
#DIFFICULTY:Easy;
#METER:7;
#RADARVALUES:0.396216,0.461315,0.499731,0.099946,0.000000,222.000000,182.000000,40.000000,8.000000,0.000000,0.000000,0.000000,0.000000,0.000000,0.396216,0.461315,0.499731,0.099946,0.000000,222.000000,182.000000,40.000000,8.000000,0.000000,0.000000,0.000000,0.000000,0.000000;
#CREDIT:;
#DISPLAYBPM:158.000000:165.000000;
#NOTES:
0000
0000
0000
0000
,
0000
0000
0000
0000
,
0000
0000
0000
0000
,
0000
0000
0000
0000
,
0001
0001
0001
0001
,
1000
1000
1000
1000
,
0001
0001
0001
0001
,
1000
1000
1000
1000
,
0010
1000
0100
0001
,
1000
0001
0010
0100
,
1000
0010
1000
0001
,
1001
0100
0001
0010
,
0100
0010
0001
0100
,
0010
1000
0100
1000
,
0001
0010
1000
0001
,
1001
0010
0001
0100
,
0010
1000
0100
0001
,
0010
0010
0010
0000
,
1001
0100
0001
0000
,
1000
0001
0010
0100
,
1000
1000
0001
0001
,
0010
0001
0100
1000
,
1010
0000
0000
0101
0000
0000
1010
0000
,
0010
1000
0100
0001
,
0011
0000
0000
1100
0000
0000
0011
0000
,
1000
1100
0001
0101
,
1000
1100
0001
0101
,
1000
1010
0001
0011
,
1000
1010
0001
0011
,
0010
1001
0100
1001
,
0010
1001
0100
1001
,
0010
0101
0010
1100
,
0010
0101
0010
1100
,
0001
0010
1000
0100
,
1001
0000
0000
0110
0000
0000
1001
0000
,
1000
0010
0001
0100
,
1001
0000
0000
0110
0000
0000
1001
0000
,
0110
0001
0100
1000
,
0010
1000
0001
1000
,
0100
0010
0001
0100
,
0001
0010
1000
0001
,
1000
1000
0001
1001
,
0001
0001
1000
1001
,
0010
0010
1000
0110
,
0010
0010
0100
0110
,
0001
0010
1000
1100
,
0010
1000
0100
0011
,
0100
0001
0010
1001
,
0100
0001
1000
1010
,
0002
0000
0000
2000
0000
0000
3003
0000
,
0020
0000
0000
0200
0000
0000
0330
0000
,
0020
0000
0000
2000
0000
0000
3030
0000
,
0002
0000
0000
0200
0000
0000
0303
0000
;

//---------------dance-single - ----------------
#NOTEDATA:;
#CHARTNAME:;
#STEPSTYPE:dance-single;
#DESCRIPTION:;
#CHARTSTYLE:;
#DIFFICULTY:Beginner;
#METER:2;
#RADARVALUES:0.128502,0.163974,0.024987,0.199893,0.000000,72.000000,70.000000,2.000000,16.000000,0.000000,0.000000,0.000000,0.000000,0.000000,0.128502,0.163974,0.024987,0.199893,0.000000,72.000000,70.000000,2.000000,16.000000,0.000000,0.000000,0.000000,0.000000,0.000000;
#CREDIT:;
#DISPLAYBPM:158.000000:165.000000;
#NOTES:
// measure 0
0000
0000
0000
0000
,  // measure 1
0000
0000
0000
0000
,  // measure 2
0000
0000
0000
0000
,  // measure 3
0000
0000
0000
0000
,  // measure 4
0001
0000
0000
0000
,  // measure 5
1000
0000
0000
0000
,  // measure 6
0001
0000
0000
0000
,  // measure 7
1000
0000
0000
0000
,  // measure 8
0110
0000
0000
0000
,  // measure 9
0010
0010
0000
0000
,  // measure 10
1000
1000
0000
0000
,  // measure 11
0001
0001
0000
0000
,  // measure 12
1000
1000
0000
0000
,  // measure 13
0100
0100
0000
0000
,  // measure 14
0010
0010
0000
0000
,  // measure 15
0001
0001
0000
0000
,  // measure 16
0100
0000
0010
0000
,  // measure 17
1000
0000
0000
0000
,  // measure 18
1001
0000
0000
0000
,  // measure 19
0001
0000
0000
0000
,  // measure 20
0100
0000
0010
0000
,  // measure 21
1000
0000
1000
0000
,  // measure 22
2000
0000
3000
0000
,  // measure 23
0001
0000
0001
0000
,  // measure 24
0002
0000
0003
0000
,  // measure 25
0000
0100
0000
0100
,  // measure 26
0000
0100
0000
0100
,  // measure 27
0000
0010
0000
0010
,  // measure 28
0000
0010
0000
0010
,  // measure 29
0000
1000
0000
1000
,  // measure 30
0000
0001
0000
0001
,  // measure 31
0000
1000
0000
0001
,  // measure 32
0000
0100
0000
0010
,  // measure 33
0010
0000
0010
0000
,  // measure 34
0020
0000
0030
0000
,  // measure 35
0100
0000
0100
0000
,  // measure 36
0200
0000
0300
0000
,  // measure 37
0001
0000
0000
0000
,  // measure 38
1000
0000
0000
0000
,  // measure 39
0100
0000
0000
0000
,  // measure 40
0010
0000
0000
0000
,  // measure 41
0002
0000
0003
0000
,  // measure 42
2000
0000
3000
0000
,  // measure 43
0002
0000
0003
0000
,  // measure 44
2000
0000
3000
0000
,  // measure 45
0200
0000
0300
0000
,  // measure 46
0020
0000
0030
0000
,  // measure 47
0200
0000
0300
0000
,  // measure 48
0020
0000
0030
0000
,  // measure 49
0002
0000
0003
0000
,  // measure 50
2000
0000
3000
0000
,  // measure 51
0200
0000
0300
0000
,  // measure 52
0020
0000
0030
0000
;
