#TITLE:CONGA FEELING;
#ARTIST:VIVIAN;
#BANNER:CONGA FEELING.png;
#BACKGROUND:CONGA FEELING-bg.png;
#JACKET:CONGA FEELING-jacket.png;
#MUSIC:CONGA FEELING.ogg;
#SAMPLESTART:7.385;
#SAMPLELENGTH:20;
#DISPLAYBPM:130;
#BPMS:0=130;
#BGCHANGES:;

//---------------dance-single - ----------------
#NOTES:
     dance-single:
     :
     Beginner:
     3:
     :
0000
0000
0000
0000
,
0000
0000
0000
0000
,
0000
0000
0000
0000
,
0000
0000
0000
0000
,
0000
0000
0000
0000
,
1000
1000
0000
0001
,
0000
0100
0000
0100
,
0000
0100
0000
0100
,
0000
1000
1000
1000
,
0000
0001
0000
0001
,
0000
1000
0000
1000
,
0000
0001
0000
1000
,
0000
0010
0000
0100
,
0000
0100
0000
0100
,
0000
0100
0000
0100
,
0000
0100
0000
0100
,
0000
0100
0000
0100
,
0000
0000
0010
0000
,
0100
0000
0100
0000
,
0001
0000
1000
0000
,
1001
0000
0000
0000
,
0001
0001
0000
0100
,
0000
1000
0000
0100
,
0000
0001
0000
0100
,
0000
1000
0000
0100
,
0000
0000
0010
0000
,
1000
0000
0100
0000
,
0010
0000
0010
0000
,
0010
0000
0001
0000
,
1001
0000
1001
0000
,
0001
0000
0001
0000
,
0010
0010
0010
0010
,
0000
0001
0000
0001
,
0000
0100
0100
0100
,
0000
0100
0000
0100
,
0000
0100
0000
0100
,
0000
0000
0000
0000
,
1000
0000
1000
0000
,
0001
0000
0001
0000
,
1000
0000
0001
0000
,
0010
0000
0010
0000
,
0010
0000
0100
0000
,
0010
0000
0100
0000
,
0010
0000
0100
0000
,
0010
0000
0100
0000
,
0010
0000
0010
0000
,
0010
0000
0100
0100
,
0000
0000
0001
0000
,
0001
0000
1000
1000
;

//---------------dance-single - ----------------
#NOTES:
     dance-single:
     :
     Easy:
     6:
     :
0000
0000
0000
0000
,
0000
0000
0000
0000
,
0000
0000
0000
0000
,
0000
0000
0000
0000
,
0000
0000
0000
0000
,
1000
1000
0001
0001
,
1000
0100
0001
0100
,
1000
0100
0001
0100
,
1000
1000
1000
1000
,
0000
0001
0000
0001
,
0000
1000
0000
1000
,
0001
0001
1000
1000
,
0010
0010
0100
0100
,
0001
0100
1000
0100
,
0001
0100
1000
0100
,
0001
0100
1000
0100
,
0001
0100
1000
0100
,
0010
0000
0010
0000
,
0100
0000
0100
0000
,
0001
0000
1000
0000
,
1001
0000
0000
0000
,
0001
0001
0100
0100
,
1000
1000
0100
0100
,
0001
0001
0100
0100
,
1000
1000
0100
0100
,
0010
0000
0010
0000
,
1000
0001
0100
1001
,
0010
0000
0010
0000
,
0010
1000
0001
0100
,
1001
0100
1001
0100
,
0001
1000
0001
1000
,
0010
0010
0010
0010
,
1000
0001
1000
0001
,
0100
0100
0100
0100
,
0001
0100
1000
0100
,
0001
0100
1000
0100
,
0001
0000
0000
0000
,
1000
0000
1000
0000
,
0001
0000
0001
0000
,
1000
0000
0001
0000
,
0010
0000
0010
0000
,
0010
1000
0100
0001
,
0010
1000
0100
0001
,
0010
1000
0100
0001
,
0010
1000
0100
0001
,
0010
0000
0010
0000
,
0010
1000
0100
0100
,
0001
0000
0001
0000
,
0001
0100
1000
1000
,
1001
0000
0000
0000
;

//---------------dance-single - ----------------
#NOTES:
     dance-single:
     :
     Medium:
     8:
     :
0000
0000
0000
0000
,
0000
0000
0000
0000
,
0000
0000
0000
0000
,
0000
0000
0000
0000
,
0000
0000
0000
0000
,
0001
0000
0001
0000
0001
0000
0001
1000
,
0100
0000
0100
0000
0100
0000
0100
0001
,
1000
0000
1000
0000
1000
0000
1000
0100
,
0010
0010
0010
0010
,
1001
0000
0000
0000
0100
1000
0100
0010
,
0001
0000
0000
0000
0001
0100
0001
1000
,
0100
0000
0000
0000
0010
1000
0100
1000
,
0001
0000
0010
1001
,
0001
0000
0001
0000
1000
1000
1000
0000
,
0001
0000
1000
0000
0100
0100
0100
0000
,
1000
0000
0100
0000
0010
0010
0010
0000
,
0001
0000
1000
0000
0100
1000
0001
0000
,
0000
0001
0000
0001
0000
1000
0000
1000
,
0000
0010
0000
0100
0000
0010
0010
0010
,
0000
1000
0000
0001
0000
1000
0000
0100
,
1001
0000
0000
0000
,
0001
0000
1000
0000
0001
1000
0001
0000
,
1000
0000
0001
0000
1000
0001
1000
0000
,
0010
1000
0010
0000
0100
0001
0100
0000
,
0001
0100
1000
0000
0101
0000
1100
0000
,
0001
0000
1000
0000
0001
1000
0001
0000
,
1000
0000
0001
0000
1000
0001
1000
0000
,
0010
1000
0010
0000
0100
0001
0100
0000
,
0001
0100
1000
0000
0101
0000
1100
0000
,
1100
1100
1100
1100
,
0001
1000
0000
0000
0001
1000
0000
0000
0001
1000
0000
0000
0001
1000
0000
0000
,
1100
1100
1100
1100
,
0001
1000
0000
0000
0001
1000
0000
0000
0001
1000
0000
0000
0001
1000
0000
0000
,
0010
0010
0010
0010
,
0100
0000
0100
0000
0100
0000
0010
1000
,
0100
0100
0100
0100
,
1001
0000
1001
0101
,
0010
0000
0000
0000
0010
1000
0100
0000
,
1000
0000
0000
0000
0001
1000
0100
0000
,
0001
0000
0000
0000
1000
0001
0100
0000
,
0010
0000
0010
0000
0010
1000
0100
0000
,
0000
0001
0000
0100
0000
0100
0000
1000
,
0000
0100
0000
0100
0000
0100
1000
0000
,
0000
0001
0000
0100
0000
0100
0000
1000
,
0000
0010
0000
0010
0000
0001
0100
0000
,
0000
0001
0000
1000
0000
0001
0000
0100
,
0000
1000
0000
0100
0000
0001
0000
0100
,
0000
1000
0000
0100
0000
0001
0000
0100
,
0000
1001
0000
1001
0000
1001
0010
0100
,
1001
0000
0000
0000
;

//---------------dance-single - ----------------
#NOTES:
     dance-single:
     :
     Hard:
     12:
     :
0000
0000
0000
0000
,
0000
0000
0000
0000
,
0000
0000
0000
0000
,
0000
0000
0000
0000
,
0000
0000
0000
0000
,
0010
0000
0000
0000
0010
0000
0000
0000
0001
1000
0001
0000
0100
0000
0000
0000
,
0100
0000
0000
0000
0100
0000
0000
0000
0001
1000
0001
0000
0100
0000
0000
0000
,
0010
0000
0000
0000
0010
0000
0000
0000
0010
1000
0010
0000
0100
0000
0000
0000
,
0001
0000
0000
0000
0001
0000
0000
0000
1000
0100
1000
0000
0001
0000
0000
0000
,
0010
1000
0100
1000
0010
1000
0100
1000
,
0010
1000
0100
1000
0010
0010
0010
0000
,
0010
0001
0100
0001
0010
0001
0100
0001
,
0010
0001
0100
0001
0010
0010
1001
0000
,
0010
1000
0010
1000
0001
1000
0001
1000
,
0010
1000
0001
1000
0010
1000
0010
0000
,
0010
0001
0010
0001
1000
0001
1000
0001
,
0010
0001
1000
0001
0010
0001
0010
0000
,
0001
0000
0000
1000
0100
0001
0100
0000
,
1000
0000
0000
0100
0010
0001
0100
0000
,
0010
0000
0000
0001
0100
0010
1000
0000
,
1001
0000
0110
0110
,
1010
0000
0000
0000
0001
0000
1000
0100
1000
0100
1000
0000
0010
0000
0000
0000
,
0011
0000
0000
0000
1000
0000
0001
0100
0001
0100
0001
0000
0010
0000
0000
0000
,
1010
0000
0000
0000
0001
0000
1000
0100
1000
0100
1000
0000
0010
0000
0000
0000
,
0011
0000
0000
0000
1000
0000
0001
0100
0001
0100
0001
0000
0010
0000
0000
0000
,
0101
0000
0000
0000
1100
0000
0010
1000
0100
1000
0010
1000
0100
0000
0000
0000
,
0101
0000
0000
0000
1100
0000
0010
1000
0100
1000
0010
1000
0100
0000
0000
0000
,
0101
0000
0000
0000
1100
0000
0010
1000
0100
1000
0010
1000
0100
0000
0000
0000
,
0011
1010
0100
0100
,
0001
0000
1000
0000
0100
0000
0000
0000
0010
1000
0010
0000
0100
0000
0000
0000
,
0001
0000
1000
0000
0100
0000
0000
0000
0010
1000
0010
0000
0100
0000
0000
0000
,
1000
0000
0001
0000
0100
0000
0000
0000
0010
0001
0010
0000
0100
0000
0000
0000
,
1000
0000
0001
0000
0100
0000
0000
0000
0010
0001
0010
0000
0100
0000
0000
0000
,
0010
0000
0010
0000
0010
1000
0100
0000
,
0010
0000
0010
0000
0010
0001
0100
0000
,
0001
0100
0001
0100
0001
1000
0001
1000
,
0010
1000
0010
1000
0010
1000
0100
0000
,
0100
1000
0000
0000
0100
0001
0000
0000
0010
0000
1000
0000
0100
0000
0000
0000
,
0100
0001
0000
0000
0100
1000
0000
0000
0010
0000
0001
0000
0100
0000
0000
0000
,
0100
1000
0000
0000
0100
0001
0000
0000
0010
0000
1000
0000
0100
0000
0000
0000
,
0100
0001
0000
0000
0100
1000
0000
0000
0010
0000
0001
0000
0100
0000
0000
0000
,
0010
1000
0000
0000
0001
0100
0000
0000
0010
1000
0000
0000
0001
0100
0000
0000
,
0010
1000
0000
0000
0010
1000
0000
0000
0001
0100
0000
0000
0001
0100
0000
0000
,
0001
0010
0000
0000
0001
0010
0000
0000
0100
1000
0000
0000
0100
1000
0000
0000
,
0001
0010
0000
0000
0100
1000
0000
0000
0001
0010
0000
0000
0100
1000
0000
0000
,
0001
0100
0000
0000
0001
0100
0000
0000
0100
1000
0000
0000
0100
1000
0000
0000
,
0001
0100
0000
0000
0100
1000
0000
0000
0001
0100
0000
0000
0001
0100
0000
0000
,
0100
1000
0000
0000
0100
1000
0000
0000
0001
0100
0000
0000
0001
0100
0000
0000
,
0100
1000
0000
0000
0001
0100
0000
0000
0100
1000
0000
0000
0100
1000
0000
0000
,
0101
0000
0000
0000
;

//---------------dance-single - ----------------
#NOTES:
     dance-single:
     :
     Challenge:
     15:
     :
0000
0000
0000
0000
,
0000
0000
0000
0000
,
0000
0000
0000
0000
,
0000
0000
0000
0000
,
0001
0000
0000
0000
0001
0000
0000
0000
0001
0000
0000
0000
1000
0000
0000
0000
0100
0000
0000
0000
0000
1100
0000
0000
0000
0000
0000
0101
0000
0000
0000
0000
0000
0100
0000
0000
0010
0000
0000
0000
0000
0000
1000
0000
0000
0000
0000
0000
,
1001
0000
0000
1000
0100
1000
0000
0011
0000
0011
0000
0100
0001
0000
1000
0000
,
0010
1000
0000
1000
0001
1000
0000
1100
0000
1100
0000
0010
0100
0000
0001
0000
,
0010
0001
0000
0001
1000
0100
0000
0110
0000
0110
0000
0010
0100
0000
1000
0000
,
0001
1000
0000
1000
0100
0010
0001
0000
0101
0000
1001
0000
1100
0000
0000
0000
,
1001
0000
0000
0010
0000
0010
0000
0010
1000
0100
1000
0000
0001
0000
0001
0000
,
0010
0000
0010
0000
0010
0001
0100
0001
0000
1000
0100
0000
1000
0010
1000
0000
,
0010
0100
0000
0101
0000
0101
0000
0001
1000
0100
0010
0000
0001
0000
0001
0000
,
0001
0000
1000
0000
1000
0010
1000
0000
0010
0100
0000
0000
1001
0000
0000
0000
,
0110
0000
0000
0010
1000
0000
0001
1000
0000
0100
0000
0010
0001
0000
0100
0010
,
0000
1000
0001
0000
0000
0000
0100
0000
0001
0010
0000
0001
1000
0100
0000
1000
,
0001
0000
0000
1000
0100
0000
0010
0001
0000
1000
0000
0001
0100
0000
0010
1000
,
0000
1000
0100
0000
0000
1000
0100
0000
1100
0000
1001
0000
0101
0000
0000
0000
,
0010
0000
0000
1000
0001
0000
0100
0001
0000
0010
0000
0001
0100
0000
0010
1000
,
0000
0001
1000
0000
0000
0000
0010
0000
1000
0100
0000
1000
0001
0100
0000
0010
,
1000
0000
0000
0100
1000
0000
0010
0100
0000
0001
0000
0010
0001
0000
0100
0010
,
0000
1000
0001
0000
0000
1000
0001
0000
0101
0000
1001
0000
1100
0000
0000
0000
,
1001
0000
1000
0100
1000
0000
0010
0100
0000
0001
0010
0001
1000
0000
0010
0100
,
0001
0100
0010
0000
1000
0010
1000
0000
0100
0100
0000
1000
0001
0100
0000
0100
,
0010
0000
1000
0100
1000
0000
0010
0100
0000
0001
0010
0100
1000
0000
0001
0100
,
0010
1000
0100
0000
1000
0001
1000
0000
1010
0000
1001
0000
0011
0000
0000
0000
,
1001
0000
1000
0010
1000
0000
0100
0010
0000
0001
0100
0001
1000
0000
0001
0010
,
0100
1000
0100
0000
1000
0001
0010
0000
0001
0001
0000
0100
0010
1000
0000
1000
,
0100
0000
1000
0001
1000
0000
0001
0100
0000
0010
1000
0010
0100
0000
0001
0010
,
0100
0010
0001
0000
1000
0100
1000
0000
1010
0000
1001
0000
0011
0000
0000
0000
,
1001
0000
0000
0000
0110
0000
0010
0100
0000
0001
1000
0100
1000
0000
0010
0000
,
0001
0000
0000
0000
0001
0000
0000
0000
0001
0000
0000
0000
1000
0000
0000
0000
0100
0000
0000
0000
0000
1100
0000
0000
0000
0000
0000
0101
0000
0000
0000
0000
0000
0100
0000
0000
0010
0000
0000
0000
0000
0000
1000
0000
0000
0000
0000
0000
,
0001
0010
0000
0010
0001
0100
0000
0110
0000
1010
0000
1000
0100
0000
0010
0000
,
0001
0000
0000
0000
0001
0000
0000
0000
0001
0000
0000
0000
1000
0000
0000
0000
0100
0000
0000
0000
0000
1100
0000
0000
0000
0000
0000
0101
0000
0000
0000
0000
0000
0100
0000
0000
0010
0000
0000
0000
0000
0000
1000
0000
0000
0000
0000
0000
,
1001
0000
1000
0000
0010
0000
1000
0100
0000
0100
0010
0001
1000
0000
0001
0000
,
0101
0000
0100
0000
0010
0000
1000
0100
0000
1000
0001
0010
0100
0000
0010
0000
,
0011
0000
0001
0000
0100
0000
0001
1000
0000
1000
0100
0010
0001
0000
0100
0000
,
0010
1000
0000
0001
0010
0100
0000
1000
0001
0000
0100
0010
0000
0100
0010
0000
,
1010
0000
1001
0000
0101
0000
1001
0000
1010
0000
0000
0010
1000
0001
0100
0000
,
0101
0000
0110
0000
1010
0000
0110
0000
0101
0000
0000
0001
0010
0100
1000
0000
,
1100
0000
0110
0000
0011
0000
0110
0000
1100
0000
0010
1000
0000
0100
0001
0000
,
1000
0100
1000
0100
1000
0100
1000
0010
0100
0001
1000
0000
0010
0010
0000
0000
,
1001
0000
1000
0010
0000
0010
0000
0100
0001
0000
1010
0000
1001
0000
0011
0000
,
0110
0000
0110
0000
1000
0100
0010
0001
0000
0001
0100
0010
0000
0010
1000
0000
,
0010
0010
0000
1000
0000
0001
0100
0000
0001
0000
1000
0000
1100
0000
0011
0000
,
1001
0000
1001
0000
1000
0001
0100
0010
0000
0010
1000
0001
0000
0001
0100
0000
,
1001
1000
0000
1100
0000
0001
0100
0000
0010
0000
0010
0000
1010
0000
0101
0000
,
0001
0001
0000
1010
0000
0100
0010
0000
1000
0000
1000
0000
1001
0000
0110
0000
,
0010
0010
0000
1001
0000
1000
0001
0000
0100
0100
0000
1001
0000
0001
1000
0000
,
0100
1000
0100
0010
0001
0100
0010
1000
0001
0010
0001
0010
0001
1000
0100
1000
,
1001
0000
0000
0000
;

//---------------dance-double - ----------------
#NOTES:
     dance-double:
     :
     Easy:
     6:
     :
00000000
00000000
00000000
00000000
,
00000000
00000000
00000000
00000000
,
00000000
00000000
00000000
00000000
,
00000000
00000000
00000000
00000000
,
00000000
00000000
00000000
00000000
,
00000001
00000000
00000100
00000000
,
00001000
00010000
01000000
00000000
,
10000000
00000000
01000000
00000000
,
00010000
00001000
00000100
00000000
,
00000001
00000000
00000001
00000000
,
00001000
00000000
00001000
00011000
,
00010000
00000000
00010000
00000000
,
10000000
00000000
10000000
10010000
,
00000000
10000000
01000000
00010000
,
00000000
00001000
00000100
00000001
,
00000000
00000001
00000100
00001000
,
00000000
00010000
01000000
10000000
,
10000000
00010000
01000000
01000000
,
00001000
00010000
01000000
01000000
,
00010000
00001000
00000100
00000100
,
00000001
00000000
00000000
00000000
,
00000001
00000001
00000100
00000100
,
00010000
00010000
00100000
00100000
,
00010000
10000000
01000000
01000000
,
00010000
00001000
00000100
00000100
,
00000001
00000000
00000001
00000000
,
00000100
00001000
00010000
01000000
,
10000000
00000000
10000000
00000000
,
01000000
00010000
00001000
00000100
,
00000001
00000001
00000100
00000100
,
00001000
00010000
01000000
10000000
,
00100000
00100000
01000000
01000000
,
00100000
00010000
00001000
00000010
,
00000001
00000001
00000100
00000100
,
00010000
00100000
01000000
10000000
,
00100000
00100000
01000000
01000000
,
00100000
00010000
00001000
00000010
,
00000001
00001000
00000001
00000100
,
00001000
00010000
01000000
10000000
,
10000000
00010000
10000000
01000000
,
00010000
00001000
00000100
00000001
,
00000001
00000000
00000001
00000000
,
00000001
00000100
00001001
00011000
,
00100000
00000000
00100000
00000000
,
01000000
10000000
10010000
00011000
,
00000010
00000001
00000100
00001000
,
00010000
01000000
10000000
00100000
,
10000000
01000000
00010000
00001000
,
00010000
01000000
10000000
00100000
,
00010000
00000000
00000000
00000000
;

//---------------dance-double - ----------------
#NOTES:
     dance-double:
     :
     Medium:
     8:
     :
00000000
00000000
00000000
00000000
,
00000000
00000000
00000000
00000000
,
00000000
00000000
00000000
00000000
,
00000000
00000000
00000000
00000000
,
00000000
00000000
00000000
00000000
,
10000000
00000000
01000000
00000000
00100000
00010000
01000000
00000000
,
00001000
00000000
00010000
00000000
00001000
00000100
00000001
00000000
,
00000010
00000000
00000001
00000000
00001000
00000100
00000001
00000000
,
00000001
00000100
00001000
00000000
00000100
00010000
00001000
00000000
,
00100000
00010000
01000000
10000000
,
01000000
00010000
00100000
00010000
,
01000000
10000000
01000000
10000000
,
01000000
00000000
00010000
00000000
00100000
00001000
00010000
00000000
,
00000100
00000000
00001000
00000000
00000100
00000001
00000100
00000000
,
00001000
00000001
00000100
00000000
00000010
00000000
00001000
00000000
,
00000001
00000000
00000100
00000000
00001000
00010000
01000000
00000000
,
10000000
00100000
01000000
00000000
00010000
00000000
01000000
00000000
,
10000000
00000000
01000000
00000000
00010000
00001000
00000100
00000000
,
00000010
00001000
00000100
00000000
00000001
00000000
00000100
00000000
,
00010000
00000000
00001000
00000000
00010000
00100000
10000000
00000000
,
00010000
00000000
00010000
00011000
,
00000010
00000000
00000001
00000000
00000100
00001000
00000100
00000000
,
00001000
00000000
00010000
00000000
01000000
10000000
00100000
00000000
,
10000000
00000000
01000000
00000000
00010000
01000000
00010000
00000000
,
10000000
00000000
00010000
00000000
00100000
00001000
00010000
00000000
,
00001000
00000000
00000100
00000000
00000001
00000010
00000100
00000000
,
00001000
00000000
00000010
00000000
00000100
00000001
00001000
00000000
,
00000100
00000000
00000001
00000000
00000100
00001000
00100000
00000000
,
10000000
00000000
01000000
00000000
00010000
00001000
00000100
00000000
,
00000001
00000000
00000100
00000000
,
00001000
00010000
01000000
10000000
00100000
10000000
01000000
00000000
,
10000000
00000000
01000000
00000000
,
00010000
00001000
00000100
00000001
00000010
00000001
00000100
00000000
,
00001000
00000000
00000100
00000000
,
00000001
00000010
00000001
00000100
00001000
00010000
01000000
00000000
,
00010000
00000000
01000000
00000000
,
10000000
00100000
10000000
01000000
00010000
00001000
00000100
00000000
,
00000001
00000000
00000010
00000000
00000001
00000100
00001000
00000000
,
00010000
00000000
00001000
00000000
00000010
00001000
00010000
00000000
,
00100000
00000000
10000000
00000000
01000000
00010000
00001000
00000000
,
00000100
00000000
00001000
00000000
00010000
01000000
10000000
00000000
,
00100000
00010000
00001000
00000000
00000010
00001000
00010000
00000000
,
00100000
10000000
01000000
00000000
00010000
00001000
00000100
00000000
,
00000001
00001000
00000100
00000000
00000010
00000001
00000100
00000000
,
00001000
00010000
01000000
00000000
10000000
00010000
01000000
00000000
,
00100000
10000000
01000000
00000000
00010000
00001000
00000100
00000000
,
00001000
00010000
01000000
00000000
10000000
00100000
01000000
00000000
,
00010000
00100000
01000000
00000000
00010000
00001000
00000100
00000000
,
00000001
00000010
00000100
00001000
00000001
00000100
00000010
00010000
,
01000000
00000000
00000000
00000000
;

//---------------dance-double - ----------------
#NOTES:
     dance-double:
     :
     Hard:
     12:
     :
00000000
00000000
00000000
00000000
,
00000000
00000000
00000000
00000000
,
00000000
00000000
00000000
00000000
,
00000000
00000000
00000000
00000000
,
00000000
00000000
00000000
00000000
,
00010000
00001000
00010000
00001000
00010000
00100000
00010000
00100000
,
00010000
00001000
00010000
00001000
00000010
00001000
00000010
00001000
,
00010000
00001000
00010000
00001000
00010000
00100000
00010000
00100000
,
00010000
00001000
00010000
00001000
00000010
00000001
00000100
00000000
,
00000001
00000100
00000001
00000100
00000010
00001000
00000010
00001000
,
00000100
00010000
00001000
00100000
01000000
10000000
01000000
10000000
,
00010000
01000000
00010000
01000000
00100000
10000000
00100000
10000000
,
01000000
00010000
00001000
00000100
00000001
00000010
00001000
00000000
,
00010000
00001000
00010000
00001000
00010000
01000000
00010000
01000000
,
00010000
00001000
00010000
00001000
00000100
00001000
00000100
00001000
,
00010000
01000000
10000000
01000000
10000000
00100000
00010000
00001000
,
00010000
00001000
00000100
00000001
00000100
00000001
00000010
00000100
,
00000001
00000100
00000001
00000100
00001000
00100000
00001000
00100000
,
10000000
01000000
00010000
01000000
00010000
00001000
00000100
00000001
,
00000100
00000001
00000010
00000100
00001000
00000100
00001000
00000000
,
00011000
00000000
00000000
00000000
,
00010000
00001000
00010000
00001000
00000010
00001000
00000010
00001000
,
00010000
00001000
00010000
00001000
00010000
00100000
00010000
00100000
,
00010000
00001000
00010000
00001000
00010000
01000000
00010000
01000000
,
00010000
00001000
00010000
00001000
00010000
01000000
00010000
00001000
,
00010000
01000000
00010000
01000000
10000000
00100000
10000000
00100000
,
10000000
01000000
00010000
00001000
00000100
00000001
00000100
00000001
,
00000010
00000001
00000010
00000001
00000100
00000001
00000100
00000001
,
00000010
00000100
00001000
00000010
00000100
00001000
00010000
01000000
,
10000000
00100000
10000000
01000000
10000000
00100000
10000000
00000000
,
00100000
10000000
01000000
00010000
00001000
00000100
00000001
00000010
,
00000001
00000100
00000001
00000010
00000001
00000100
00000001
00000000
,
00000010
00000001
00000100
00001000
00010000
01000000
10000000
00000000
,
01000000
10000000
00010000
01000000
00100000
10000000
01000000
00000000
,
00010000
00001000
00000100
00000001
00001000
00000100
00000010
00000000
,
00001000
00010000
01000000
10000000
00100000
10000000
01000000
00000000
,
00010000
00001000
00000100
00000001
00000010
00000001
00000100
00000000
,
00001000
00000100
00001000
00000100
00000001
00000100
00001000
00000100
,
00001000
00000001
00000100
00000001
00000100
00001000
00010000
01000000
,
00010000
01000000
00010000
01000000
00100000
00010000
01000000
00100000
,
10000000
00100000
10000000
00100000
10000000
01000000
00010000
00000000
,
00001000
00010000
00001000
00010000
00001000
00000010
00001000
00000010
,
00000001
00000100
00000001
00000100
00001000
00000100
00001000
00000000
,
00010000
00001000
00010000
00001000
00010000
00100000
00010000
00100000
,
10000000
01000000
10000000
01000000
00010000
01000000
00010000
00000000
,
00001000
00000100
00000001
00000010
00000001
00000010
00000001
00000100
,
00001000
00010000
00001000
00010000
01000000
10000000
00100000
01000000
,
00010000
10000000
00010000
10000000
01000000
00010000
00001000
00000100
,
00000001
00001000
00000001
00001000
00000010
00000100
00001000
00010000
,
01000000
00000000
00000000
00000000
;

//---------------dance-couple - ----------------
#NOTES:
     dance-couple:
     :
     Medium:
     8:
     :
00000000
00000000
00000000
00000000
,
00000000
00000000
00000000
00000000
,
00000000
00000000
00000000
00000000
,
00000000
00000000
00000000
00000000
,
00000000
00000000
00000000
00000000
,
00001000
00000100
00000001
00000100
,
10000000
01000000
00010000
01000000
,
00001000
00000100
00000001
00000100
,
10000000
01000000
00010000
01000000
,
00000010
00001000
10000100
00001000
00000010
00001000
10000100
00001000
,
00000010
00001000
10000100
00001000
00000010
00000010
10000010
00000000
,
00100000
10000000
01000001
10000000
00100000
10000000
01000001
10000000
,
00100000
10000000
01000001
10000000
00100000
00100000
00100001
00000000
,
00000010
00001000
10000010
00001000
00000001
00001000
10000001
00001000
,
00000010
00001000
10000001
00001000
00000010
00001000
10000010
00000000
,
00100000
10000000
00100001
10000000
00010000
10000000
00010001
10000000
,
00100000
10000000
00010001
10000000
00100000
10000000
00100001
00000000
,
00000000
00010001
00000000
00010001
00000000
10001000
00000000
10001000
,
00000000
00100010
00000000
01000100
00000000
00100010
00100010
00100010
,
00000000
10001000
00000000
00010001
00000000
10001000
00000000
01000100
,
10011001
00000000
00000000
00000000
,
00010000
00000000
10000001
00000000
00010000
10000000
00010001
00000000
,
10000000
00000000
00010001
00000000
10000000
00010000
10000001
00000000
,
00100000
10000000
00100001
00000000
01000000
00010000
01000001
00000000
,
00010000
01000000
10000001
00000000
01010000
00000000
11000001
00000000
,
00000001
00000000
10001000
00000000
00000001
00001000
10000001
00000000
,
00001000
00000000
10000001
00000000
00001000
00000001
10001000
00000000
,
00000010
00001000
10000010
00000000
00000100
00000001
10000100
00000000
,
00000001
00000100
10001000
00000000
00000101
00000000
10001100
00000000
,
00010000
10000000
00010000
10000000
,
00100000
00100000
00100000
00100000
,
00000001
00001000
00000001
00001000
,
00000010
00000010
00000010
00000010
,
00100000
00000000
00100000
00000000
00100000
10000000
01000000
00000000
,
00000010
00000000
00000010
00000000
00000010
00001000
00000100
00000000
,
00100000
00000000
00100000
00000000
00100000
00010000
01000000
00000000
,
00000010
00000000
00000010
00000000
00000010
00000001
00000100
00000000
,
00100010
00000000
00100010
00000000
00100010
00011000
01000100
00000000
,
00011000
00000000
00011000
00000000
10000001
00011000
01000100
00000000
,
10000001
00000000
10000001
00000000
00011000
10000001
01000100
00000000
,
00100010
00000000
00100010
00000000
00100010
00011000
01000100
00000000
,
00000000
00000001
10000000
00000100
00000000
00000100
10000000
00001000
,
00000000
00000100
10000000
00000100
00000000
00000100
10001000
00000000
,
00000000
00010000
00000001
01000000
00000000
01000000
00000001
10000000
,
00000000
01000000
00000001
01000000
00000000
01000000
10000001
00000000
,
00000000
00000001
00000000
00001000
00000000
00000001
00000000
00000100
,
00000000
00010000
00000000
10000000
00000000
00010000
00000000
01000000
,
00000000
10001000
00000000
01000100
00000000
00010001
00000000
01000100
,
00000000
10011001
00000000
10011001
00000000
10011001
00100010
01000100
,
10011001
00000000
00000000
00000000
;

//---------------dance-solo - ----------------
#NOTES:
     dance-solo:
     :
     Easy:
     4:
     :
000000
000000
000000
000000
,
000000
000000
000000
000000
,
000000
000000
000000
000000
,
000000
000000
000000
000000
,
000000
000000
000000
000000
,
000010
000000
100000
000000
,
001000
010000
000010
000000
,
100000
000000
001000
000000
,
010000
010000
010000
000000
,
000010
000000
010000
000000
,
001000
000000
000001
000011
,
100000
000000
001000
000000
,
010000
000000
000001
000110
,
000000
010000
000001
100000
,
000000
100000
000001
001000
,
000000
100000
100000
001000
,
000000
000100
000010
001000
,
100000
010000
000001
000010
,
100000
010000
000001
000010
,
100000
000010
000100
000100
,
001000
000000
000000
000000
,
100000
100000
000010
000010
,
000100
000100
001000
001000
,
100000
000010
001000
001000
,
100000
010000
001000
001000
,
000001
000000
000001
000000
,
100000
000001
001000
001000
,
000010
000000
000010
000000
,
000001
000100
001000
000000
,
010000
010000
000001
001000
,
010000
000010
010000
000010
,
010000
010000
000001
001000
,
100000
100000
000100
001000
,
010000
010000
000001
000001
,
000100
001000
100000
001000
,
010000
010000
000100
000100
,
100000
000001
010000
000010
,
000100
100000
000001
001000
,
000010
010000
000100
100000
,
000010
000010
100000
001000
,
100000
100000
100000
100000
,
000100
000000
001000
000000
,
010000
010000
000100
010010
,
100000
000000
100000
000000
,
000100
001000
001001
000110
,
100000
100000
000010
001000
,
100000
100000
000010
001000
,
000100
000100
100000
100000
,
000010
100000
010000
001000
,
100000
000000
000000
000000
;

//---------------dance-solo - ----------------
#NOTES:
     dance-solo:
     :
     Medium:
     6:
     :
000000
000000
000000
000000
,
000000
000000
000000
000000
,
000000
000000
000000
000000
,
000000
000000
000000
000000
,
000000
000000
000000
000000
,
100000
000000
001000
000000
010000
100000
010000
000000
,
000001
000000
001000
000000
000010
000001
000010
000000
,
100000
000000
001000
000000
000100
000010
000001
000000
,
000001
000000
001000
000000
000100
010000
100000
000000
,
010000
000100
010000
000100
,
001000
000001
001000
000001
,
010000
010000
000010
000010
,
000100
000000
001000
000000
000001
100000
001000
000000
,
000100
000000
000001
000000
010000
010000
001000
000000
,
000100
010000
000100
000000
000001
000000
001000
000000
,
100000
000000
001000
000000
000001
010000
000100
000000
,
100000
000001
001000
000000
000010
000000
000010
000000
,
000100
000000
001000
000000
100000
000100
010000
000000
,
000010
010000
000100
000000
000001
000000
001000
000000
,
000010
000000
000100
000000
010000
000100
010000
000000
,
000001
000000
000100
010010
,
000100
000000
100000
000000
000001
001000
000001
000000
,
100000
000000
001000
000000
010000
000100
100000
000000
,
000010
000000
000010
000000
000100
000001
001000
000000
,
000001
000000
010000
000000
000010
010000
000100
000000
,
001000
000000
000001
000000
100000
001000
100000
000000
,
000100
000000
001000
000000
000010
010000
000001
000000
,
010000
000000
000100
000000
010000
000010
000100
000000
,
000001
000000
001000
000000
000100
010000
001000
000000
,
000001
000000
001000
000000
,
000010
000100
000001
010000
000100
100000
010000
000000
,
001000
000000
000001
000000
,
000100
001000
010000
000100
001000
000001
001000
000000
,
010000
000000
001000
000000
,
100000
000100
001000
000001
000010
001000
100000
000000
,
000001
000000
001000
000000
,
000001
000100
001000
100000
010000
001000
000001
000000
,
000010
000000
000100
000000
000010
000100
000001
000000
,
010000
000000
000100
000000
010000
000100
100000
000000
,
001000
000000
010000
000000
000001
000100
001000
000000
,
100000
000000
000100
000000
010000
000010
001000
000000
,
100000
001000
100000
000000
000100
000001
001000
000000
,
000100
010000
100000
000000
000100
000010
000001
000000
,
000010
000100
001000
000000
000010
000001
000010
000000
,
000001
001000
100000
000000
001000
000001
000100
000000
,
000001
010000
100000
000000
010000
000100
001000
000000
,
000001
010000
001000
000000
000100
000010
000100
000000
,
001000
000010
000001
000000
000010
100000
000100
000000
,
100000
001000
010000
000010
000100
001000
100000
000001
,
001000
000000
000000
000000
;

//---------------dance-solo - ----------------
#NOTES:
     dance-solo:
     :
     Hard:
     8:
     :
000000
000000
000000
000000
,
000000
000000
000000
000000
,
000000
000000
000000
000000
,
000000
000000
000000
000000
,
000000
000000
000000
000000
,
000100
001000
000100
001000
000010
000100
000010
000100
,
000001
000010
000001
000010
001000
100000
001000
100000
,
000100
010000
000100
010000
000001
001000
000001
001000
,
000010
010000
000010
010000
000100
100000
001000
000000
,
010000
000100
010000
000100
100000
001000
100000
001000
,
000100
000001
001000
000001
100000
000010
100000
000010
,
001000
000100
001000
000100
100000
000001
100000
000001
,
001000
000010
001000
000100
010000
000010
000100
000000
,
000010
000100
000010
000100
001000
010000
001000
010000
,
000001
010000
000001
010000
000010
100000
000010
100000
,
001000
000100
000001
000100
000001
001000
000010
100000
,
000010
100000
000001
000100
000001
000100
000010
010000
,
000001
001000
000001
001000
000010
010000
000010
010000
,
001000
100000
000100
100000
000100
010000
000001
000010
,
000001
000010
001000
100000
010000
100000
010000
000000
,
100001
000000
000000
000000
,
100000
000001
100000
000001
001000
000010
001000
000010
,
100000
001000
100000
001000
000100
000010
000100
000010
,
100000
010000
100000
010000
001000
000100
001000
000100
,
100000
001000
100000
001000
000100
000010
001000
000001
,
000100
001000
000100
001000
100000
000100
100000
000100
,
100000
001000
010000
000001
001000
000010
001000
000010
,
010000
000100
010000
000100
100000
000010
100000
000010
,
010000
000100
001000
000001
100000
001000
000100
000010
,
001000
000001
001000
000100
001000
010000
001000
000000
,
100000
001000
000100
000001
001000
000100
001000
000100
,
010000
000010
001000
000100
010000
000010
000100
000000
,
000001
001000
000100
100000
001000
000100
000001
000000
,
000010
010000
001000
000100
000010
001000
100000
000000
,
000001
000010
001000
100000
000100
001000
000100
000000
,
100000
000001
010000
001000
000100
000001
001000
000000
,
000010
100000
010000
001000
000001
000100
001000
000000
,
000100
000010
000100
000010
001000
010000
100000
010000
,
100000
000100
001000
000100
001000
000001
000010
001000
,
000010
001000
000010
001000
100000
000001
001000
010000
,
100000
010000
100000
010000
100000
000100
001000
000000
,
000001
100000
000001
100000
001000
010000
001000
010000
,
000001
001000
000001
001000
000100
100000
001000
000000
,
000100
000001
000100
000001
010000
001000
010000
001000
,
100000
000010
100000
000010
001000
000100
100000
000000
,
000100
100000
001000
000100
000001
001000
000010
001000
,
000001
100000
000001
100000
001000
010000
000010
000100
,
000001
000010
000001
000010
001000
100000
000001
001000
,
010000
100000
010000
100000
000001
000010
001000
000100
,
000001
000000
000000
000000
;
