#TITLE:COMMANDO;
#SUBTITLE:;
#ARTIST:96;
#TITLETRANSLIT:;
#SUBTITLETRANSLIT:;
#ARTISTTRANSLIT:;
#GENRE:;
#CREDIT:;
#BANNER:COMMANDO-bn.png;
#BACKGROUND:COMMANDO-bg.png;
#LYRICSPATH:;
#CDTITLE:;
#MUSIC:COMMANDO.ogg;
#OFFSET:0.000000;
#SAMPLESTART:12.558000;
#SAMPLELENGTH:20.000000;
#SELECTABLE:YES;
#DISPLAYBPM:172.000000;
#BPMS:0.000000=172.000000
;
#STOPS:
;
#BGCHANGES:;
#KEYSOUNDS:;
#ATTACKS:;

//---------------dance-single - ----------------
#NOTES:
     dance-single:
     :
     Hard:
     13:
     0.649223,0.658301,0.313418,0.430950,0.063663,464.000000,432.000000,32.000000,44.000000,0.000000,0.000000,0.649223,0.658301,0.313418,0.430950,0.063663,464.000000,432.000000,32.000000,44.000000,0.000000,0.000000:
0000
0000
0000
0000
,
0000
0000
0000
0000
,
0000
0000
0000
0000
,
0000
0000
0000
0000
,
0000
0000
0000
0000
1000
0100
0010
1001
,
0000
0100
1010
0000
0001
0000
0011
0000
,
2000
0000
3010
0100
0000
0001
0010
2100
,
0000
0000
0000
0000
3001
0000
0000
1000
0010
0000
0100
0000
0001
0000
0110
0000
,
0000
0000
0010
0000
1000
0000
0001
0100
0001
0000
0010
0000
0100
0000
1000
0000
,
0010
0100
1010
0000
0001
1000
0101
0000
,
0010
1000
0010
0100
0000
0001
0010
1000
,
0100
0000
1001
0000
0010
1000
0001
0200
,
0000
0310
0100
0000
0001
0010
0100
1001
,
0000
1000
0101
0000
0010
0100
1010
0000
,
0001
0010
0001
0100
0000
0010
1000
0001
,
0010
0100
1100
0000
0001
1000
0010
0200
,
0000
0301
0110
0000
0100
0010
1000
1001
,
0000
1000
1000
0001
1000
0100
0010
0002
,
0000
0103
0001
0010
0001
2000
0000
3020
,
0000
1030
0100
0010
0001
0100
0001
1000
,
0000
0001
1000
0001
0100
0020
0000
0230
,
0000
0301
0010
1000
0100
0010
0001
2000
,
0000
0010
3010
0000
0100
0001
0010
0012
,
0000
1000
1003
0000
0001
0100
0010
2010
,
0000
0001
3001
1000
0010
1000
0100
0001
,
0000
0000
0010
0000
0001
0000
1000
0010
1000
0000
0100
0000
0010
0000
0001
0000
,
0000
1000
0010
0100
0001
0020
0000
0230
,
0000
0310
0100
1000
0001
0100
0001
0010
,
0000
0100
0010
0100
1000
0002
0000
0203
,
0000
0301
0100
0010
1000
0001
1000
0200
,
0000
1000
1300
0000
0001
0100
0010
0102
,
0000
1003
0001
0020
0000
0130
1000
1002
,
0000
0103
0001
0010
0001
1000
0001
0100
,
0000
0000
0010
0000
1000
0000
0100
0010
0100
0000
1000
0000
0001
0000
0100
0010
,
0100
0001
0010
0001
2000
0000
3100
0010
,
0002
0000
0000
0000
0103
0000
0001
0000
1000
0000
1000
0000
0001
0000
0100
0010
,
0100
0001
0010
0100
2000
0000
3001
1000
,
0200
0000
1300
0001
0100
0100
0000
0000
,
0001
0010
0001
0100
2000
0000
3001
1000
,
0020
0000
0130
0001
1010
0000
0011
0000
,
1000
0100
0001
0100
1000
0010
0001
0010
,
1000
0000
0100
0000
0010
0000
0100
0000
1000
0000
0001
0000
0100
0010
0100
0010
,
0100
0000
0001
1010
0000
0100
0010
0202
,
0000
0000
0000
0000
0300
0000
1003
1100
,
0000
0001
0100
0000
0010
1000
0100
0020
,
0000
0032
0000
0103
0001
0010
0001
2000
,
0000
0100
3200
0000
0301
0100
1000
0001
,
0000
0100
0010
0000
0100
0001
1000
1010
,
0000
0001
0010
0000
0001
1000
0010
0200
,
0000
0320
0000
0130
0001
1000
0100
0020
,
0000
0001
0032
0000
0103
0001
0010
0100
,
1000
0010
0001
0000
0100
0010
0100
0001
,
1000
0000
0000
0001
0100
0000
0000
0000
0100
0000
0010
0000
1000
0000
0001
0000
,
0010
0100
0010
0001
0000
1000
0100
1000
,
0001
0000
0100
0001
0000
0010
0100
2000
,
0000
3001
0100
0002
0000
1000
1003
0110
,
0000
0000
0001
0010
0001
0000
0100
0000
0010
0000
0100
0000
1000
0000
0100
0000
,
0001
0010
0100
0010
0001
1000
0100
0010
,
0001
0100
0001
0010
0001
1000
0100
0010
,
0001
1000
0001
0000
0100
0000
0010
0000
0100
0000
0001
0000
1000
0000
0101
0000
,
0000
0010
0100
0010
1000
0000
1100
0000
,
0001
0010
0001
0100
0000
0010
1000
0001
,
0020
0100
0130
0000
1000
0010
1000
0002
,
0000
0103
0001
0100
1000
0100
0001
0011
,
0000
1000
0001
0100
0010
0000
1001
0000
,
0100
0001
0100
0010
0000
1000
0100
0001
,
0020
0100
0130
1000
0010
1000
0001
1010
,
0000
0100
0001
0000
0010
0000
0100
0000
1000
0000
0001
0000
0100
0000
1001
0000
,
0000
0010
0010
0000
1000
0000
0001
0000
,
1000
0000
0100
0010
0000
0001
1000
0202
,
0000
0000
0300
0000
0000
0000
1003
0001
0200
0000
0000
0000
0300
0000
0000
0000
;

//---------------dance-single - ----------------
#NOTES:
     dance-single:
     :
     Medium:
     10:
     0.484119,0.554358,0.274241,0.470127,0.000000,346.000000,318.000000,28.000000,48.000000,0.000000,0.000000,0.484119,0.554358,0.274241,0.470127,0.000000,346.000000,318.000000,28.000000,48.000000,0.000000,0.000000:
0000
0000
0000
0000
,
0000
0000
0000
0000
,
0000
0000
0000
0000
,
0000
0000
0000
0000
,
0000
0000
0000
0000
1000
0100
0010
0001
,
0000
0100
0010
0000
1000
0000
0101
0000
,
1100
0000
0001
0100
0000
0010
1000
0002
,
0000
0000
0103
0000
0001
0010
0100
1000
,
0000
0001
1000
0000
0010
0100
0000
0110
,
0000
0001
1000
0000
0010
0000
0101
0000
,
1100
0000
0001
0010
0000
0001
0100
0020
,
0000
0000
1030
0000
0010
0100
0001
1000
,
0000
0100
0010
0000
0001
1000
0000
0110
,
0000
1000
0001
0000
0100
0000
1010
0000
,
0101
0000
0001
1000
0000
0001
0010
0200
,
0000
0000
1300
0000
0010
0100
0010
1000
,
0000
0001
0100
0000
0010
1000
0000
1001
,
0000
1000
0001
1000
0001
1000
0001
0100
,
0000
0000
0001
0010
0100
2000
0000
3002
,
0000
1003
0010
0200
0000
0000
0000
0300
,
0000
0010
1000
0010
1000
0002
0000
0023
,
0000
0130
1000
0002
0000
0000
0003
0101
,
0000
0000
0010
0000
1000
0001
1000
0200
,
0000
0000
0310
0000
0001
0000
1000
0002
,
0000
1003
0200
0000
0000
0000
0000
0300
,
0000
1000
0001
0000
0001
0100
0000
0110
,
0000
0000
0010
1000
0001
2000
0000
3200
,
0000
1300
0001
0200
0000
0000
0000
0300
,
0000
0010
0100
0010
1000
0002
0000
0203
,
0000
0301
0010
0200
0000
0000
0300
2100
,
0000
0000
0001
0000
3001
1000
0001
0200
,
0000
0310
1000
0002
0000
1003
0001
2000
,
0000
3010
0200
0000
0000
0000
0000
0300
,
0000
0001
1000
0001
1000
0020
0000
0000
,
0030
0100
0001
0100
0010
0000
1000
0002
,
0000
0000
0013
0100
2000
0000
3001
0100
,
0001
0100
0010
0100
0001
0000
1000
0200
,
0000
0000
0310
0001
2000
0000
3000
0000
,
0001
1000
0010
1000
0001
0000
0010
0200
,
0000
0000
1300
0001
2000
0000
3010
0000
,
0100
0001
0000
0101
0000
1010
0000
1100
,
0000
0011
0000
1100
0000
0001
0010
0100
,
1000
0000
0000
1001
0000
0000
0020
0200
,
0000
0000
0000
0000
0030
0000
0301
0100
,
0000
0010
1000
0000
0100
0010
0000
0002
,
0000
2003
0000
3001
0010
0100
1000
0002
,
0000
0200
0000
0000
0000
0000
0000
0303
,
0000
0010
0100
0000
0010
1000
0000
0001
,
0000
0010
0100
0000
1000
0001
0000
2000
,
0000
3020
0000
0130
0010
1000
0001
0020
,
0000
0200
0000
0000
0000
0000
0000
0000
,
0000
0000
0330
0000
1000
0001
1000
0200
,
0000
0000
0310
0000
0010
0001
0000
2000
,
0000
3001
0100
0010
0000
1000
0001
1000
,
0010
0100
0010
1000
0000
1100
0000
0101
,
0000
1000
0001
0100
0000
0010
0100
0001
,
0000
1000
0010
0000
1000
0001
0100
0000
,
0001
0010
0100
0000
1000
0001
0100
0000
,
0001
0010
0001
0100
0010
1000
0001
1000
,
0200
0020
0000
0000
0000
0300
0030
0001
,
0000
1000
0001
0000
0100
0000
1010
0000
,
0101
0000
0001
1000
0000
0001
0010
0200
,
0000
0000
1300
0000
0010
1000
0001
0100
,
0000
0010
0100
0000
0001
1000
0000
1001
,
0000
0001
1000
0000
0100
0000
0011
0000
,
1100
0000
0010
1000
0000
0100
0010
0002
,
0000
0000
0103
0000
0001
1000
0010
0100
,
0000
0010
1000
0000
0100
0010
0000
0011
,
0000
1000
0001
0000
0100
0000
0110
0000
,
1001
0000
0010
1000
0000
0100
0010
0002
,
0000
0000
0000
1003
0200
0000
0300
0000
;

//---------------dance-single - ----------------
#NOTES:
     dance-single:
     :
     Easy:
     7:
     0.314817,0.379775,0.058766,0.117532,0.000000,225.000000,219.000000,6.000000,12.000000,0.000000,0.000000,0.314817,0.379775,0.058766,0.117532,0.000000,225.000000,219.000000,6.000000,12.000000,0.000000,0.000000:
0000
0000
0000
0000
,
0000
0000
0000
0000
,
0000
0000
0000
0000
,
0000
0000
0000
0000
,
0000
0000
0000
0000
,
0000
0001
0010
1000
,
0010
0100
0001
1000
,
0100
0010
0001
1000
,
0001
0100
0010
1000
,
0100
0010
0100
1000
,
0010
1000
0001
0010
,
1000
0010
0001
0100
,
0001
0010
0100
1000
,
0010
1000
0100
0001
,
0100
0001
1000
0001
,
0010
0100
0010
0001
,
0100
0010
1000
0001
,
0000
0100
0010
0100
,
0000
0001
0010
0001
,
0100
0010
2000
0000
,
3000
0001
1000
0001
,
0010
0100
2000
0000
,
3000
0010
0010
0100
,
0010
1000
0001
0010
,
0001
0200
0000
0000
,
0300
1000
0001
1000
,
0000
0010
1000
0001
,
1000
0100
0020
0000
,
0030
0001
0010
0100
,
1000
0001
0200
0300
,
0010
0010
1000
0001
,
1000
0100
0010
0001
,
0100
0020
0000
0000
,
0030
1000
0001
0000
,
0010
0001
0100
0001
,
1000
0100
0001
0000
,
0010
0001
0100
0010
,
1000
0100
1000
0000
,
0001
0010
0001
0100
,
1000
0010
1000
0001
,
0010
0000
0000
0001
0000
0000
0000
0100
,
0000
0000
0000
0010
0000
0000
1000
0000
,
1100
0000
0000
0101
0000
0000
2000
0002
,
0000
0000
0000
3003
,
0010
1000
0100
1000
,
0001
0000
0010
0100
,
1000
0002
0000
0000
,
0000
0000
0003
0000
,
0100
0010
0100
0001
,
0010
0000
0100
1000
,
0001
0200
0000
0000
,
0300
0000
0010
0010
,
1000
0001
1000
0100
,
0010
0001
1000
0001
,
0100
0000
0000
0110
0000
1001
0000
0110
,
0000
0000
1000
0001
0000
0000
0010
0100
,
0000
1000
0010
1000
,
0001
0010
0100
0010
,
0001
0000
0100
0000
0010
0000
1000
0001
,
0000
0200
0000
0000
0000
0000
0300
0000
,
0010
1000
0100
1000
,
0001
0010
0100
1000
,
0010
1000
0001
1000
,
0100
0010
0001
0100
,
0001
0010
1000
0100
,
0010
0100
1000
0010
,
0001
1000
0001
0100
,
0010
1000
0100
0010
,
0000
0001
0001
1000
,
1000
0000
0000
1001
0000
1000
0001
2000
,
0000
0000
3100
0000
;

//---------------dance-single - ----------------
#NOTES:
     dance-single:
     :
     Beginner:
     3:
     0.165104,0.207150,0.019589,0.039177,0.000000,118.000000,116.000000,2.000000,4.000000,0.000000,0.000000,0.165104,0.207150,0.019589,0.039177,0.000000,118.000000,116.000000,2.000000,4.000000,0.000000,0.000000:
// measure 0
0000
0000
0000
0000
,  // measure 1
0000
0000
0000
0000
,  // measure 2
0000
0000
0000
0000
,  // measure 3
0000
0000
0000
0000
,  // measure 4
0000
0000
0000
0000
,  // measure 5
0000
0001
0000
0001
,  // measure 6
0000
1000
0000
1000
,  // measure 7
0000
0010
0000
0010
,  // measure 8
0000
0100
0000
0100
,  // measure 9
0000
0001
0000
0010
,  // measure 10
0000
0001
0000
0100
,  // measure 11
0000
0010
0000
1000
,  // measure 12
0000
0100
0000
1000
,  // measure 13
0000
0010
0000
0010
,  // measure 14
0000
1000
0000
0001
,  // measure 15
0000
1000
0000
0100
,  // measure 16
0000
0001
0000
0100
,  // measure 17
0000
0000
0000
0000
,  // measure 18
0000
0010
0010
0000
,  // measure 19
1000
0000
0001
0000
,  // measure 20
0000
0100
0100
0000
,  // measure 21
0001
0000
1000
0000
,  // measure 22
0000
0001
0001
0000
,  // measure 23
1000
0000
0010
0000
,  // measure 24
0100
0200
0000
0000
,  // measure 25
0300
0000
0000
0000
,  // measure 26
0000
0001
0001
0000
,  // measure 27
0010
0000
0100
0000
,  // measure 28
0000
1000
1000
0000
,  // measure 29
0010
0000
0100
0000
,  // measure 30
0010
0010
0010
0000
,  // measure 31
1000
0000
0001
0000
,  // measure 32
0100
0200
0000
0000
,  // measure 33
0300
0000
0000
0000
,  // measure 34
0001
0000
0000
0000
,  // measure 35
1000
0000
0000
0000
,  // measure 36
0100
0000
0000
0000
,  // measure 37
1000
0000
0000
0000
,  // measure 38
0010
0000
0000
0000
,  // measure 39
0100
0000
0000
0000
,  // measure 40
0010
0000
0010
0000
,  // measure 41
0100
0000
0100
0000
,  // measure 42
0001
0000
1000
0000
,  // measure 43
1001
0000
0000
0000
,  // measure 44
0001
0001
0001
0000
,  // measure 45
0010
0000
0100
0000
,  // measure 46
2000
0000
0000
0000
,  // measure 47
3000
0000
0000
0000
,  // measure 48
0100
0100
0100
0000
,  // measure 49
0010
0000
0001
0000
,  // measure 50
2000
0000
0000
0000
,  // measure 51
3000
0000
0001
0001
,  // measure 52
0001
0000
0100
0000
,  // measure 53
0001
0000
0010
0000
,  // measure 54
0001
0000
0100
0000
,  // measure 55
1000
1000
1000
0000
,  // measure 56
0010
0000
0010
0000
,  // measure 57
1000
0000
1000
0000
,  // measure 58
0100
0000
0010
0000
,  // measure 59
0110
0000
0000
0000
,  // measure 60
0000
0001
0000
0001
,  // measure 61
0000
1000
0000
1000
,  // measure 62
0000
0010
0000
0010
,  // measure 63
0000
0100
0000
0100
,  // measure 64
0000
0010
0000
1000
,  // measure 65
0000
0100
0000
0010
,  // measure 66
0000
0001
0000
0100
,  // measure 67
0000
0001
0000
1000
,  // measure 68
0000
0000
0000
0000
,  // measure 69
0010
0000
1000
0000
,  // measure 70
0001
0000
0100
0000
;
