#TITLE:CLAMARE;
#SUBTITLE:;
#ARTIST:MAX MAXIMIZER;
#TITLETRANSLIT:;
#SUBTITLETRANSLIT:;
#ARTISTTRANSLIT:;
#GENRE:;
#CREDIT:;
#BANNER:CLAMARE-bn.png;
#BACKGROUND:CLAMARE-bg.png;
#LYRICSPATH:;
#CDTITLE:;
#MUSIC:CLAMARE.ogg;
#OFFSET:-0.125000;
#SAMPLESTART:27.982000;
#SAMPLELENGTH:20.000000;
#SELECTABLE:YES;
#DISPLAYBPM:56.000000:224.000000;
#BPMS:0.000000=56.000000
,20.000000=112.000000
,32.000000=224.000000
,160.000000=56.000000
,168.000000=112.000000
,180.000000=56.000000
,182.000000=224.000000
,252.000000=112.000000
;
#STOPS:159.750000=1.071000
;
#BGCHANGES:;
#KEYSOUNDS:;
#ATTACKS:;

//---------------dance-single - ----------------
#NOTES:
     dance-single:
     :
     Hard:
     17:
     0.760746,1.144288,0.169055,0.092980,0.815688,630.000000,610.000000,20.000000,11.000000,0.000000,0.000000,0.760746,1.144288,0.169055,0.092980,0.815688,630.000000,610.000000,20.000000,11.000000,0.000000,0.000000:
0000
0000
0000
0000
,
0000
0000
0000
0000
,
2100
0000
0000
0000
0000
0000
0000
0000
0000
0000
0000
0000
0001
0000
0000
0000
0000
0000
0000
0000
0000
0000
0000
0000
0001
0000
0000
0000
0000
0000
0000
0000
0000
0000
0000
0000
3001
0000
0000
0000
0000
0000
0000
0000
0000
1000
0100
0010
,
0002
0000
0000
0000
0000
0000
0000
0000
0000
0000
0000
0000
1000
0000
0000
0000
0000
0000
0000
0000
0000
0000
0000
0000
1000
0000
0000
0000
0000
0000
0000
0000
0000
0000
0000
0000
1003
0000
0000
0000
0000
0000
0001
0100
0010
1000
0100
0010
,
0001
0000
0000
0000
0000
0000
0000
0000
0000
0000
0000
0000
0101
0000
0000
0000
0000
0000
0000
0000
0000
0000
0000
0000
1100
0000
0000
0000
0000
0000
0000
0000
0000
0000
0000
0000
0101
0000
0000
0000
0000
0000
1000
0010
0100
0001
0010
0100
,
1000
0010
0101
1000
,
1100
0000
0000
0001
0000
0000
0101
0000
0000
1000
0000
0000
0010
0000
0010
0000
0000
0100
0001
0000
1000
0100
0010
0001
,
0200
0000
0000
0300
,
0001
0010
0001
0100
0010
1000
0100
0010
,
0001
0000
0000
0100
0000
0000
1000
0000
0000
0100
0000
0000
0001
0000
0000
0000
0000
0000
1000
0000
0001
0000
0100
0000
,
0010
0000
1000
0001
0100
0010
0100
0001
,
1000
0100
0010
0001
1000
0010
1000
0001
0100
0010
0100
0001
,
0010
0000
0100
1000
0001
0100
0010
1000
,
0100
0000
0000
0001
0000
0000
0100
0000
0000
1000
0000
0000
0010
0000
0000
0000
0000
0000
0100
0000
0001
0000
1000
0000
,
0100
0010
0100
0010
,
0001
0100
0001
1000
0100
1000
0001
0010
0001
1000
0010
1000
,
0100
0000
0000
0000
0000
0000
1000
0000
0000
0010
0000
0000
1000
0000
0000
0001
0000
0000
0010
0000
0100
0000
1000
0000
,
0001
0000
0000
0000
0000
0000
0100
0000
0000
0001
0000
0000
0010
0000
0000
0000
0000
0000
0001
0000
1000
0000
0010
0000
,
0100
0000
0000
0001
0010
0100
1000
0000
0000
0010
1000
0100
,
0010
0000
0001
1000
0001
0100
0010
1000
0100
0010
0001
0100
,
0010
0000
0000
0000
1000
0001
0100
0001
1000
0000
0000
0000
0010
0000
0100
0000
,
0001
0000
0000
0010
0000
0000
0001
0000
0000
0100
0000
0000
0010
0000
0000
0000
0000
0000
1000
0000
0100
0000
1000
0000
,
0001
0000
0000
0000
0010
0100
1000
0100
0010
0000
0000
0000
0001
1000
0100
1000
,
0001
0000
0000
0000
0100
0010
0100
0001
1000
0000
0000
0000
1001
0000
0000
0000
,
0010
0000
0010
0000
1000
0000
0001
0000
0010
0000
0100
0000
1000
0000
0001
0100
,
0001
0000
0010
0000
1000
0000
0001
0000
0010
0000
0100
0000
1000
0000
0010
0100
,
0001
0010
0001
0100
1000
0010
1000
0100
,
0001
0010
0001
1000
0010
1000
0001
0100
0001
1000
0100
1000
,
0001
0000
0010
0000
0001
0000
0100
0000
0010
0000
1000
0000
0100
0010
0100
1000
,
0001
0000
0100
0000
0010
0000
0100
0000
1000
0000
0100
0000
0001
1000
0001
0000
,
0010
0000
0001
0000
0010
0000
0100
0000
0000
1000
0000
0000
0010
0000
0100
0000
0001
0000
1000
0000
0000
0000
0000
0000
,
0001
0000
0000
0000
1000
0000
0000
0000
0100
0000
0000
0000
0010
0000
0000
0000
0000
0000
0001
0000
0000
0000
0000
0000
0100
0000
0000
0000
0000
0000
0000
0000
0000
0000
0000
0000
0001
0000
0000
1000
0000
0000
0010
0000
0000
0100
0000
0000
,
0001
0000
0010
0000
0001
0000
0100
0000
1000
0000
0010
0000
1000
0001
1000
0100
,
0010
0000
0001
0000
0001
0000
0100
0000
0010
0000
1000
0000
0001
0100
0010
1000
,
0100
0001
0100
1000
0010
0001
0010
1000
,
0100
0010
0100
1000
0010
0001
0010
1000
,
0001
0000
0000
0100
0000
0000
0010
0000
0000
1000
0000
0000
0100
0000
0010
0000
0100
0000
1000
0000
0000
0001
0000
0000
,
1000
0000
0000
0000
0010
0000
0000
0000
0100
0000
0000
0000
0001
0000
0000
0000
0000
0000
1000
0000
0000
0000
0000
0000
0010
0000
0000
0000
0000
0000
0100
0000
0000
0001
0000
0000
0010
0000
0000
0000
0000
0000
0100
0000
0000
1000
0000
0000
,
0002
0000
0000
0003
,
1000
0001
1000
0001
1000
0001
1000
0001
1000
0001
1000
0001
1000
0001
1000
0001
,
1100
0000
0101
0000
,
1100
0000
0000
0000
0000
0000
0001
0000
0101
0000
0010
1000
0100
0000
0001
0000
,
0011
0000
0000
0000
1000
0000
0010
0000
0100
0000
0000
0001
1000
0000
0010
0000
,
1010
0000
0000
0000
0100
0000
0001
0000
0010
0000
0000
0001
1000
0000
0100
0000
,
0011
0000
0000
0000
0100
0000
0001
1000
0001
0000
0000
0010
0100
0000
1000
0001
,
1010
0110
1001
0000
,
0000
0000
0000
0000
,
1000
0010
0001
0010
0100
0010
1000
0001
,
0010
0000
0100
0000
1000
0000
0010
0000
0100
0001
0100
0001
1000
0010
0100
0001
,
0010
0100
1000
0001
0100
1000
0100
0001
,
0010
0000
0100
0000
1000
0000
0010
0000
1000
0001
0100
0001
0100
0010
1000
0001
,
0010
0100
0010
0001
0100
0010
1000
0001
,
0100
0000
1000
0000
0100
0000
0010
0000
0100
0000
0001
0000
1000
0100
0010
0001
,
1000
0010
1000
0001
0010
0100
1000
0010
,
0100
0000
1000
0000
0100
0000
0001
0000
0100
0010
0100
0010
1000
0001
1000
0001
,
0010
0100
1000
0010
0100
0001
1000
0001
,
0010
0000
1000
0000
0010
0000
0001
0000
0100
0000
0001
0010
0100
1000
0001
1000
,
0010
0100
0001
0010
1000
0010
0001
0100
,
0001
0000
1000
0000
0010
0000
1000
0000
0100
0010
0001
0100
0010
1000
0001
1000
,
0100
0010
0001
0100
0001
0010
1000
0010
,
0001
0000
0100
0000
0010
0000
0100
0000
1000
0000
0100
0000
0001
1000
0010
0100
,
0001
0000
0010
0000
0001
1000
0010
1000
0100
0000
0010
0000
0001
0010
0100
1000
,
0010
0000
0100
0000
0010
1000
0010
1000
0001
0000
0010
0000
0100
1000
0010
0100
,
0002
0000
0000
0000
0000
0000
0000
0000
0000
0000
1000
0000
1000
0000
1000
0000
1003
0000
0001
0000
0000
0000
0000
0000
0010
0100
0010
0100
0010
0000
0001
0000
,
1000
0000
1000
0000
0010
0000
0100
0000
0001
0010
0001
0010
0002
0000
0000
0000
0000
0000
0000
0000
0003
0000
0100
0010
1000
0010
0100
0000
0001
0000
0000
0000
,
1000
0000
0100
0000
0001
0000
0100
0000
1000
0000
0000
0000
0010
0000
0100
0000
0010
0000
0010
0000
0000
0000
0000
0000
1000
0010
1000
0000
0001
0010
0001
0000
,
0100
0000
0100
0000
0100
0000
0100
0000
0001
1000
0001
0010
0100
0000
2200
0000
0000
0000
0000
0000
0000
0300
0000
0000
3001
0010
0001
0000
0200
0000
0000
0000
,
0310
0000
1000
0000
0000
0000
0100
0000
1000
0001
1000
0001
1000
0001
0100
0000
0010
0000
0100
0000
0001
1000
0001
1000
0100
0000
0010
0000
0000
0000
0000
0000
,
0001
0000
1000
0000
0000
0000
0000
0000
0001
0100
0010
0100
0001
0010
0100
0010
0001
0100
0010
0100
0001
0000
0000
0000
0000
0000
0000
0000
0000
0000
0000
0000
,
0022
0000
0000
0000
,
0000
0000
0000
0000
,
0000
0033
0000
0000
;

//---------------dance-single - ----------------
#NOTES:
     dance-single:
     :
     Medium:
     13:
     0.534937,0.782934,0.253582,0.092980,0.194413,443.000000,413.000000,30.000000,11.000000,0.000000,0.000000,0.534937,0.782934,0.253582,0.092980,0.194413,443.000000,413.000000,30.000000,11.000000,0.000000,0.000000:
0000
0000
0000
0000
,
0000
0000
0000
0000
,
2100
0000
0000
0000
0001
0000
0000
0000
0001
0000
0000
0000
3001
0000
0000
0100
,
0102
0000
0000
0000
1000
0000
0000
0000
1000
0000
0000
0000
1003
0000
0001
1000
,
1100
0000
0000
0000
0101
0000
0000
0000
1010
0000
0000
0000
0011
0000
0100
0010
,
1001
0100
1001
0100
,
0101
0000
0000
1100
0000
0000
0001
0010
0100
1000
0010
0100
,
0002
0000
0000
0003
,
1000
0010
1000
0010
0000
0010
0100
0000
,
0001
0000
1000
0000
0001
0000
0010
0100
,
1000
0001
1000
0100
,
0010
0000
0001
0000
1000
0000
0010
0000
0100
0000
0001
0000
,
1000
0000
0010
0100
0010
0000
1000
0000
,
0001
0010
0100
0000
1000
0010
0100
0000
,
0110
0000
0000
0000
,
0001
0000
0001
0000
0001
0000
1000
0000
1000
0000
1000
0000
,
0010
0000
1010
0000
0001
0000
0100
0010
,
1000
0000
0001
0010
0001
0000
0100
0010
,
1000
0000
0100
0001
0100
0000
0010
1000
,
0100
0000
0100
0000
0100
0000
0010
0000
0001
0000
0100
0000
,
0010
0000
1000
0001
1000
0000
0100
0010
,
0001
0000
0100
0001
1000
0000
1100
0000
,
0101
0010
1100
0010
,
0001
0000
0100
0010
1000
0000
1001
0000
,
0010
1000
0010
1000
0010
1000
0010
0000
,
0100
0001
0010
0001
0010
0001
0100
0000
,
0001
1000
0100
1000
0100
1000
0001
0100
,
0010
0100
0010
1000
0010
0100
0001
0000
,
0010
0001
0100
0010
0000
1000
0010
0100
,
0001
1000
0001
1000
0001
1000
0100
0000
,
1010
0001
0011
1000
,
0001
0100
0010
0100
0001
0000
1000
0001
,
1000
0100
0010
0001
0100
0010
1000
0000
,
0001
0100
0010
1000
0100
0000
0010
0001
,
0100
0010
0100
0000
0001
1000
0001
0000
,
0010
0001
1000
0001
1000
0010
0100
0000
,
0001
1000
0100
0000
1000
0001
0100
0000
,
0010
1000
0100
0010
0001
1000
0100
0000
,
0020
0000
0000
0030
,
0001
1000
0001
1000
0001
1000
0001
1000
,
1100
0000
0101
0000
,
1100
0000
0000
0000
0101
0010
1000
0001
,
0011
0000
1000
0001
1000
0000
0010
0000
,
1010
0000
0100
0001
1000
0000
0100
0000
,
0011
0000
0100
0001
0010
0100
1000
0001
,
1010
0110
1001
0000
,
0000
0000
0000
0000
,
1000
0100
0010
0001
0000
0001
0100
0000
,
0010
1000
0010
0000
1000
0001
0100
0010
,
1000
0000
0100
1000
0000
0001
0100
0010
,
0100
0001
0010
0100
1000
0010
1000
0001
,
0100
0010
0100
0001
0000
1000
0100
0010
,
0001
0100
0000
0001
1000
0010
1000
0001
,
0100
0000
0001
1000
0001
0010
0100
1000
,
0001
1000
0000
0010
0100
0010
0100
0001
,
1000
0001
0010
0100
0000
0100
1000
0000
,
0001
0100
0010
0000
0100
0001
1000
0001
,
1000
0100
0010
0100
0000
1000
0001
0000
,
0100
0001
1000
0000
0001
0010
0001
1000
,
0010
0000
0100
0001
0000
0001
0010
0100
,
1000
0001
0000
1000
0010
0100
0010
1000
,
0001
0010
0100
0010
0001
0100
0010
0100
,
0001
0010
0100
0010
0001
0100
0010
0100
,
0002
0000
0000
0000
0003
0000
1000
0001
1000
0001
0000
0000
0100
0010
1000
0001
,
0010
0100
0010
0100
0010
0000
2002
0000
0000
0000
0003
0000
3100
0010
0100
0000
,
1000
0001
1000
0100
0000
0000
0010
0001
0010
0100
0000
0000
1000
0010
0100
0001
,
1000
0100
1000
0100
1000
0000
0001
0200
0000
0000
0000
0000
0310
0100
0002
0000
,
1003
0100
0000
0010
0001
1000
0001
1000
0001
0100
0010
1000
0100
0010
0000
0000
,
0000
0000
0000
0000
0001
1000
0010
1000
0100
0010
0001
0000
0000
0000
0000
0000
,
0022
0000
0000
0000
,
0000
0000
0000
0000
,
0000
0033
0000
0000
;

//---------------dance-single - ----------------
#NOTES:
     dance-single:
     :
     Easy:
     8:
     0.356222,0.511918,0.253582,0.109885,0.008453,295.000000,265.000000,30.000000,13.000000,0.000000,0.000000,0.356222,0.511918,0.253582,0.109885,0.008453,295.000000,265.000000,30.000000,13.000000,0.000000,0.000000:
0000
0000
0000
0000
,
0000
0000
0000
0000
,
0110
1000
0001
1000
,
1001
0000
0010
0000
0100
0000
0010
1000
,
0101
0000
1100
0000
0101
0000
1100
0001
,
1001
0000
0110
0000
,
1001
0110
1001
0110
,
0002
0000
0000
0003
,
1000
0010
1000
0001
,
0010
0100
1000
0001
,
0100
0010
0100
0001
,
1000
1000
0001
0001
,
1000
0010
1000
0100
,
0010
0001
0100
0010
,
1010
0000
0000
0000
,
0001
0001
1000
1000
,
0010
1000
0010
0100
,
0001
0010
0100
1000
,
0010
0100
0010
0100
,
0001
0001
1000
1000
,
0100
0010
0001
0100
,
0010
1000
0001
1000
,
1100
0000
0101
0000
,
0010
0010
0010
1001
,
0100
0010
0100
0001
,
0010
0100
1000
0001
,
1000
0010
1000
0001
,
0010
0010
0100
0100
,
0010
0001
0100
0010
,
1000
0001
1000
0100
,
0010
0010
0001
0001
,
0100
0100
1000
1000
,
0001
0010
0001
0100
,
1000
0010
0100
0001
,
1000
0001
1000
0100
,
0010
0001
0100
0010
,
0100
0001
1000
0100
,
0010
0001
1000
0010
,
0200
0000
0000
0300
,
0001
1000
0001
1000
,
1100
0000
0101
0000
,
1100
0000
0000
0000
0101
0010
0000
0100
,
0110
1000
0000
0001
,
1001
0100
0000
0010
,
0110
1000
0001
0100
,
1010
0110
1001
0000
,
0000
0000
0000
0000
,
1000
0010
1000
0001
,
0010
0000
0100
0000
1000
0000
0010
0100
,
0010
0100
0001
0010
,
0100
0000
1000
0000
0001
0100
0001
0000
,
0010
0001
1000
0010
,
1000
0000
0100
0000
0001
0000
0010
0100
,
0010
0001
1000
0010
,
1000
0001
0000
0000
0010
0000
0010
0000
,
0001
1000
0001
0010
,
0100
0000
1000
0000
0010
0100
0010
0000
,
0100
0001
0010
0100
,
1000
0000
0001
0000
1000
0010
1000
0000
,
0001
0010
0001
0100
,
1000
0000
0001
0000
1000
0000
0010
0100
,
0020
1030
0200
0310
,
0002
1003
0020
1030
,
0002
0000
0003
0000
0110
0000
1000
0001
,
1000
0010
0100
0202
0000
0300
1003
0001
,
0010
0100
0000
1000
0001
0000
0001
1000
,
0001
0100
0001
0022
0000
0030
1003
0001
,
0100
0000
0000
0000
0010
0000
1000
0000
0010
0000
0100
0000
0001
1000
0000
0000
,
0000
0000
0000
0000
0010
0000
0010
0000
1000
0001
0100
0000
0000
0000
0000
0000
,
2002
0000
0000
0000
,
0000
0000
0000
0000
,
0000
3003
0000
0000
;

//---------------dance-single - ----------------
#NOTES:
     dance-single:
     :
     Beginner:
     5:
     0.156979,0.291619,0.152149,0.000000,0.000000,130.000000,112.000000,18.000000,0.000000,0.000000,0.000000,0.156979,0.291619,0.152149,0.000000,0.000000,130.000000,112.000000,18.000000,0.000000,0.000000,0.000000:
// measure 0
0000
0000
0000
0000
,  // measure 1
0000
0000
0000
0000
,  // measure 2
0110
0000
0000
0000
,  // measure 3
1001
0000
0000
0000
,  // measure 4
0110
0000
1001
0000
,  // measure 5
0110
0000
1001
0000
,  // measure 6
0110
0000
1001
0000
,  // measure 7
0110
0000
0000
0000
,  // measure 8
0001
0000
0000
0000
,  // measure 9
1000
0000
0001
0000
,  // measure 10
0100
0000
0000
0000
,  // measure 11
0010
0000
0010
0000
,  // measure 12
0010
0000
0000
0000
,  // measure 13
1000
0000
0000
0000
,  // measure 14
1001
0000
0000
0000
,  // measure 15
0100
0000
0100
0000
,  // measure 16
0100
0000
0000
0000
,  // measure 17
0001
0000
0010
0000
,  // measure 18
0001
0000
1000
0000
,  // measure 19
0001
0000
1000
0000
,  // measure 20
0010
0000
0000
0000
,  // measure 21
0100
0000
0001
0000
,  // measure 22
0100
0000
0100
0000
,  // measure 23
0010
0000
0010
0000
,  // measure 24
1000
0000
0000
0000
,  // measure 25
0001
0000
0000
0000
,  // measure 26
1000
0000
0000
0000
,  // measure 27
0010
0000
0100
0000
,  // measure 28
0001
0000
0000
0000
,  // measure 29
0010
0000
0100
0000
,  // measure 30
1000
0000
1000
0000
,  // measure 31
0001
0000
0001
0000
,  // measure 32
0100
0000
0000
0000
,  // measure 33
0010
0000
0000
0000
,  // measure 34
0100
0000
0000
0000
,  // measure 35
0001
0000
1000
0000
,  // measure 36
0001
0000
0010
0000
,  // measure 37
0100
0000
1000
0000
,  // measure 38
0010
0000
0000
0000
,  // measure 39
1000
1000
1000
1000
,  // measure 40
0110
0000
0000
0000
,  // measure 41
1001
0000
0000
0000
,  // measure 42
0110
0000
0000
0000
,  // measure 43
1001
0000
0000
0000
,  // measure 44
0110
0000
0000
0000
,  // measure 45
1001
0000
0000
0000
,  // measure 46
0000
0000
0000
0000
,  // measure 47
1000
0000
0001
0000
,  // measure 48
1000
0000
0100
0000
,  // measure 49
0010
0000
0001
0000
,  // measure 50
0100
0000
0010
0000
,  // measure 51
1000
0000
0001
0000
,  // measure 52
1000
0000
0010
0000
,  // measure 53
0100
0000
0010
0000
,  // measure 54
1000
0000
0001
0000
,  // measure 55
0010
0000
0001
0000
,  // measure 56
0010
0000
0100
0000
,  // measure 57
1000
0000
0001
0000
,  // measure 58
0100
0000
0001
0000
,  // measure 59
1000
0000
0010
0000
,  // measure 60
1000
0000
0100
0000
,  // measure 61
1000
0000
0001
0000
,  // measure 62
1000
0000
0001
0000
,  // measure 63
0100
0000
0010
0000
,  // measure 64
1000
0000
0000
0001
,  // measure 65
0001
0000
0010
0000
,  // measure 66
0100
0000
0110
0000
,  // measure 67
0000
0001
0001
0001
,  // measure 68
0000
1000
1000
0000
,  // measure 69
1001
0000
0000
0000
;
