#TITLE:CHICKEN CHASER;
#SUBTITLE:;
#ARTIST:V.C.O.;
#TITLETRANSLIT:;
#SUBTITLETRANSLIT:;
#ARTISTTRANSLIT:;
#GENRE:;
#CREDIT:;
#BANNER:CHICKEN CHASER-bn.png;
#BACKGROUND:CHICKEN CHASER-bg.png;
#LYRICSPATH:;
#CDTITLE:;
#MUSIC:CHICKEN CHASER.ogg;
#OFFSET:0.000000;
#SAMPLESTART:29.646999;
#SAMPLELENGTH:20.000000;
#SELECTABLE:YES;
#DISPLAYBPM:170.000000;
#BPMS:0.000000=170.000000
;
#STOPS:
;
#BGCHANGES:;
#KEYSOUNDS:;
#ATTACKS:;

//---------------dance-single - ----------------
#NOTES:
     dance-single:
     :
     Hard:
     13:
     0.664713,0.630892,0.337038,0.580454,0.000000,497.000000,461.000000,36.000000,62.000000,0.000000,0.000000,0.664713,0.630892,0.337038,0.580454,0.000000,497.000000,461.000000,36.000000,62.000000,0.000000,0.000000:
0000
0000
0000
0000
,
0000
0000
0000
0000
,
0000
0000
0000
0000
,
0000
0000
0000
0000
,
0000
0000
0000
0000
,
1000
1000
0010
0100
0001
0001
1000
0000
,
0010
0010
1000
0001
0100
0100
0010
0000
,
2010
0000
3001
0100
0102
0000
1003
0001
,
0100
0010
1000
0000
2100
0001
3001
0000
,
0010
0010
1000
0001
0100
0100
0010
0000
,
1000
1000
0100
0010
0001
0001
0100
0000
,
0102
0000
1003
0010
1020
0000
0130
0001
,
0010
0100
1000
0000
2100
0001
3001
0000
,
0010
0001
0100
0020
0000
1030
0100
0020
,
0000
0031
1000
0002
0000
1003
0010
0100
,
0001
1000
0001
0020
0000
0130
0010
0002
,
0000
0103
0001
2000
0000
3010
1000
0001
,
1000
0100
0010
0002
0000
0103
0001
0020
,
0000
0031
1000
0020
0000
0130
0010
1000
,
0001
0010
0100
1000
0001
1000
0010
0100
,
0001
0010
0001
0100
0010
1000
0001
1000
,
0100
0100
0010
0001
1000
1000
0001
0000
,
0010
0010
1000
0100
0001
0001
1000
0000
,
1200
0000
0310
0001
0012
0000
1003
0001
,
0100
0010
1000
0000
2010
0001
3001
0000
,
0100
0100
0010
1000
0001
0001
0100
0000
,
0010
0010
1000
0100
1000
1000
0001
0000
,
0012
0000
1003
0100
1200
0000
0310
0001
,
1000
0010
0100
0000
0102
1000
1003
0000
,
0001
0010
0001
2001
0000
3100
0010
0012
,
0000
0103
0010
1020
0000
1030
0001
1000
,
0100
0010
0001
0021
0000
0031
1000
1020
,
0000
0130
0010
0210
0000
0301
1000
0100
,
0010
0001
1000
2001
0000
3010
1000
1200
,
0000
0310
0001
0102
0000
1003
0001
0100
,
0010
1000
0001
1000
0100
0010
0100
1000
,
0010
0100
0001
0010
0001
1000
0010
0100
,
0120
0000
0001
0001
0001
0000
1000
0000
,
0130
0001
0100
0010
1000
0100
0001
0000
,
0012
0000
1000
1000
1000
0000
0100
0000
,
1003
0001
0010
0001
1000
0010
0100
0000
,
1020
0000
0100
0100
0100
0000
0001
0000
,
1030
0010
0100
0010
1000
0100
0001
0000
,
0201
0000
1000
1000
1000
0000
0301
0000
,
0110
0001
1000
0100
1000
0010
0001
0000
,
1000
0001
0010
0001
0000
0100
0010
1000
,
0001
0010
0001
0100
0000
0010
1000
0000
,
0100
0010
0100
1000
0000
0001
0010
0001
,
0100
0010
0100
0001
0010
1000
0100
0000
,
1002
0000
0100
0100
0100
0000
1003
0001
,
0100
0010
1000
0001
0010
0100
1000
0000
,
2100
0000
0010
0010
0010
0000
3001
1000
,
0010
0000
1000
0001
1000
0100
0010
0001
,
0100
0100
0001
0010
1000
1000
0100
0010
,
0001
0001
1000
0001
0010
0010
0100
0000
,
1002
0000
0013
0001
0201
0000
0310
1000
,
0001
0010
0100
0000
1200
1000
1300
0000
,
0001
0001
1000
0010
0100
0100
0001
1000
,
0010
0010
0100
0001
1000
1000
0100
0000
,
0021
0000
0031
1000
1020
0000
0130
0001
,
1000
0001
0010
0000
0201
0010
0310
0000
,
1000
0010
1000
0002
0000
0013
0100
2000
,
0000
3010
1000
0002
0000
1003
0100
0010
,
0001
0100
0001
0020
0000
0130
1000
0002
,
0000
1003
0001
0200
0000
0310
1000
0100
,
0010
0001
1000
0002
0000
1003
0001
0200
,
0000
0310
0100
0002
0000
1003
0100
0010
,
0001
1000
0001
0020
0000
0130
0010
0002
,
0000
1003
0001
0200
0000
0310
1000
0001
,
0010
0001
1000
0020
0000
1030
0100
0002
,
0000
0013
0100
2000
0000
3001
1000
0010
,
1000
0200
0000
0310
0001
0200
0000
0301
,
1000
0020
0000
1030
0100
0010
0001
2000
,
0000
3001
1000
0010
0100
0002
0000
0013
,
0001
0100
1000
0001
0010
1000
1001
1001
;

//---------------dance-single - ----------------
#NOTES:
     dance-single:
     :
     Medium:
     10:
     0.509569,0.595843,0.187243,0.786421,0.000000,381.000000,361.000000,20.000000,84.000000,0.000000,0.000000,0.509569,0.595843,0.187243,0.786421,0.000000,381.000000,361.000000,20.000000,84.000000,0.000000,0.000000:
0000
0000
0000
0000
,
0000
0000
0000
0000
,
0000
0000
0000
0000
,
0000
0000
0000
0000
,
0000
0000
0000
0000
,
0000
1000
0010
0000
1000
0001
0000
0100
,
0000
0001
0010
0000
0100
1000
0000
0001
,
2000
0000
3010
0100
0002
0000
0013
0100
,
1000
0001
1000
0000
0202
0000
0303
0000
,
0000
0010
0100
0000
0001
1000
0000
0100
,
0000
0010
0001
0000
1000
0010
0000
1000
,
0002
0000
1003
0100
0020
0000
0130
0010
,
0001
1000
0100
0000
2200
0000
3300
0000
,
1001
0000
0010
0200
0000
0302
0000
2003
,
0000
3001
0010
0200
0000
1300
0001
0000
,
0100
0010
0100
0002
0000
2003
0000
3020
,
0000
1030
0001
0200
0000
0310
1000
0000
,
0001
0010
0001
0200
0000
0320
0000
2030
,
0000
3100
0010
0002
0000
1003
0001
0000
,
0100
0010
0000
1000
0001
0000
0010
0100
,
0000
1000
0001
0000
0100
0010
1000
0001
,
0000
1000
0010
0000
1000
0001
0000
0100
,
0000
0001
0010
0000
0100
1000
0000
0010
,
0200
0000
0301
1000
0020
0000
1030
0100
,
0010
0001
1000
0000
0202
0000
0303
0000
,
0000
0010
0100
0000
0010
1000
0000
0001
,
0000
0010
0100
0000
0010
0001
0000
1000
,
0002
0000
0013
0100
2000
0000
3010
1000
,
0010
0100
0001
0000
2020
0000
3030
0000
,
1001
0000
1000
0200
0000
0320
0000
0032
,
0000
1003
0010
0200
0000
0301
1000
0000
,
0001
0100
0001
2000
0000
3002
0000
0023
,
0000
0130
0010
0002
0000
1003
0001
0000
,
0100
0010
0100
0002
0000
0023
0000
0230
,
0000
1300
0010
2000
0000
3100
0010
0000
,
0001
1000
0000
0010
0100
0000
0001
0010
,
0000
0100
1000
0000
0001
0100
0010
1000
,
0002
0000
0010
0010
0000
0000
0100
0000
,
2003
0000
0000
3020
0000
1030
0001
0000
,
2000
0000
0100
0100
0000
0000
0001
0000
,
3020
0000
0000
0230
0000
0301
0100
0000
,
0020
0000
0100
0100
0000
0000
0001
0000
,
2030
0000
0000
3002
0000
0013
0100
0000
,
2000
0000
0001
0001
0000
0000
0100
0000
,
3010
0000
1000
0001
1000
0000
0100
0010
,
0001
0000
1000
0010
1000
0000
0100
0010
,
0002
0000
0000
2003
0000
3001
0100
0000
,
0010
0000
1000
0001
1000
0000
0100
0010
,
0002
0000
0000
0203
0000
0310
1000
0000
,
0001
0000
0010
0001
0100
0000
0010
1000
,
0002
0000
0000
0023
0000
0031
1000
0000
,
1010
0000
0001
0100
1000
0000
0010
0000
,
0110
0000
1000
0001
0000
1000
0100
0010
,
0000
0001
0100
0000
0001
1000
0000
0100
,
0000
0010
0100
0000
1000
0001
0000
0100
,
0020
0000
1030
0001
2000
0000
3100
0010
,
0001
1000
0001
0000
0022
0000
0033
0000
,
0000
0100
0001
0000
1000
0100
0000
0010
,
0000
0100
1000
0000
0010
1000
0000
0001
,
0200
0000
0301
1000
0020
0000
1030
0100
,
0010
0001
1000
0000
2020
0000
3030
0000
,
0001
1000
0001
0020
0000
0230
0000
2300
,
0000
3010
1000
0002
0000
1003
0100
0000
,
0010
0001
1000
0002
0000
2003
0000
3020
,
0000
1030
0100
0020
0000
0031
1000
0000
,
0001
0100
0001
2000
0000
3020
0000
0230
,
0000
0310
0100
0002
0000
1003
0001
0000
,
1000
0100
0010
0200
0000
2300
0000
3002
,
0000
0103
0010
2000
0000
3001
0100
0000
,
0001
0010
0001
1000
0000
1010
0000
0101
,
0000
0011
0000
1100
0000
0001
1000
0010
,
1000
0100
0000
1100
0000
1010
0000
0101
,
0000
0011
0000
0100
1000
0020
0000
0230
,
0000
0301
0010
0200
0000
2300
0000
3001
,
1000
0010
1000
0001
0100
0010
1001
1001
;

//---------------dance-single - ----------------
#NOTES:
     dance-single:
     :
     Easy:
     8:
     0.398560,0.525744,0.411935,0.524281,0.000000,298.000000,254.000000,44.000000,56.000000,0.000000,0.000000,0.398560,0.525744,0.411935,0.524281,0.000000,298.000000,254.000000,44.000000,56.000000,0.000000,0.000000:
0000
0000
0000
0000
,
0000
0000
0000
0000
,
0000
0000
0000
0000
,
0000
0000
0000
0000
,
0000
0000
0000
0000
,
1000
1000
0000
0000
0001
0001
0000
0000
,
0100
0100
0000
0000
0010
0010
0000
0000
,
1010
1010
0101
0101
,
1000
0001
0100
0000
2020
0000
3030
0000
,
0001
0001
0000
0000
1000
1000
0000
0000
,
0010
0010
0000
0000
0100
0100
0000
0000
,
0101
0101
1010
1010
,
1000
0001
0100
0000
0202
0000
0303
0000
,
1000
0000
0001
0020
0000
0000
0000
0230
,
0000
0000
0000
2300
0000
0000
3010
0000
,
1000
0000
0001
0200
0000
0000
0000
0302
,
0000
0000
0000
0023
0000
0000
0130
0000
,
1000
0000
0010
0200
0000
0000
0000
0302
,
0000
0000
0000
2003
0000
0000
3001
0000
,
0020
0000
0000
0032
0000
0000
0203
0000
,
0000
0320
0000
0000
1030
0000
0100
0000
,
1000
1000
0000
0000
0010
0010
0000
0000
,
0100
0100
0000
0000
0001
0001
0000
0000
,
0011
0011
1100
1100
,
0001
1000
0100
0000
2200
0000
3300
0000
,
0010
0010
0000
0000
1000
1000
0000
0000
,
0001
0001
0000
0000
0100
0100
0000
0000
,
1100
1100
0011
0011
,
0100
0001
1000
0000
0022
0000
0033
0000
,
1000
0000
0010
0200
0000
0000
0000
0320
,
0000
0000
0000
2030
0000
0000
3001
0010
,
0001
0000
1000
0002
0000
0000
0000
2003
,
0000
0000
0000
3020
0000
0000
0130
0010
,
0100
0000
0010
2000
0000
0000
0000
3002
,
0000
0000
0000
0023
0000
0000
0031
1000
,
0002
0000
0000
0203
0000
0000
0320
0000
,
0000
2030
0000
0000
3100
0010
0001
0000
,
2002
0000
0000
3000
,
1000
0000
0000
0010
0000
0000
0103
0000
,
0202
0000
0000
0003
,
1000
0000
0000
0010
0000
0000
0301
0000
,
0022
0000
0000
0003
,
1000
0000
0000
0001
0000
0000
0130
0000
,
2200
0000
0000
0300
,
0001
0000
0000
0100
0000
0000
3010
0000
,
0110
0000
0001
1000
0000
0000
0100
0000
,
0020
0000
0000
0032
0000
0000
1003
0000
,
1010
0000
0100
0001
0000
0000
1000
0000
,
0020
0000
0000
2030
0000
0000
3100
0000
,
1001
0000
0010
0100
0000
0000
0001
0000
,
2000
0000
0000
3002
0000
0000
0013
0000
,
0012
0000
1003
0100
1000
0000
0001
0000
,
1100
0000
0010
0001
0200
0000
0310
0000
,
1000
1000
0000
0000
0100
0100
0000
0000
,
0010
0010
0000
0000
0001
0001
0000
0000
,
0101
0101
1100
1100
,
0001
1000
0010
0000
0202
0000
0303
0000
,
0001
0001
0000
0000
0010
0010
0000
0000
,
0100
0100
0000
0000
1000
1000
0000
0000
,
1010
1010
0011
0011
,
0001
1000
0010
0000
2020
0000
3030
0000
,
1001
0000
0010
1000
0000
0100
0000
0010
,
0000
0001
0000
0100
0000
0001
1000
0000
,
0010
0000
1000
0100
0000
0010
0000
0001
,
0000
0100
0000
0010
0000
1000
0001
0000
,
1000
0000
0001
0010
0000
0100
0000
0010
,
0000
0001
0000
0100
0000
0010
1000
0000
,
0001
0000
1000
0001
0000
0010
0000
0100
,
0000
0010
0000
0001
0000
1000
0010
0000
,
1000
0001
1000
0001
0000
0000
0000
0010
,
0000
0001
0000
0100
0000
0000
0010
1000
,
0010
1000
0000
0000
0000
0100
0000
0010
,
0000
0001
0000
0000
0201
0000
0000
0310
,
0000
0000
1020
0000
0000
0130
0000
0000
,
1000
0000
0010
0000
0001
0000
1001
1001
;

//---------------dance-single - ----------------
#NOTES:
     dance-single:
     :
     Beginner:
     3:
     0.183231,0.209946,0.037449,0.074897,0.000000,137.000000,133.000000,4.000000,8.000000,0.000000,0.000000,0.183231,0.209946,0.037449,0.074897,0.000000,137.000000,133.000000,4.000000,8.000000,0.000000,0.000000:
0000
0000
0000
0000
,
0000
0000
0000
0000
,
0000
0000
0000
0000
,
0000
0000
0000
0000
,
0000
0000
0000
0000
,
1000
0000
0001
0000
,
0100
0000
0010
0000
,
1000
0000
1000
0000
,
0001
0001
0001
0000
,
0010
0000
0100
0000
,
1000
0000
0001
0000
,
0100
0000
0100
0000
,
0010
0010
0010
0000
,
1000
0000
0001
0000
,
1000
0000
0100
0000
,
0010
0000
0001
0000
,
0100
0000
0010
0000
,
1000
0000
0001
0000
,
0010
0000
0100
0000
,
1000
0000
0000
0010
,
0000
0000
0100
0000
,
0001
0000
0100
0000
,
0010
0000
1000
0000
,
0001
0000
0001
0000
,
0010
0010
0010
0000
,
0001
0000
0100
0000
,
0010
0000
1000
0000
,
0100
0000
0100
0000
,
0010
0010
0010
0000
,
0001
0000
1000
0000
,
0001
0000
0010
0000
,
0001
0000
0100
0000
,
0010
0000
1000
0000
,
0100
0000
0010
0000
,
0100
0000
1000
0000
,
0010
0000
0000
0100
,
0000
0000
0001
0000
,
2000
0000
0000
3000
,
1000
0000
0001
0000
,
0200
0000
0000
0300
,
0100
0000
0010
0000
,
2000
0000
0000
3000
,
1000
0000
0100
0000
,
0020
0000
0000
0030
,
0010
0000
0001
0000
,
0200
0000
0000
0300
,
0100
0000
0010
0000
,
0200
0000
0000
0300
,
0100
0000
0001
0000
,
0020
0000
0000
0030
,
0010
0000
0100
0000
,
2000
0000
0000
3000
,
0001
0000
0000
0000
,
0010
0000
0001
0000
,
1000
0000
0100
0000
,
1000
0000
1000
0000
,
0010
0010
0010
0000
,
1000
0000
0100
0000
,
0010
0000
0001
0000
,
1000
0000
1000
0000
,
0001
0001
0001
0000
,
0010
0000
0001
0000
,
0010
0000
0100
0000
,
1000
0000
0010
0000
,
1000
0000
0001
0000
,
0100
0000
0010
0000
,
0100
0000
0001
0000
,
1000
0000
0100
0000
,
0010
0000
0001
0000
,
0100
0000
0010
0000
,
0100
0000
0000
0001
,
0000
0010
0000
1000
,
0000
0000
0110
0000
,
0000
1001
0000
0000
,
0110
0000
0000
1001
;

//---------------dance-single - ----------------
#NOTES:
     dance-single:
     :
     Challenge:
     16:
     0.904117,0.911289,0.468108,0.505556,0.322994,676.000000,626.000000,50.000000,54.000000,0.000000,0.000000,0.904117,0.911289,0.468108,0.505556,0.322994,676.000000,626.000000,50.000000,54.000000,0.000000,0.000000:
// measure 0
0000
0000
0000
0000
,  // measure 1
0000
0000
0000
0000
,  // measure 2
0000
0000
0000
0000
,  // measure 3
0000
0000
0000
0000
,  // measure 4
0000
0000
0000
0000
,  // measure 5
1000
1000
0001
0010
0001
0001
0100
1000
,  // measure 6
0100
0100
0010
0001
0010
0010
0100
1000
,  // measure 7
0110
0001
1000
0100
1001
0010
0100
0001
,  // measure 8
1000
0000
0100
0000
0001
0000
0010
0000
0101
0000
1000
0010
0100
0001
1000
0000
,  // measure 9
0001
0001
0100
0010
1000
1000
0010
0001
,  // measure 10
0010
0010
0100
1000
0100
0100
0001
1000
,  // measure 11
1001
0010
1000
0100
0110
0001
1000
0010
,  // measure 12
0100
0000
0001
0000
1000
0000
0010
0000
0102
0000
1000
0000
1003
0010
0100
0001
,  // measure 13
0010
0100
1000
0002
0013
0100
1000
0020
,  // measure 14
0130
0001
1000
0200
0310
0001
0100
1000
,  // measure 15
0001
0010
0001
2000
3010
0100
0001
0020
,  // measure 16
0130
0000
1000
0000
0010
0000
0100
0001
1000
0000
0010
1000
0100
0010
0001
0000
,  // measure 17
1000
0001
0010
0200
0310
0001
0100
2000
,  // measure 18
3010
1000
0001
0020
0031
0100
1000
0001
,  // measure 19
0012
0000
0100
0000
1003
0000
2010
0000
0100
0000
3001
0000
0010
0001
0100
0000
,  // measure 20
1000
0000
0010
0100
0001
0000
1000
0000
0010
0000
0100
0001
1000
0001
0010
0100
,  // measure 21
1000
1000
0010
0001
0010
0010
0100
1000
,  // measure 22
0100
0100
0001
0010
0001
0001
0100
1000
,  // measure 23
1001
0001
0010
0100
1100
0010
1000
0001
,  // measure 24
0010
0000
0100
0000
1000
0000
0001
0000
0110
0000
1000
0001
0010
0100
1000
0000
,  // measure 25
0001
0001
1000
0010
0100
0100
0010
0001
,  // measure 26
0010
0010
1000
0100
1000
1000
0001
0100
,  // measure 27
0101
0010
0001
0100
1010
0001
1000
0100
,  // measure 28
0010
0000
0001
0000
1000
0000
0010
0000
0120
0000
1000
0000
1030
0001
0100
0010
,  // measure 29
1000
0001
0010
0200
0310
0001
0100
0020
,  // measure 30
1030
0000
0001
0000
1000
0000
0200
0000
0310
0000
0001
0000
0100
0010
1000
0000
,  // measure 31
0001
0010
0001
0200
0310
1000
0001
0020
,  // measure 32
0130
0000
1000
0000
0010
0000
0100
0001
1000
0000
0010
1000
0100
0010
0001
1000
,  // measure 33
0010
1000
0001
0020
0130
1000
0010
0200
,  // measure 34
0310
0000
1000
0000
0001
0000
0020
0000
0130
0000
1000
0000
0001
1000
0010
0000
,  // measure 35
1020
0000
0001
0000
1030
0000
2100
0000
0001
0000
3010
0000
0100
1000
0001
0000
,  // measure 36
0100
0000
0001
0010
0100
0000
1000
0001
0100
0000
0001
0010
0100
1000
0010
0100
,  // measure 37
0002
0000
0010
0000
1000
0000
1000
0000
1003
0000
0100
0000
1001
0000
0010
0100
,  // measure 38
0002
0000
0010
0000
1003
0000
0020
0000
0100
0000
1030
0100
0010
0000
0001
0000
,  // measure 39
0200
0000
0010
0000
1000
0000
1000
0000
1000
0000
0301
0000
0101
0000
0010
1000
,  // measure 40
0002
0000
0010
0000
0100
0000
1000
0000
0010
0000
0100
0000
0103
0001
0010
0100
,  // measure 41
2000
0000
0001
0000
0100
0000
0100
0000
0100
0000
3010
0000
1010
0000
0100
0001
,  // measure 42
1000
0000
0100
0000
0010
0000
0001
0100
0001
0000
1001
0000
0110
0000
0010
1000
,  // measure 43
0200
0000
0010
0000
0001
0000
0001
0000
0001
0000
1300
0000
1100
0000
0010
1000
,  // measure 44
0002
0000
0100
0000
0013
0000
2000
0000
0100
0000
3001
0000
1000
0010
0100
0001
,  // measure 45
2000
0000
0010
0000
0100
0000
0001
0000
0010
0000
0001
0000
0100
0000
3010
1000
,  // measure 46
0100
0000
0010
0000
0001
0000
0100
0000
1000
0000
0001
0000
1000
0000
0010
0100
,  // measure 47
0002
0000
0010
0000
0100
0000
1000
0000
0010
0000
1000
0000
0103
0000
0001
1000
,  // measure 48
0010
0000
1000
0100
0010
0001
0010
0100
1000
0000
0010
0000
0100
0001
1000
0001
,  // measure 49
0020
0000
0000
0000
0100
0000
0100
0000
0001
0000
1000
0000
0100
0000
1030
0010
,  // measure 50
0001
0100
0010
1000
0001
1000
1200
0000
,  // measure 51
0310
0000
0001
0000
0100
0000
1000
0000
0010
0000
1000
0000
0001
0100
0010
0000
,  // measure 52
0110
0000
0000
0000
1000
0000
0001
0000
1010
0000
0100
0001
1000
0001
0010
0100
,  // measure 53
1000
1000
0010
0001
0100
0100
0010
1000
,  // measure 54
0010
0010
0001
0100
0001
0001
1000
0100
,  // measure 55
1010
1000
0100
0001
0011
0100
0001
0010
,  // measure 56
1000
0000
0001
0000
0100
0000
0010
0000
1001
0000
1000
0001
1000
0100
0010
0001
,  // measure 57
0100
0100
1000
0001
1000
1000
0010
0001
,  // measure 58
0010
0010
0100
1000
0001
0001
0010
0100
,  // measure 59
0110
0001
0100
1000
1100
0010
1000
0100
,  // measure 60
0010
0000
0001
0000
0100
0000
1000
0000
0012
0000
0100
0000
0103
0010
1000
0001
,  // measure 61
0010
0001
0100
1020
0130
0001
1000
1200
,  // measure 62
0310
0000
0001
0000
0100
0000
0120
0000
1030
0000
0001
0000
0010
0001
0100
0001
,  // measure 63
1000
0010
0100
1002
0013
0100
1000
1020
,  // measure 64
0130
0000
0001
0000
0010
0000
0001
1000
0100
0000
0010
0001
1000
0010
1000
0100
,  // measure 65
0010
0001
0100
0102
1003
0010
0100
1020
,  // measure 66
0130
0000
0001
0000
0010
0000
1002
0000
0103
0000
0010
0000
0001
0100
1000
0000
,  // measure 67
0010
1000
0100
0002
0013
0001
0100
2000
,  // measure 68
3010
0000
1000
0100
0010
0000
0001
1000
0010
0000
0100
0001
0010
0100
1000
0001
,  // measure 69
1000
0010
1000
0002
0013
0100
1000
0020
,  // measure 70
0130
0001
0010
2000
3100
0010
0110
0001
,  // measure 71
1000
0020
1030
0100
0001
0020
0031
0100
,  // measure 72
0010
2000
3001
0100
1010
0100
0001
0020
,  // measure 73
0130
1000
0101
0010
1000
0002
1003
0100
,  // measure 74
0011
1100
1010
0101
1001
0110
1001
1001
;
