#TITLE:CG Project;
#ARTIST:Latenighters;
#BANNER:CG Project.png;
#BACKGROUND:CG Project-bg.png;
#JACKET:CG Project-jacket.png;
#MUSIC:CG Project.ogg;
#SAMPLESTART:20.4;
#SAMPLELENGTH:20;
#DISPLAYBPM:200;
#BPMS:0=200;
#BGCHANGES:;

//---------------dance-single - ----------------
#NOTES:
     dance-single:
     :
     Beginner:
     3:
     :
0000
0000
0000
0000
,
0000
0000
0000
0000
,
0000
0000
0000
0000
,
0000
0000
0000
0000
,
0000
0000
0000
0000
,
0001
0000
0000
0000
,
0001
0000
0000
0000
,
1000
0000
0000
0000
,
1000
0000
0000
0000
,
0001
0000
0000
0000
,
0001
0000
0000
0000
,
1000
0000
0000
0000
,
1000
0000
0000
0000
,
0100
0000
0000
0000
,
0100
0000
0000
0000
,
0010
0000
0000
0000
,
0010
0000
0000
0000
,
0001
0000
0001
0000
,
0001
0000
0000
0000
,
0100
0000
0000
0000
,
0100
0000
0000
0000
,
1000
0000
1000
0000
,
1000
0000
0000
0000
,
0100
0000
0000
0000
,
0010
0000
0000
0000
,
0001
0000
0000
0000
,
0010
0000
0000
0000
,
1000
0000
1000
0000
,
0001
0000
0001
0000
,
1000
0000
0000
0000
,
0010
0000
0000
0000
,
0001
0000
0001
0000
,
1000
0000
1000
0000
,
0001
0000
0000
0000
,
0001
0000
0001
0000
,
1000
0000
0000
0000
,
0100
0000
0000
0000
,
0001
0000
0000
0000
,
1000
0000
1000
0000
,
0001
0000
0000
0000
,
0010
0000
0000
0000
,
1001
0000
0000
0000
,
0001
0000
0000
0000
,
1000
0000
0001
0000
,
1000
0000
0000
0000
,
0110
0000
0000
0000
,
0100
0000
0000
0000
,
0100
0000
0010
0000
,
0100
0000
0000
0000
,
0100
0000
0100
0000
,
0001
0000
0001
0000
,
1000
0000
1000
0000
,
0100
0000
0000
0000
,
0010
0000
0010
0000
,
0001
0000
0001
0000
,
1000
0000
1000
0000
,
0010
0000
0000
0000
,
1000
0000
0001
0000
,
1000
0000
0001
0000
,
0100
0000
0010
0000
,
0100
0000
0000
0000
,
1000
0000
0100
0000
,
0010
0000
0001
0000
,
0100
0000
0010
0000
,
1001
0000
0000
0000
,
1000
0000
0100
0000
,
0001
0000
0100
0000
,
1000
0000
0001
0000
,
1001
0000
0000
0000
,
0001
0000
0010
0000
,
1000
0000
0010
0000
,
0100
0100
0100
0000
,
1001
0000
0000
0000
,
1001
0000
0000
0000
,
0000
0000
0000
0000
;

//---------------dance-single - ----------------
#NOTES:
     dance-single:
     :
     Easy:
     5:
     :
0000
0000
0000
0000
,
0000
0000
0000
0000
,
0000
0000
0000
0000
,
0000
0000
0000
0000
,
0000
0000
0000
0000
,
1000
0000
0100
0000
,
0010
0000
0001
0000
,
0100
0000
0010
0000
,
1001
0000
0000
0000
,
1000
0000
0100
0000
,
0001
0000
0100
0000
,
1000
0000
0001
0000
,
1001
0000
0000
0000
,
0001
0000
0010
0000
,
1000
0000
0010
0000
,
0100
0100
0100
0000
,
0110
0000
0000
0000
,
1001
0000
1000
0000
,
0001
0001
0100
0000
,
1000
0000
0001
0000
,
1000
1000
0010
0000
,
1000
0000
0010
0000
,
0001
0001
1000
0000
,
0100
0000
0001
0000
,
1000
1000
0001
0000
,
1000
0000
0001
0000
,
0100
0100
0010
0000
,
1000
0000
0001
0000
,
0010
0010
0100
0000
,
2000
0000
3000
0000
,
0002
0000
0003
0000
,
0010
0100
0001
1000
,
2002
0000
0000
3003
,
1000
0001
1000
0000
,
0010
0000
1000
0000
,
0100
0010
0100
0000
,
0010
0000
0001
0000
,
1000
0100
1000
0000
,
0100
0000
0010
0000
,
0001
0010
0001
0000
,
0001
0000
1000
0000
,
2000
3000
1000
0000
,
0002
0003
0001
0000
,
0200
0300
0100
0000
,
0020
0030
0010
0000
,
0001
0010
0100
0000
,
1000
0100
0010
0000
,
0001
0000
1000
0000
,
0001
1000
1001
0000
,
0001
0010
1000
0000
,
0100
0001
0100
0000
,
1000
0010
0001
0000
,
0100
1000
0100
0000
,
1000
0010
0001
0000
,
0100
1000
0100
0000
,
0001
0010
1000
0000
,
0100
0001
0100
0000
,
1000
0100
1000
0100
,
0001
0100
0001
0100
,
1000
0001
1000
0001
,
1000
0100
1000
0000
,
0010
0001
1000
0100
,
0010
0001
0010
0000
,
0010
0001
0100
0001
,
0010
1000
0001
0000
,
1000
0100
0001
0100
,
1000
1000
0010
0000
,
0001
0010
1000
0010
,
0001
0001
0010
0000
,
0100
0010
0110
0000
,
0001
1000
1001
0000
,
0110
0000
1001
0000
,
0220
0000
0000
0330
,
1001
0000
0000
0000
,
0000
0000
0000
0000
;

//---------------dance-single - ----------------
#NOTES:
     dance-single:
     :
     Medium:
     9:
     :
0000
0000
0000
0000
,
0000
0000
0000
0000
,
0000
0000
0000
0000
,
0000
0000
0000
0000
,
0000
0000
0000
0000
,
1000
0100
0001
0100
,
1000
1000
0010
0000
,
0001
0010
1000
0010
,
0001
0001
0010
0000
,
0001
0010
1000
0010
,
0001
1000
0100
0010
,
1000
0100
0010
1000
,
0100
0010
0001
0000
,
0100
0010
0110
0000
,
0001
1000
1001
0000
,
0110
0000
1001
0000
,
0220
0000
0000
0330
,
1001
0000
0010
0001
,
0200
0001
0301
0000
,
1100
0000
0010
0100
,
0002
0100
0103
0000
,
1001
0000
0100
1000
,
0020
1000
1030
0000
,
0011
0000
0100
0010
,
2000
0010
3010
0000
,
0001
0000
1000
0100
1000
0000
1000
0000
,
0001
0010
0100
0000
,
1000
0000
0001
0010
0001
0000
0001
0000
,
1000
0100
0010
0001
,
0010
0000
0000
0010
0100
0000
0000
0000
,
0001
0000
0000
0001
1000
0000
0000
0000
,
1000
0001
0100
0010
,
0220
0000
0000
0330
,
0100
1100
0010
0001
,
2000
0010
3010
0000
,
0100
0101
0010
1000
,
0002
0010
0013
0000
,
1000
0101
0010
0100
,
0002
0013
2000
3100
,
0001
1100
0010
1000
,
0002
0000
0000
0003
,
1000
0000
0001
0100
0002
0000
0003
0000
,
0100
0000
0010
1000
0020
0000
0030
0000
,
0001
0000
0100
0010
0200
0000
0300
0000
,
0010
0000
1000
0001
2000
0000
3000
0000
,
0001
0100
1000
0010
,
0001
0100
1000
0010
,
0001
1000
0010
0100
,
0110
0000
0000
0000
0010
0100
0010
0000
,
1000
0100
0010
0011
,
0100
0010
1000
0100
,
0010
0001
0100
0101
,
0010
0100
0010
0100
0010
0000
0000
0000
,
0001
0100
0010
1010
,
0100
0010
0001
0100
,
0010
1000
0100
1100
,
0002
0000
0000
0003
,
1000
0001
0000
0100
0000
0010
0000
1000
,
0001
1000
0010
0100
,
0001
1000
0000
0100
0000
0010
0000
0001
,
1000
0001
1001
0000
,
1000
0100
1000
0000
0010
0000
0001
0000
,
0010
1000
0010
0000
1000
0000
0100
0000
,
0001
0100
0001
0000
0100
0000
1000
0000
,
0020
0000
0100
0130
,
1000
0100
2100
3001
,
0010
0001
0012
1003
,
0010
1000
1020
0130
,
0001
0100
0201
0310
,
1000
0000
0001
0000
1000
0100
0001
0000
,
0100
0000
0010
0000
0001
0100
1000
0000
,
0010
1100
0010
0101
,
0220
0000
0000
0330
,
1001
0000
0000
0000
,
0000
0000
0000
0000
;

//---------------dance-single - ----------------
#NOTES:
     dance-single:
     :
     Hard:
     12:
     :
0000
0000
0000
0000
,
0000
0000
0000
0000
,
0000
0000
0000
0000
,
0000
0000
0000
0000
,
0000
0000
0000
0000
,
1000
0100
1000
0000
0010
0000
0001
0000
,
0010
1000
0010
0000
1000
0000
0100
0000
,
0001
0100
0001
0000
0100
0000
1000
0000
,
0020
0000
0100
0130
,
1000
0100
2100
3001
,
0010
0001
0012
1003
,
0010
1000
1020
0130
,
0001
0000
0201
0310
,
1000
0000
0001
0000
1000
0100
0001
0000
,
0100
0000
0010
0000
0001
0100
1000
0000
,
0010
1100
0010
0101
,
0220
0000
0000
0330
,
1001
0000
1000
0010
1000
0100
0001
0000
,
0011
0000
0100
1000
0010
0100
0001
0000
,
1010
0000
0001
0100
0001
1000
0010
0000
,
1000
0101
0010
1100
,
0110
0000
0100
1000
0001
0010
1000
0000
,
1100
0000
0010
0001
0100
0010
1000
0000
,
0101
0000
1000
0010
0100
0001
0010
0000
,
1002
1000
0100
0103
,
1000
0000
1000
0010
0100
0000
0001
0010
,
0000
1000
0010
0000
1100
0000
0011
0000
,
0100
0000
0100
0001
1000
0000
0010
0001
,
0000
0100
1000
0000
0110
0000
1010
0000
,
0001
0000
1000
0001
0100
0000
0001
1000
,
0000
0010
0001
0000
0101
0000
1001
0000
,
0100
0000
0100
0010
0100
0000
0001
2000
,
0000
0001
0001
0000
0100
0000
3100
0000
,
0001
0100
1000
0100
,
0001
0100
1000
0100
,
0001
0100
1000
0100
0001
0100
1000
0100
,
0001
0100
1000
0100
0001
0010
1000
0000
,
1000
0000
0001
0001
0000
0000
1000
1000
,
0100
0000
0010
0010
0000
0000
0100
0100
,
0001
1000
0010
0100
0001
1000
0010
0100
,
0001
1000
0010
0100
0001
0000
0000
0000
,
1000
0100
0001
0100
2000
0000
3000
0000
,
1000
0010
0001
0010
2000
0000
3000
0000
,
0001
0100
1000
0100
0002
0000
0003
0000
,
0001
0010
1000
0010
0002
0000
0003
0000
,
1000
0100
0001
0010
,
1000
0100
0001
0010
,
1000
1000
0001
0001
,
1100
0101
1001
0000
,
1000
0001
0100
0010
1000
0100
0010
0001
,
0100
0100
0010
1000
0000
1000
0100
0000
,
0001
0010
0100
0010
1000
0001
0100
0010
,
1000
0101
1000
0011
,
0100
0001
0010
0100
1000
0010
0100
0001
,
0100
0100
0010
1000
0000
0001
0100
0000
,
1000
0010
0001
1000
0100
0010
0001
0010
,
0100
0110
1001
0110
,
1000
1100
0000
0011
0000
0110
0000
0100
,
1000
0100
0010
0001
1000
0100
0010
0000
,
0001
0101
0000
1010
0000
1001
0000
0100
,
0001
1000
0010
0100
0001
0010
0100
0000
,
1000
1100
0000
0011
0000
1100
0000
0010
,
0001
0100
1000
0100
0001
0100
0010
0000
,
0001
0101
0000
1010
0000
0101
0000
0010
,
1000
0100
0010
0001
0010
1000
0010
0000
,
0102
0000
1000
0000
0103
0001
0010
0000
,
0210
0000
1000
0000
0310
0100
1000
0000
,
1020
0000
0100
0000
1030
0010
0001
0000
,
2100
0000
0010
0000
3001
1000
0100
0000
,
1000
1000
0001
0001
0100
0010
1000
0100
,
0010
0010
0001
0010
0010
0100
1000
1000
,
0001
0100
1000
0001
0010
1000
0100
0010
,
0220
0000
0000
0330
,
1001
0000
0000
0000
,
0000
0000
0000
0000
;

//---------------dance-single - ----------------
#NOTES:
     dance-single:
     :
     Challenge:
     17:
     :
0000
0000
0000
0000
,
0000
0000
0000
0000
,
0000
0000
0000
0000
,
0000
0000
0000
0000
,
0000
0000
0000
0000
,
0001
0100
0010
0100
1000
0100
0010
0100
,
1000
0100
0001
0010
0000
0100
1000
0001
,
0100
1000
0100
0001
0100
1000
0100
0010
,
0100
0000
0001
0000
0000
0000
0010
0000
0000
0000
0001
1000
0001
0000
0100
0000
,
0010
1000
0010
0000
0100
0001
0100
0000
0001
0010
0001
0000
1000
0100
1000
0000
,
0001
0100
0001
0000
1000
0100
1000
0000
0001
0010
0100
1000
0100
0010
0001
0000
,
1000
0100
0010
0001
0010
0100
1000
0000
0001
0100
0001
0100
0010
1000
0001
0000
,
1000
0100
1000
0100
1000
0100
1000
0100
1000
0100
1000
0100
1000
0100
1000
0100
,
0010
0001
0000
0001
0100
0010
0000
0010
1000
0001
0000
0001
1000
0100
0000
0100
,
0010
0000
0001
0100
0001
0000
1000
0100
1000
0000
0001
0010
0001
0000
1000
0001
,
1000
0100
0010
0001
1000
0010
0100
0001
1000
0100
0010
0001
1000
0010
0100
0001
,
0020
0000
0000
0000
0030
0000
0000
0000
1001
0000
0000
0000
1001
0000
0100
0001
,
1000
0010
0100
0001
0010
1000
0010
0001
,
0100
0010
1000
0001
0010
1000
0100
0000
,
0010
0001
0010
0100
1000
0010
1000
0001
,
0100
1000
0100
0010
0001
0010
1000
0100
,
0100
0010
0001
0010
0100
1000
0010
1000
,
0001
0100
1000
0100
0001
1000
0100
0000
,
0010
0001
0010
0100
0001
0100
1000
0001
,
0100
0000
0010
1000
0001
0000
1000
0100
0010
0001
0100
0000
0010
0000
1000
0000
,
0002
0000
0013
0100
1001
0010
1000
0001
,
0100
0000
0010
0000
1000
0000
0001
0010
0100
0000
1000
0001
0100
0000
0000
0000
,
0020
0000
1030
0100
1001
0001
0010
1000
,
0100
0000
0010
0000
0001
0000
1000
0001
0010
0000
0001
1000
0100
0000
0000
0000
,
0110
0001
0100
0010
1000
0100
0010
0100
,
0110
0000
1000
0000
0001
0000
0100
0010
1000
0000
0100
0010
0001
0000
0100
0000
,
0110
1000
0010
0001
1001
0100
0010
1000
,
0001
0100
1000
0000
1001
0000
1001
0000
,
0010
0000
1000
0000
0010
0000
0001
0000
0010
1000
0100
0000
1000
0001
0100
0000
,
0001
0000
0010
0000
1000
0000
0010
0000
0001
0100
0010
0000
1000
0100
0010
0000
,
0001
0000
0100
0000
0010
0000
1000
0000
0001
0010
0100
0000
1000
0001
1000
0000
,
0001
0010
0001
0000
0010
0100
0010
0000
0100
1000
0100
0000
1000
0010
1000
0000
,
0001
0100
0001
0000
0010
0000
0100
0000
1000
0010
1000
0000
0100
0010
0001
0000
,
1000
0100
1000
0000
0010
0001
0010
0000
0100
0010
0001
0000
0100
0001
1000
0000
,
0001
0010
0001
0000
1000
0010
1000
0000
0001
0100
0001
0000
1000
0100
1000
0000
,
0001
0000
0010
0000
1000
0000
0100
0010
0001
0100
1000
0100
0001
0100
0010
0000
,
1000
0000
0100
0010
0001
0000
0100
0000
0010
1000
0001
0000
1000
0100
0010
0000
,
0001
0000
1000
0001
1000
0000
0010
0100
0010
1000
0001
0000
0010
0100
1000
0000
,
0001
0000
1000
0001
0010
0000
0100
0000
1000
0010
1000
0000
0001
0100
0010
0000
,
1000
0100
0010
0000
0001
1000
0010
0000
0100
0010
1000
0000
0100
0010
0001
0000
,
1001
0000
0010
1000
0100
0000
0010
0000
0001
1000
0001
0000
1000
0100
1000
0000
,
0110
0000
0001
0010
0100
0000
1000
0000
0010
0100
0010
0000
1000
0001
0100
0000
,
0110
0001
0010
1000
1001
0100
0001
0010
,
1000
0000
0100
0000
0010
0000
0001
0000
1001
0000
0000
0000
1001
0000
0010
0100
,
0001
0000
0010
0000
1000
0000
0100
0010
0001
0000
0010
0100
1000
0000
0001
0000
,
1000
0000
0010
0000
0100
0000
0001
0010
1000
0010
0001
0000
0100
0000
0010
0000
,
1000
0000
0001
0000
0100
0000
0010
1000
0001
0010
0100
0000
1000
0001
0100
0000
,
0110
0000
0001
0010
1000
0000
0001
0100
1000
0000
0001
0010
1000
0000
0000
0000
,
1001
0000
0010
0000
1000
0000
0100
0000
1000
0001
0010
0000
0001
0100
0010
0000
,
1000
0000
0001
0010
0100
0000
1000
0000
0001
1000
0001
0000
0010
0100
0010
0000
,
0100
0000
1000
0010
1000
0000
0001
0000
0100
0010
1000
0000
0001
0010
0100
0000
,
1100
0000
0001
0100
0001
0000
1000
0000
1001
0000
0000
0000
1001
0000
0000
0000
,
1010
1010
0001
0011
1000
1100
0001
0101
,
0101
0000
0010
0000
1000
0000
0001
0000
0010
0001
0100
0000
0001
1000
0100
0000
,
0010
0011
0100
1001
0010
1010
0100
1100
,
1100
0000
0001
0000
1000
0000
0001
0010
0100
0010
0001
0000
1000
0100
1000
0000
,
0001
0011
1000
1100
0010
1010
0100
0110
,
0110
0000
0001
0000
1000
0000
0100
0010
0001
0000
1000
0000
0010
0000
0000
0000
,
1000
1100
0001
0011
0100
1001
0010
1010
,
1010
0000
0001
0010
0100
0000
1000
0000
0010
0100
0001
1000
0100
0000
0000
0000
,
1001
0000
0010
1000
0001
0000
0100
0000
1000
0000
0010
0000
0001
0000
0100
0000
,
0010
0000
1000
0100
0010
0000
0001
1000
0010
0100
0001
1000
0010
0000
0000
0000
,
1001
0000
0100
0000
0001
0000
0010
0000
1000
0100
0010
0000
0100
1000
0001
0000
,
0100
0001
0010
0001
0010
0100
1000
0010
1000
0001
0010
0100
1000
0000
0001
0000
,
0010
0100
0010
0100
0010
0100
0010
0100
0010
0100
0010
0100
0010
0100
0010
0100
,
1000
0001
1000
0001
1000
0001
1000
0001
1000
0001
1000
0001
1000
0001
1000
0001
,
0100
0010
0100
0010
1000
0001
1000
0001
0100
0010
1000
0001
0100
0010
1000
0001
,
0200
0000
0300
0101
,
1001
0000
0000
0000
;

//---------------dance-double - ----------------
#NOTES:
     dance-double:
     :
     Easy:
     5:
     :
00000000
00000000
00000000
00000000
,
00000000
00000000
00000000
00000000
,
00000000
00000000
00000000
00000000
,
00000000
00000000
00000000
00000000
,
00000000
00000000
00000000
00000000
,
00000100
00000000
00000001
00000000
,
00000010
00000000
00001000
00000000
,
00000100
00000000
00010000
00000000
,
00011000
00000000
00000000
00000000
,
01000000
00000000
10000000
00000000
,
00100000
00000000
00010000
00000000
,
01000000
00000000
00001000
00000000
,
00011000
00000000
00000000
00000000
,
00001000
00000000
00000100
00000000
,
00001000
00000000
00010000
00000000
,
00100000
00000000
00010000
00000000
,
00011000
00000000
00000000
00000000
,
00000010
00000000
00001000
00000000
,
00000001
00000001
00000100
00000000
,
00000010
00000000
00001000
00000000
,
00000100
00010000
00010000
00000000
,
00001000
00000000
00100000
00000000
,
00010000
00010000
01000000
00000000
,
00100000
00000000
10000000
00000000
,
00010000
01000000
01000000
00000000
,
10000000
00000000
01000000
00000000
,
00010000
00001000
00010000
00000000
,
00010000
00000000
00001000
00000000
,
00000100
00000001
00000100
00000000
,
00000001
00000000
00000010
00000000
,
00001000
00010000
00001000
00000000
,
00100000
00000000
10000000
00000000
,
20020000
00000000
00000000
30030000
,
10000000
00000000
00100000
00000000
,
01000000
10000000
00100000
00000000
,
00010000
00000000
00001000
00000000
,
00100000
00010000
00001000
00000000
,
00000100
00000000
00000010
00000000
,
00001000
00000100
00000010
00000000
,
00000001
00000000
00001000
00000000
,
00000010
00000001
00001000
00000000
,
00000100
00000100
00000100
00000000
,
00010000
00010000
00010000
00000000
,
00100000
00100000
00100000
00000000
,
10000000
10000000
10000000
00000000
,
00020000
00030000
01000000
00000000
,
00002000
00003000
00100000
00000000
,
00020000
00030000
00001000
00000000
,
00001000
00010000
00011000
00000000
,
00000100
00000100
00000010
00000010
,
00000001
00000000
00001000
00000000
,
00000001
00000001
00001000
00001000
,
00000100
00000000
00010000
00000000
,
00001000
00001000
00100000
00100000
,
00010000
00000000
01000000
00000000
,
00010000
00010000
01000000
01000000
,
20000000
00000000
00000000
30000000
,
01000000
00100000
01000000
00000000
,
00010000
00100000
00010000
00000000
,
00001000
00010000
00001000
00000000
,
00000010
00000100
00000010
00000000
,
00000001
00000010
00000001
00000000
,
00001000
00000100
00001000
00000000
,
00000010
00010000
00000010
00000000
,
00010000
00001000
00000000
00001000
,
00100000
00010000
01000000
00000000
,
00100000
10000000
01000000
00000000
,
00100000
00001000
00010000
00000000
,
00000100
00001000
00000010
00000000
,
00001000
00000001
00000100
00000000
,
00000010
00010000
00000100
00000000
,
00010000
00001000
00100000
00000000
,
02200000
00000000
00000000
03300000
,
10010000
00000000
00000000
00000000
,
00000000
00000000
00000000
00000000
;

//---------------dance-double - ----------------
#NOTES:
     dance-double:
     :
     Medium:
     9:
     :
00000000
00000000
00000000
00000000
,
00000000
00000000
00000000
00000000
,
00000000
00000000
00000000
00000000
,
00000000
00000000
00000000
00000000
,
00000000
00000000
00000000
00000000
,
00000001
00000010
00000001
00000000
,
00001000
00000100
00001000
00000000
,
00000010
00010000
00000010
00000000
,
00010000
00001000
00000000
00001000
,
00100000
00010000
01000000
00000000
,
00100000
10000000
01000000
00000000
,
00100000
00001000
00010000
00000000
,
00000100
00001000
00000010
00000000
,
00001000
00000001
00000100
00000000
,
00000010
00010000
00000100
00000000
,
00010000
00001000
00100000
00000000
,
02200000
00000000
00000000
03300000
,
10100000
10000000
01000000
00010000
,
00001000
00000100
00000001
00000000
,
00000101
00000001
00000100
00001000
,
00010000
01000000
10000000
00000000
,
11000000
00010000
00100000
00001000
,
00000100
00000001
00000010
00000000
,
00000011
00001000
00000100
00010000
,
00100000
10000000
01000000
00000000
,
00101000
00001000
00010000
00100000
,
10000000
01000000
00010000
00001000
,
00010100
00010000
00001000
00000010
,
00000001
00000100
00001000
00010000
,
00011000
00000010
00001000
00010000
,
00001000
00000100
00010000
00001000
,
00011000
00100000
00010000
00001000
,
00020000
00000000
00002000
00033000
,
00011000
00100000
01000000
00100000
,
10000000
00010000
00100000
00000000
,
00011000
00000100
00000010
00000100
,
00000001
00001000
00000010
00000000
,
00000101
00000010
00001000
00010000
,
01000000
00100000
01100000
00010000
,
11000000
00100000
00010000
00001000
,
00000100
00000010
00000110
00000000
,
00000002
00000100
00001003
00000000
,
00020000
00000100
00031000
00000000
,
00200000
00010000
01300000
00000000
,
20000000
01000000
30010000
00000000
,
00020000
00001000
00030010
00000000
,
00000200
00000001
00000310
00000000
,
00002000
00000100
00003001
00000000
,
00001001
00000000
00000110
00000000
00000010
00001000
00010000
00000000
,
00011000
01000000
10000000
00100000
,
00010000
00001000
00000100
00000001
,
00000010
00001000
00010000
00100000
,
10000000
01000000
00010000
00001000
,
00011000
00000010
00000001
00000100
,
00001000
00010000
00100000
10000000
,
01000000
00010000
00001000
00000010
,
00000001
00000100
00001000
00010000
,
00020000
01000000
10000000
00100000
,
00032000
00000100
00000001
00000010
,
00023000
01000000
10000000
00100000
,
00031000
00010000
00011000
00000000
,
00010000
01000000
10000000
01000000
,
00001000
00000100
00000001
00000100
,
00001000
00000010
00000001
00000010
,
00010000
00100000
10000000
00100000
,
01000000
00100000
11000000
00100000
,
00001000
00010000
00001100
00000010
,
00000001
00000100
00010010
00001000
,
00000010
00000100
00011000
00100000
,
01000000
00100000
10010000
01000000
,
00001000
00010000
00000110
00000001
,
00000100
00001000
00010000
10000000
,
02200000
00000000
00000000
03300000
,
00011000
00000000
00000000
00000000
,
00000000
00000000
00000000
00000000
;

//---------------dance-double - ----------------
#NOTES:
     dance-double:
     :
     Hard:
     13:
     :
00000000
00000000
00000000
00000000
,
00000000
00000000
00000000
00000000
,
00000000
00000000
00000000
00000000
,
00000000
00000000
00000000
00000000
,
00000000
00000000
00000000
00000000
,
00011000
01000000
10000000
00100000
,
00010000
00001000
00000100
00000001
,
00000010
00001000
00010000
00100000
,
10000000
00000000
00010000
00000000
,
00011000
00000010
00000001
00000100
,
00001000
00010000
00100000
10000000
,
01000000
00010000
00001000
00000010
,
00000001
00000000
00001000
00000000
,
00020000
01000000
10000000
00100000
,
00032000
00000100
00000001
00000010
,
00023000
01000000
10000000
00130000
,
00022000
00000000
00000000
00033000
,
00011000
00000000
00010000
00000010
00010000
00000100
00001000
00000000
,
00000010
00000000
00000101
00000000
00000010
00001000
00000100
00000000
,
00010000
00000000
00001000
00100000
00001000
01000000
00010000
00000000
,
10000000
00000000
01010000
00000000
00100000
01000000
10000000
00000000
,
00100000
00000000
01000000
00001000
00100000
00001000
00010000
00000000
,
00001000
00000110
00000100
00001001
,
00000100
00000000
00000010
00010000
00000100
00010000
00001000
00000000
,
02000000
00000000
00000000
03000000
,
00100000
00000000
11000000
00000000
00100000
00000000
00001000
01000000
,
00000000
01000000
00001000
00000000
00010000
00000000
00000010
00000000
,
00000100
00000000
00000011
00000000
00000100
00000000
00010000
00000010
,
00000000
00000010
00010000
00000000
00001000
00000000
00100000
00000000
,
01000000
10000000
00100000
00010000
,
00001000
00000100
00000001
00000010
,
00001000
00100000
01000000
00010000
,
00002000
00000000
00000000
00003000
,
00011000
00000000
00010000
01000000
10000000
01000000
00010000
00000000
,
00001000
00000000
00010000
00001000
00000100
00001000
00010000
00000000
,
00001000
00000000
00000010
00000001
00000100
00000001
00000010
00000000
,
00001100
00001000
00000101
00000010
,
00000001
00000000
00000100
00001000
00010000
00001000
00000100
00000000
,
00001000
00000000
00010000
00001000
00100000
00001000
00010000
00000000
,
01000000
00000000
10000000
00100000
00010000
00100000
10000000
00000000
,
02000000
10000000
00100000
03010000
,
00001000
00010000
00100000
00001000
00020000
00000000
00030000
00000000
,
01000000
00001000
00010000
00000100
00000020
00000000
00000030
00000000
,
00000001
00000100
00001000
00010000
00000020
00000000
00000030
00000000
,
00010000
01000000
00100000
00001000
00020000
00000000
00030000
00000000
,
01000000
10000000
00100000
00010000
,
00001000
00000100
00000001
00000010
,
00001000
01100000
00010000
00000110
,
00001000
00010000
00011000
00000000
,
00110000
00000000
00001000
01000000
00000000
00100000
10000000
00000000
,
10010000
00000000
00100000
00001000
00000000
01000000
00010000
00000000
,
00101000
00000000
00000010
00001000
00000000
00000100
00000001
00000000
,
00000010
00001000
00000100
00000001
,
00000110
00000000
00000001
00001000
00000000
00010000
00001000
00000000
,
00010100
00000000
00001000
01000000
00000000
00100000
00010000
00000000
,
00011000
00000000
00010000
00000100
00000000
00001000
00100000
00000000
,
02000000
03100000
10010000
00000000
,
00010000
10000000
01000000
00100000
00010000
01000000
00100000
10000000
,
01000000
00000000
00100000
00010000
00000000
00001000
01000000
00000000
,
00010000
00100000
01000000
00100000
00001000
00010000
01000000
10000000
,
01000000
01100000
00010000
00001000
,
00000100
00000001
00000010
00000100
00001000
00000010
00000100
00000001
,
00000100
00000000
00000010
00010000
00000000
00001000
00000100
00000000
,
00001000
00000001
00000010
00000100
00010000
00000010
00000001
00000010
,
00000100
00000110
00011000
00000000
,
00100000
00000000
00100000
00001000
01000000
00000000
00010000
10000000
,
01000000
00000000
00100000
00001000
00000010
00000000
00000100
00000000
,
00000010
00000000
00000001
00001000
00010000
00000000
00001000
00000010
,
00010000
00000000
00100000
10000000
00010000
00000000
00100000
00000000
,
01000000
10000000
01000000
00010000
00001000
00000100
00000001
00000100
,
00001000
00010000
00100000
10000000
00100000
00010000
00001000
00000010
,
00000001
00000010
00001000
00010000
01000000
10000000
00100000
00000000
,
01100000
00000000
00000000
00000000
,
00001001
00000000
00000000
00000000
,
00000000
00000000
00000000
00000000
;
