#TITLE:CELEBRATE NITE;
#SUBTITLE:(Planet Lution Remix);
#ARTIST:N.M.R.;
#TITLETRANSLIT:;
#SUBTITLETRANSLIT:;
#ARTISTTRANSLIT:;
#GENRE:;
#CREDIT:;
#BANNER:CELEBRATE NITE (Planet Lution Remix)-bn.png;
#BACKGROUND:CELEBRATE NITE (Planet Lution Remix)-bg.png;
#LYRICSPATH:;
#CDTITLE:;
#MUSIC:CELEBRATE NITE (Planet Lution Remix).ogg;
#OFFSET:0.050000;
#SAMPLESTART:27.711000;
#SAMPLELENGTH:20.000000;
#SELECTABLE:YES;
#DISPLAYBPM:173.000000;
#BPMS:0.000000=172.906006
;
#STOPS:
;
#BGCHANGES:;
#KEYSOUNDS:;
#ATTACKS:;

//---------------dance-single - ----------------
#NOTES:
     dance-single:
     :
     Challenge:
     13:
     0.709886,0.676840,0.180370,0.045093,0.270555,551.000000,531.000000,20.000000,5.000000,0.000000,0.000000,0.709886,0.676840,0.180370,0.045093,0.270555,551.000000,531.000000,20.000000,5.000000,0.000000,0.000000:
0000
0000
0000
0000
,
0000
0000
0000
0000
,
0000
0000
0000
0000
,
0000
0000
0000
0000
,
1000
0100
0010
0100
1000
0100
0010
0100
,
1000
0010
0100
0010
1000
0010
0100
0010
,
1000
0001
0100
0001
1000
0001
0100
0001
,
1000
0000
0001
0000
0010
0000
0001
0000
1000
0000
0001
0000
0010
0000
0001
0100
,
0001
1000
0010
0100
0001
1000
0010
0100
,
0001
0010
0100
1000
0001
0100
0010
1000
,
0001
1000
0001
1000
0010
0100
0010
0100
,
0001
0000
1000
0000
1100
0000
0000
0000
0110
0000
0000
0000
0011
0000
1000
0001
,
1000
0010
1000
0001
0010
0100
1000
0000
,
0001
0000
1000
0000
0010
0000
0100
0001
0100
0000
0010
0000
1000
0000
0001
0000
,
1000
0100
0010
0001
1000
0010
0100
0000
,
0001
0000
0010
0000
0100
0000
1000
0010
1000
0000
0001
0000
0100
0000
0010
1000
,
0010
0100
0001
0000
1000
0010
0001
0000
,
0100
0000
0001
0000
0010
0000
0001
1000
0001
0000
0100
0000
0010
0000
1000
0000
,
0100
0000
1000
0000
0010
0000
0100
0001
0100
0000
0010
0000
1000
0000
0000
0000
,
0001
0000
2000
0000
0000
0000
3020
0000
0000
0000
1030
0001
1000
0000
0000
0000
,
0001
0000
0100
0000
0010
0000
0100
0000
0001
1000
0000
1000
0000
0000
0100
0000
,
0010
0001
1000
0001
0000
0100
0010
0000
,
1000
0000
0001
0000
0010
0000
0001
0000
0100
0010
0000
0010
0000
0000
1000
0000
,
0001
0100
0010
0100
0001
0010
1000
0000
,
1100
0000
0101
0000
1000
0001
0100
0010
,
1000
0001
0000
0001
1000
0000
0100
0000
0000
0000
0010
0001
0010
0000
0100
0000
,
1000
0001
1000
0010
0100
0001
0010
0100
,
1000
0001
1000
0010
1000
0100
0010
0001
,
0101
0000
0000
0001
0000
0000
1000
0000
0000
0000
0010
0000
0000
0000
0100
0000
,
0001
0000
0000
0010
0000
0000
0001
0000
1000
0000
0000
0010
0000
0000
1000
0000
,
0100
0000
0000
0010
0000
0000
0001
0000
0100
0000
0000
0010
0000
0000
1000
0000
,
0001
0000
0000
0001
0000
0000
0001
0000
1000
0000
0000
1000
0000
0000
1100
0000
,
1001
0000
0000
0000
0100
0000
0000
0000
0001
0000
0000
0010
0001
0000
1000
0000
,
0010
0000
0000
0000
0100
0000
0001
0000
1000
0000
0000
0001
0010
0000
0100
0000
,
1000
0010
1000
0001
0010
0100
1000
0010
,
0001
0010
1000
0010
0100
0001
1000
0100
,
0010
0001
1000
0010
1000
0100
0001
0000
,
1000
0010
1000
0100
0001
0100
1000
0000
,
0001
0010
0001
0100
1000
0010
0100
0000
,
0110
0000
0000
0000
1001
0000
0000
0000
0100
0000
0001
0000
1000
0000
0010
0100
,
0010
1000
0001
0000
0010
0001
0100
0010
,
1000
0000
0100
0000
0001
0000
0000
0000
0000
0000
1000
0010
1000
0010
1000
0000
,
0000
0001
0010
0100
1000
0010
0100
0001
,
1000
0000
0001
0100
0001
0000
0000
0000
0010
0000
0010
0000
0010
0000
0000
0000
,
0001
0000
1000
0000
0001
0000
0010
0000
0100
1000
0000
1000
0000
0000
0010
0000
,
0100
0000
0001
0000
1000
0000
0001
0000
0000
0000
0100
0010
0100
0000
0001
0000
,
1000
0000
0001
0000
0010
0000
0100
0000
1000
0001
0000
0001
0000
0000
0100
0000
,
0010
0100
1000
0100
0010
0100
0001
0000
,
0011
0000
1010
0000
0001
1000
0100
0010
,
0001
1000
0000
1000
0001
0000
0100
0000
0000
0000
0010
1000
0010
0000
0100
0000
,
0001
0010
0001
1000
0001
0100
0010
1000
,
0100
0010
0100
1000
0001
0100
0010
1000
,
1100
0000
0000
0010
0000
0000
0001
0000
0000
0000
1000
0000
0000
0000
0010
0000
,
0100
0000
0000
0100
0000
0000
0100
0000
0010
0000
0000
0010
0000
0000
0010
0000
,
1000
0000
0000
0001
0000
0000
1000
0000
0001
0000
0000
0010
0000
0000
0100
0000
,
1000
0000
0000
1000
0000
0000
0010
0000
0100
0000
0000
0001
0000
0000
0011
0000
,
1001
0000
0000
0000
0100
0000
0000
0000
0010
0000
0000
1000
0010
0000
0100
0000
,
0001
0000
0000
0000
0010
0000
0001
0000
0100
0000
0000
0010
1000
0000
0001
0000
,
1000
0010
1000
0001
0010
0100
1000
0001
,
0100
0000
0010
0000
0100
0000
0001
0000
1000
0010
1000
0010
2000
0000
0000
0000
,
3001
1000
0001
0010
0100
1000
0001
0000
,
0100
0001
1000
0001
0010
0100
1000
0000
,
0001
0100
0010
1000
0100
1000
0001
0000
,
0101
0000
0000
0000
1010
0000
0000
0000
0100
0000
0001
0000
1000
0000
0001
0010
,
0001
0100
1000
0000
0010
0100
0001
1000
,
0100
0000
0010
0000
0001
0000
0000
0000
0000
0000
1000
0010
1000
0010
1000
0000
,
0000
0001
1000
0010
1000
0100
0010
0001
,
0100
0000
0010
1000
0010
0000
0000
0000
0100
0000
0001
1000
0001
0000
0000
0000
,
0010
0000
0001
0000
1000
0000
0001
0000
0100
0010
0000
0010
0000
0000
1000
0000
,
0100
0000
0001
0000
0100
0000
1000
0000
0000
0000
0010
0100
0010
0000
1000
0000
,
0001
0000
0010
0000
0001
0000
0100
0000
0010
1000
0000
1000
0000
0000
0001
0000
,
0100
0010
0100
1000
0100
0001
0010
0000
,
1001
0000
0011
0000
0100
1000
0001
0100
,
0010
1000
0000
1000
0010
0000
0100
0000
0000
0000
0001
0010
0001
0000
1000
0000
,
0100
0010
0100
1000
0001
0010
0001
1000
,
0100
0001
0100
1000
0010
0100
0001
1000
,
0220
0000
0000
0000
,
0000
0000
0000
0000
,
0000
0000
0000
0000
,
0330
0000
0000
0000
;

//---------------dance-single - ----------------
#NOTES:
     dance-single:
     :
     Hard:
     12:
     0.631296,0.641216,0.144296,0.126259,0.171352,490.000000,474.000000,16.000000,14.000000,0.000000,0.000000,0.631296,0.641216,0.144296,0.126259,0.171352,490.000000,474.000000,16.000000,14.000000,0.000000,0.000000:
0000
0000
0000
0000
,
0000
0000
0000
0000
,
0000
0000
0000
0000
,
0000
0000
0000
0000
,
1000
0000
0001
0000
0010
0100
1000
0001
,
0100
0010
1000
0000
0001
0010
0100
0000
,
1000
0001
1000
0010
0100
0001
1000
0000
,
0001
0010
0100
0010
0001
0100
0010
1000
,
0001
0000
1000
0001
0100
0000
0010
1000
,
0100
0010
0001
0000
1000
0010
0001
0000
,
0100
0001
0010
0001
1000
0010
0100
0001
,
0010
0100
1000
0000
1100
0000
0101
0000
,
0010
0001
0100
0001
0000
1000
0100
0000
,
1000
0010
1000
0001
0010
0100
1000
0000
,
0001
0100
0010
0100
0010
1000
0001
0000
,
1000
0000
0010
0000
1000
0000
0001
1000
0001
0000
0100
0000
0010
0000
1000
0000
,
0100
0010
0001
0000
0100
0010
1000
0000
,
0001
0000
0010
0000
0100
0000
1000
0001
1000
0000
0010
0000
0100
0000
0000
0000
,
0001
1000
0010
1000
0100
0010
0001
0100
,
0010
2000
0000
3002
0000
1003
0100
0000
,
0010
0000
0001
0000
0100
0000
0010
0000
1000
0000
0000
0100
0000
0000
0001
0000
,
0010
0100
1000
0001
0000
1000
0100
0000
,
0010
0000
0001
0000
1000
0000
0001
0000
0100
0000
0000
0010
0000
0000
1000
0000
,
0100
0010
0001
0100
0001
0010
1000
0000
,
0020
0000
0230
0000
0301
0100
0001
1000
,
0010
0000
0000
1100
0000
0000
0101
0000
0000
0000
1000
0001
1000
0000
0100
0000
,
0010
0001
0010
0001
1000
0010
1000
0010
,
0100
0001
0100
0001
1000
0100
1000
0100
,
0020
0000
0032
0000
,
1003
0000
0000
0010
0000
0000
1000
0000
0001
0000
0000
0010
0000
0000
0001
0000
,
0100
0000
0000
0010
0000
0000
1000
0000
0100
0000
0000
0010
0000
0000
0001
0000
,
1000
0000
0000
0001
0000
0000
0100
0000
0010
0000
0000
1000
0000
0000
0001
0000
,
1001
0100
0010
0100
,
0010
0000
0000
1000
0000
0000
0001
0000
1000
0000
0000
0100
0000
0000
0010
0000
,
0001
1000
0001
0010
0001
0100
1000
0000
,
1010
1000
0010
1000
0001
0100
0010
0000
,
1000
0100
0010
0001
0000
0001
0100
0000
,
0001
1000
0001
0010
0000
0100
1000
0000
,
0001
0010
0001
1000
0010
0100
0001
0000
,
0110
0000
0000
0000
1001
0000
0000
0000
1000
0000
0100
0000
0010
0000
0001
1000
,
0001
0100
0010
0000
1000
0100
0001
0010
,
0001
0000
0100
0000
1000
0000
0000
0000
0000
0000
0010
0100
0010
0000
1000
0000
,
0000
0001
0010
0001
0100
0010
1000
0001
,
1000
0000
0100
0000
0010
0000
0000
0000
0001
0000
0100
0010
0100
0000
0000
0000
,
0001
0000
0010
0000
0001
0000
0100
0000
0010
0000
0000
1000
0000
0000
0100
0000
,
1000
0010
0100
0001
0000
0010
0100
0000
,
1000
0000
0001
0000
1000
0000
0010
0000
0100
0000
0000
0001
0000
0000
1000
0000
,
0100
0001
0100
0010
0100
1000
0001
0000
,
2000
0000
3002
0000
1003
0010
0100
0001
,
0010
0000
0000
0011
0000
0000
1100
0000
0000
0000
0001
1000
0001
0000
0100
0000
,
0010
0000
0000
1000
0000
0000
0001
0000
1000
0000
0100
0000
0010
0000
0100
0000
,
1000
0001
0100
0010
0100
0001
0010
0100
,
1000
0000
0000
1000
0000
0000
1000
0000
0001
0000
0000
0001
0000
0000
0001
0000
,
0100
0000
0000
0100
0000
0000
0100
0000
0010
0000
0000
0010
0000
0000
0010
0000
,
1000
0000
0000
0100
0000
0000
0010
0000
0001
0000
0000
1000
0000
0000
0010
0000
,
0100
0000
0000
0001
0000
0000
0010
0000
0001
0000
0000
1000
0000
0000
0100
0000
,
1001
0010
0100
0001
,
0010
0000
0001
1000
0001
0000
0100
0010
,
1000
0001
1000
0010
0100
0001
0010
0000
,
0100
0010
0001
1000
0020
0000
0230
0000
,
0301
1000
0001
0010
0000
0100
1000
0000
,
0001
1000
0010
1000
0000
0100
0010
0000
,
0001
0100
1000
0010
1000
0001
0100
0000
,
0101
0000
0000
0000
1100
0000
0000
0000
0010
0000
0001
0000
0100
0000
0010
1000
,
0010
0100
0001
0000
1000
0010
1000
0001
,
0010
0000
0100
0000
1000
0000
0000
0000
0000
0000
0001
0100
0001
0000
1000
0000
,
0000
0010
1000
0001
0010
0001
0100
0010
,
1000
0000
0100
0000
0001
0000
0000
0000
0010
0000
0001
1000
0001
0000
0000
0000
,
0100
0000
0001
0000
0010
0000
0001
0000
1000
0000
0000
1000
0000
0000
1000
0000
,
0100
0010
0001
0100
0000
0010
1000
0000
,
0100
0000
1000
0000
0010
0000
0100
0000
0001
0000
0000
0001
0000
0000
0001
0000
,
0100
0010
0100
0001
1000
0010
0001
0000
,
2000
0000
3200
0000
1300
0010
0100
0001
,
0010
0000
0000
0011
0000
0000
0101
0000
0000
0000
1000
0100
1000
0000
0001
0000
,
0100
0000
0000
0010
0000
0000
0100
0000
0001
0000
0010
0000
0100
0000
1000
0000
,
0010
0001
0010
1000
0100
0010
0001
1000
,
0220
0000
0000
0000
,
0000
0000
0000
0000
,
0000
0000
0000
0000
,
0330
0000
0000
0000
;

//---------------dance-single - ----------------
#NOTES:
     dance-single:
     :
     Medium:
     10:
     0.474116,0.534347,0.315648,0.270555,0.027056,368.000000,333.000000,35.000000,30.000000,0.000000,0.000000,0.474116,0.534347,0.315648,0.270555,0.027056,368.000000,333.000000,35.000000,30.000000,0.000000,0.000000:
0000
0000
0000
0000
,
0000
0000
0000
0000
,
0000
0000
0000
0000
,
0000
0000
0000
0000
,
1000
0010
1000
0001
,
0010
0100
1000
0000
0001
1000
0100
0000
,
1000
0010
0100
0010
,
0100
0001
1000
0000
0001
0010
0100
0000
,
1000
0000
0001
0000
1000
0000
0100
0010
,
0001
0000
0100
0000
0010
0000
1000
0001
,
1000
0000
0010
0100
0001
0000
0010
0100
,
1000
1100
0110
0011
,
1000
0000
0001
0100
0000
0100
0000
0000
,
1000
0001
0010
0000
0001
0100
1000
0000
,
0010
0000
0100
0000
0010
1000
0001
0000
,
1000
0100
0010
0000
0000
0001
0000
0001
,
0000
0100
0010
0000
1000
0100
1000
0000
,
0001
0100
0010
0000
0000
1000
0000
0001
,
0000
0010
0001
0000
0100
0010
1000
0000
,
0001
2000
0000
0002
0000
0000
3003
0000
,
0010
0001
0100
0000
0010
1000
0001
0000
,
0110
0000
1000
0001
0000
0100
0000
0000
,
0001
0010
0100
0000
1000
0001
0010
0000
,
0011
0101
1010
1100
,
2000
0000
3002
0000
0023
0000
0031
0100
,
0010
0000
0000
1000
0000
0000
0002
0000
0000
0000
0000
0000
0003
0000
0100
0000
,
0010
0000
0000
1000
0000
0000
0001
0000
0100
0000
0000
0000
0001
0000
1000
0000
,
0010
0000
1000
0100
0000
0010
0000
0001
,
0200
0000
0000
0000
,
0020
0030
0002
0003
,
0020
0300
2000
3000
,
2000
0000
3000
0000
0200
0000
0330
0001
,
1000
0010
0100
0001
,
0010
0100
0010
0001
,
1000
0001
0100
0000
0001
0010
1000
0000
,
1001
0110
1010
0101
,
1000
0010
0100
0001
0000
0001
0000
0000
,
0010
0000
0001
1000
0000
0001
0100
0000
,
0010
1000
0100
0000
1000
0001
0100
0000
,
0110
0000
1001
0000
0100
0010
0100
0000
,
0001
0010
1000
0000
0100
0010
0001
0000
,
1000
0001
0100
0000
0000
0101
0000
1100
,
0000
0001
1000
0000
0010
0100
0001
0000
,
1000
0001
0100
0000
0010
1000
0010
0000
,
1000
0100
0010
0000
0001
0100
0001
0000
,
0011
0000
1000
0001
0000
0100
0000
0000
,
0010
1000
0001
0000
0010
0100
1000
0000
,
1001
0101
1010
1100
,
0002
0000
2003
0000
3200
0000
0310
0001
,
0100
0000
0000
0010
0000
0000
2000
0000
0000
0000
0000
0000
3000
0000
0001
0000
,
0100
0000
0000
0010
0000
0000
0100
0000
0001
0000
0000
0000
1000
0000
0001
0000
,
0010
0000
0001
0100
0000
0010
0000
0010
,
2000
0000
0000
0000
,
0002
0003
0200
0300
,
0002
3000
0020
0030
,
0200
0000
0300
0000
0020
0000
0033
1000
,
0001
1000
0100
0010
,
0100
1000
0010
0100
,
0001
0010
0001
0000
1000
0010
1000
0000
,
0110
1010
0101
0011
,
0100
1000
0001
0100
0000
0010
0000
0000
,
1000
0000
0001
0010
0000
0001
0100
0000
,
0010
1000
0001
0000
0010
0100
1000
0000
,
1010
0000
0011
0000
0000
0100
0000
1000
,
0000
0010
0100
0000
0001
1000
0001
0000
,
0010
0001
0100
0000
0000
0101
0000
1100
,
0000
1000
0100
0000
1000
0010
0001
0000
,
0100
0010
1000
0000
0001
0010
0001
0000
,
1000
0100
1000
0000
0100
0010
0001
0000
,
1001
0000
0100
0001
0000
1000
0000
0000
,
0010
1000
0001
0000
1000
0100
0010
0000
,
0011
1001
0110
1010
,
0200
0000
0302
0000
2003
0000
3100
0010
,
0001
0000
0000
1000
0000
0000
0020
0000
0000
0000
0000
0000
0030
0000
0100
0000
,
0010
0000
0000
0100
0000
0000
0001
0000
1000
0000
0000
0000
0100
0000
0010
0000
,
0001
0000
1000
0001
0000
0000
0000
0000
,
0220
0000
0000
0000
,
0000
0000
0000
0000
,
0000
0000
0000
0000
,
0330
0000
0000
0000
;

//---------------dance-single - ----------------
#NOTES:
     dance-single:
     :
     Easy:
     7:
     0.371047,0.427478,0.216444,0.126259,0.000000,288.000000,264.000000,24.000000,14.000000,0.000000,0.000000,0.371047,0.427478,0.216444,0.126259,0.000000,288.000000,264.000000,24.000000,14.000000,0.000000,0.000000:
0000
0000
0000
0000
,
0000
0000
0000
0000
,
0000
0000
0000
0000
,
0000
0000
0000
0000
,
1000
0001
1000
0001
,
0100
0010
0100
0001
,
0010
0100
1000
0010
,
1000
0100
0010
0001
,
0100
0100
0010
0100
,
0010
1000
0100
0001
,
1000
0001
0010
0100
,
1000
1001
0110
1001
,
0010
1000
0100
1000
,
0001
0010
0001
0100
,
0010
1000
0100
0010
,
0001
1000
0001
0010
,
0001
0100
1000
0010
,
0100
0010
0100
0001
,
1000
0100
0010
0001
,
0100
0010
0100
0001
,
0010
0010
0001
1000
,
0001
0100
0001
0100
,
0010
0010
1000
0001
,
0100
0010
1001
0110
,
1000
0100
1000
0010
,
0100
0001
0001
0010
,
0001
1000
0001
0100
,
0010
1000
1000
0000
,
0220
0000
0000
0000
,
0000
0000
0000
0030
,
2000
3000
0002
0003
,
2000
3000
0002
0303
,
1001
0100
0010
0100
,
0001
0001
1000
1000
,
0001
0010
0100
1000
,
0010
1000
1010
0101
,
0001
0010
0001
0100
,
0010
0010
1000
0100
,
1000
0010
0100
0001
,
0110
1001
0100
0001
,
0010
0001
0100
1000
,
0010
0100
0010
1000
,
0001
0010
0001
0100
,
1000
1000
0001
1001
,
0100
0100
0010
0100
,
0001
0010
0001
0100
,
1000
1000
0001
0010
,
0001
1000
1001
0110
,
1000
0100
1000
0010
,
0100
0001
0001
0010
,
0001
0100
0001
0010
,
0100
1000
1000
0000
,
2002
0000
0000
0000
,
0000
0000
0000
0003
,
0200
0300
0020
0030
,
0200
0300
0020
3030
,
1001
0010
0100
0010
,
1000
1000
0001
0001
,
0010
0001
0100
1000
,
0001
0100
0101
1010
,
0010
1000
0001
0010
,
0001
0100
1000
0001
,
0010
0001
0100
0010
,
0110
1001
0010
1000
,
0100
0010
0001
0100
,
1000
0001
1000
0010
,
1000
0100
0010
0001
,
0100
0010
1000
1001
,
0001
0001
1000
1000
,
0001
0010
0001
0100
,
0010
0010
1000
0100
,
1000
0001
0011
1100
,
0010
0100
0010
1000
,
0100
0010
0010
0001
,
0100
0001
0010
0001
,
1000
1000
1000
0000
,
0220
0000
0000
0000
,
0000
0000
0000
0000
,
0000
0000
0000
0000
,
0330
0000
0000
0000
;

//---------------dance-single - ----------------
#NOTES:
     dance-single:
     :
     Beginner:
     4:
     0.191966,0.239892,0.045093,0.000000,0.000000,149.000000,144.000000,5.000000,0.000000,0.000000,0.000000,0.191966,0.239892,0.045093,0.000000,0.000000,149.000000,144.000000,5.000000,0.000000,0.000000,0.000000:
// measure 0
0000
0000
0000
0000
,  // measure 1
0000
0000
0000
0000
,  // measure 2
0000
0000
0000
0000
,  // measure 3
0000
0000
0000
0000
,  // measure 4
1000
0000
1000
0000
,  // measure 5
0001
0000
0001
0000
,  // measure 6
0100
0000
0100
0000
,  // measure 7
0010
0000
0010
0000
,  // measure 8
1000
0000
0100
0000
,  // measure 9
1000
0000
0100
0000
,  // measure 10
0010
0000
0001
0000
,  // measure 11
0010
0000
0001
0000
,  // measure 12
0100
0000
0010
0000
,  // measure 13
0100
0000
0001
0000
,  // measure 14
1000
0000
0001
0000
,  // measure 15
0010
0000
0000
0000
,  // measure 16
0100
0000
1000
0000
,  // measure 17
0010
0000
1000
0000
,  // measure 18
0001
0000
0100
0000
,  // measure 19
0010
0000
0000
0000
,  // measure 20
1000
1000
1000
0000
,  // measure 21
0001
0000
0100
0000
,  // measure 22
0010
0010
0010
0000
,  // measure 23
0100
0100
0100
0000
,  // measure 24
0001
0000
1000
0000
,  // measure 25
0001
0001
0001
0000
,  // measure 26
0010
0000
0001
0000
,  // measure 27
1000
1000
1000
0000
,  // measure 28
0001
0000
0000
0000
,  // measure 29
0000
0000
0000
0000
,  // measure 30
0100
0000
0000
0000
,  // measure 31
0000
0000
0000
0000
,  // measure 32
0010
0000
0010
0000
,  // measure 33
1000
0000
1000
0000
,  // measure 34
0100
0000
0010
0000
,  // measure 35
0001
0000
1000
1000
,  // measure 36
1000
0000
0001
0000
,  // measure 37
0100
0000
0010
0000
,  // measure 38
0100
0000
0001
0000
,  // measure 39
0110
0000
0000
0000
,  // measure 40
1000
0000
0100
0000
,  // measure 41
1000
0000
0010
0000
,  // measure 42
0100
0000
0001
0000
,  // measure 43
1001
0000
0000
0000
,  // measure 44
0100
0100
0100
0000
,  // measure 45
0010
0000
1000
0000
,  // measure 46
0001
0001
0001
0000
,  // measure 47
0010
0010
0010
0000
,  // measure 48
0001
0000
1000
0000
,  // measure 49
0100
0100
0100
0000
,  // measure 50
0010
0000
0001
0000
,  // measure 51
1000
1000
1000
0000
,  // measure 52
0010
0000
0000
0000
,  // measure 53
0000
0000
0000
0000
,  // measure 54
0100
0000
0000
0000
,  // measure 55
0000
0000
0000
0000
,  // measure 56
0010
0000
1000
0000
,  // measure 57
0001
0000
1000
0000
,  // measure 58
0100
0000
0010
0000
,  // measure 59
0100
0000
1000
1000
,  // measure 60
1000
0000
0001
0000
,  // measure 61
0010
0000
0001
0000
,  // measure 62
0100
0000
0010
0000
,  // measure 63
0110
0000
0000
0000
,  // measure 64
1000
0000
0001
0000
,  // measure 65
0010
0000
0001
0000
,  // measure 66
0100
0000
0010
0000
,  // measure 67
1001
0000
0000
0000
,  // measure 68
1000
1000
1000
0000
,  // measure 69
0100
0000
0010
0000
,  // measure 70
0001
0001
0001
0000
,  // measure 71
0010
0010
0010
0000
,  // measure 72
0001
0000
1000
0000
,  // measure 73
0010
0010
0010
0000
,  // measure 74
0100
0000
0001
0000
,  // measure 75
1000
1000
1000
0000
,  // measure 76
0110
0000
0000
0000
;
