#VERSION:0.83;
#TITLE:CELEBRATE NITE;
#SUBTITLE:(25th Anniversary Special);
#ARTIST:N.M.R.;
#TITLETRANSLIT:;
#SUBTITLETRANSLIT:;
#ARTISTTRANSLIT:;
#GENRE:;
#ORIGIN:;
#CREDIT:;
#BANNER:CELEBRATE NITE (25th Anniversary Special)-bn.png;
#BACKGROUND:CELEBRATE NITE (25th Anniversary Special)-bg.png;
#PREVIEWVID:;
#JACKET:CELEBRATE NITE (25th Anniversary Special)-jacket.png;
#CDIMAGE:;
#DISCIMAGE:;
#LYRICSPATH:;
#CDTITLE:;
#MUSIC:CELEBRATE NITE (25th Anniversary Special).ogg;
#OFFSET:0.000000;
#SAMPLESTART:26.639000;
#SAMPLELENGTH:20.000000;
#SELECTABLE:YES;
#DISPLAYBPM:144.000000;
#BPMS:0.000=144.150;
#STOPS:;
#DELAYS:;
#WARPS:;
#TIMESIGNATURES:0.000=4=4;
#TICKCOUNTS:0.000=4;
#COMBOS:0.000=1;
#SPEEDS:0.000=1.000=0.000=0;
#SCROLLS:0.000=1.000;
#FAKES:;
#LABELS:0.000=Song Start;
#BGCHANGES:;
#KEYSOUNDS:;
#ATTACKS:
;

//---------------dance-single - ----------------
#NOTEDATA:;
#CHARTNAME:;
#STEPSTYPE:dance-single;
#DESCRIPTION:;
#CHARTSTYLE:;
#DIFFICULTY:Challenge;
#METER:17;
#RADARVALUES:0.750970,0.804235,0.215540,0.957958,0.730443,439.000000,421.000000,18.000000,80.000000,0.000000,0.000000,0.000000,0.000000,0.000000,0.750970,0.804235,0.215540,0.957958,0.730443,439.000000,421.000000,18.000000,80.000000,0.000000,0.000000,0.000000,0.000000,0.000000;
#CREDIT:;
#DISPLAYBPM:144.000000;
#NOTES:
// measure 0
0000
0000
0000
0000
,  // measure 1
0000
0000
0000
0000
,  // measure 2
0000
0000
0000
0000
,  // measure 3
0000
0000
0000
0000
,  // measure 4
1000
0000
0100
0000
0001
0000
0010
0100
0000
0100
0000
0100
1000
0000
0001
0000
,  // measure 5
0100
0000
0001
0000
0010
0000
1000
0001
0000
0001
0000
0001
0100
0000
0010
0000
,  // measure 6
1000
0000
0100
0000
0001
0000
0010
0100
0000
0100
0000
0100
1000
0000
0001
0000
,  // measure 7
0100
0000
0010
0000
1000
0000
0001
0010
0000
0100
1000
0000
0010
0000
0001
0000
,  // measure 8
0000
0000
0100
0010
0000
1000
0100
0000
1000
0010
0001
0000
0000
0000
0000
0000
,  // measure 9
0100
0001
0010
0000
0100
1000
0001
0000
0010
0001
0010
0100
1000
0001
0100
0000
,  // measure 10
0010
1000
0001
0000
0010
0100
1000
0010
0000
0010
1000
0100
0001
0000
0010
0001
,  // measure 11
0100
0000
0000
0110
0000
0000
0010
1000
0000
0010
1000
0000
0100
0000
0001
0000
,  // measure 12
0020
0000
0130
1000
0001
0000
0000
0000
1000
0000
0010
0100
0001
0000
0010
0100
,  // measure 13
0000
0000
1000
0001
1000
0000
0000
0000
0000
0000
0010
0010
0010
0010
0010
0000
,  // measure 14
0000
0000
1000
0100
0001
0000
0010
0001
0000
0100
1000
0000
0010
0000
1000
0001
,  // measure 15
1000
0010
0001
1000
0100
0001
1000
0010
0001
1000
0100
0000
1002
0000
0000
0000
,  // measure 16
0013
0000
0001
0000
0100
0000
0010
0000
1000
0001
0000
0001
0000
0000
0020
0000
,  // measure 17
0032
0000
0203
0000
2300
0000
3002
0000
0003
0000
1000
0010
0001
0010
1000
0100
,  // measure 18
0010
0000
0001
0000
0100
0000
0010
0000
1000
0001
0000
0001
0000
0000
0010
0000
,  // measure 19
1100
0010
0101
0010
1100
0010
0101
0000
,  // measure 20
2000
0010
3002
0010
2003
0100
3002
0100
,  // measure 21
1003
0000
0010
1000
0000
0001
1000
0000
0000
0000
0001
0100
1000
0100
0001
0010
,  // measure 22
0100
0000
1000
0000
0000
0001
0000
0000
1010
0100
0000
0001
1000
0000
0100
0010
,  // measure 23
0001
0000
0100
0000
0010
0000
1000
0000
0100
0000
0010
0000
0001
0000
1000
0100
,  // measure 24
2000
3020
0230
0320
2030
3200
0320
0230
,  // measure 25
0302
0203
0320
0230
0302
0203
2300
3020
,  // measure 26
0230
0320
2030
3020
0032
0023
2030
3200
,  // measure 27
0320
0000
2030
0000
3020
0000
0032
0000
1003
0100
0001
0010
2000
0000
0000
0000
,  // measure 28
3002
0203
0320
0230
2300
3200
0320
0230
,  // measure 29
2300
3200
0302
0023
2030
3020
0230
0320
,  // measure 30
0230
2300
3020
0230
2300
3200
0302
0023
,  // measure 31
0230
0000
0320
0000
0032
0000
2003
0000
3010
1000
0100
0010
0001
0000
0000
0000
,  // measure 32
1001
0000
0100
0010
0000
1000
0100
0000
1000
0010
0001
0000
0000
0000
0000
0000
,  // measure 33
0100
0001
0010
0000
0100
1000
0001
0000
1000
0010
0100
0010
1000
0001
0100
0000
,  // measure 34
0001
0010
0100
0000
1000
0010
1000
0001
0000
0010
0001
0100
1000
0000
0010
1000
,  // measure 35
0001
0000
0000
0101
0000
0000
0010
1000
0000
0010
1000
0000
0100
0000
0001
0000
,  // measure 36
0020
0000
0130
1000
0001
0000
0000
0000
0100
0000
0010
1000
0001
0000
1000
0100
,  // measure 37
0000
0000
0010
0001
0010
0000
0000
0000
0000
0000
0100
0100
0100
0100
0100
0000
,  // measure 38
0000
1000
0010
0100
0001
0000
0010
0100
0000
1000
0001
0000
0100
0000
0001
1000
,  // measure 39
0001
0010
1000
0001
0100
1000
0001
0010
1000
0001
0100
0000
1002
0000
0000
0000
,  // measure 40
0103
0000
0001
0000
0010
0000
1000
0000
0100
0010
0000
0010
0000
0000
0002
0000
,  // measure 41
0203
0000
2300
0000
3020
0000
0230
0000
0300
0000
1000
0010
0001
0010
1000
0100
,  // measure 42
0010
0000
0001
0000
0100
0000
1000
0010
0000
0010
0100
0000
0000
0000
0001
0000
,  // measure 43
0011
0100
1010
0100
0011
0100
1010
0000
,  // measure 44
0001
0000
0010
0000
0100
0000
1000
0000
0000
1100
0000
0000
0101
0000
1000
0000
,  // measure 45
1100
0000
0010
0001
0000
0001
0100
0000
0000
0000
0001
0010
1000
0010
0001
0100
,  // measure 46
0010
0000
1000
0000
0000
0100
0000
0000
0011
1000
0000
0001
0100
0000
0010
1000
,  // measure 47
0001
0000
0010
0100
1000
0000
0010
1000
0001
0000
1000
0100
0001
0000
0010
0001
,  // measure 48
0200
0000
0320
0000
2030
0000
3100
0010
0000
0010
0001
0000
1000
0010
0001
0100
,  // measure 49
2000
0002
0000
0000
0000
0000
3003
0000
;
