#TITLE:CAT'S EYE (Ventura Mix);
#ARTIST:E-ROTIC;
#BANNER:CAT'S EYE (Ventura Mix).png;
#BACKGROUND:CAT'S EYE (Ventura Mix)-bg.png;
#JACKET:CAT'S EYE (Ventura Mix)-jacket.png;
#MUSIC:CAT'S EYE (Ventura Mix).ogg;
#SAMPLESTART:46.663;
#SAMPLELENGTH:20;
#DISPLAYBPM:159;
#BPMS:0=158.799;
#BGCHANGES:;

//---------------dance-single - ----------------
#NOTES:
     dance-single:
     :
     Beginner:
     2:
     :
0000
0000
0000
0000
,
0000
0000
0000
0000
,
0000
0000
0000
0000
,
0020
0000
0030
0000
,
0200
0000
0300
0000
,
0001
0000
0001
0000
,
1000
0000
1000
0000
,
0010
0000
1000
0000
,
0001
0000
0000
0000
,
0010
0000
0010
0000
,
0100
0000
0100
0000
,
1000
0000
0001
0000
,
0100
0000
0000
0000
,
0000
0000
0010
0000
,
1000
0000
0001
0000
,
0000
0000
0010
0000
,
0100
0000
1000
0000
,
0000
0000
0001
0000
,
1000
0000
0100
0000
,
0000
0000
0010
0000
,
0001
0000
0100
0000
,
1001
0000
0000
0000
,
0020
0000
0030
0000
,
2000
0000
3000
0000
,
0002
0000
0003
0000
,
0110
0000
1001
0000
,
0200
0000
0300
0000
,
0020
0000
0030
0000
,
1000
0000
0010
0000
,
0200
0000
0300
0000
,
0001
0001
0001
0000
,
0010
0000
0010
0000
,
0001
0000
0001
0000
,
1000
0000
0001
0000
,
0200
0000
0300
0000
,
0010
0000
0100
0000
,
0010
0000
1000
0000
,
0001
0000
0001
0000
,
1000
0000
0010
0000
,
0200
0000
0000
0000
,
0300
0000
0110
0000
,
0001
0000
0001
0000
,
1000
0000
1000
0000
,
0001
0000
0100
0000
,
0020
0000
0030
0000
,
1000
0000
1000
0000
,
0001
0000
0010
0000
,
0001
0000
0100
0000
,
0010
0000
1000
0000
,
0200
0000
0000
0000
,
0300
0000
1001
0000
,
0110
0000
0000
0000
,
1000
0000
0001
0000
,
0010
0000
0001
0000
,
0100
0000
0000
0000
,
0010
0000
0010
0000
,
1000
0000
1000
0000
,
0001
0000
1000
0000
,
1001
0000
0000
0000
,
0110
0000
0000
0000
;

//---------------dance-single - ----------------
#NOTES:
     dance-single:
     :
     Easy:
     5:
     :
0000
0000
0000
0000
,
0000
0000
0000
0000
,
0000
0000
0000
0000
,
0000
0000
0000
0000
,
0000
0000
0000
0000
,
1000
1000
0100
1000
,
0001
0001
0100
0001
,
1000
0000
0100
0000
,
0010
0010
0001
0000
,
1000
1000
0100
1000
,
0001
0001
0100
0001
,
1000
0000
0010
0000
,
1001
0000
0000
0000
,
0010
0100
0010
0100
,
0000
0001
0100
0000
,
0000
1000
0100
0000
,
0000
0001
1000
0000
,
0000
0010
0100
0010
,
0000
1000
0100
0000
,
0000
0010
0001
0000
,
1000
1000
0100
0000
,
1001
0000
0000
0000
,
0010
0000
0000
0100
,
0010
0000
0000
0100
,
0010
0000
0000
1000
,
0100
0000
0000
0010
,
0001
0000
0000
1000
,
0001
0000
0000
1000
,
0001
0000
0010
0000
,
0100
0000
0000
0000
,
1001
0000
0110
0000
,
0001
1000
0100
0000
,
0010
0001
1000
0000
,
0010
0000
0100
0000
,
1001
0000
1001
0000
,
0010
0100
1000
0000
,
0001
0100
0010
0000
,
1000
0000
0001
0000
,
0010
0000
0000
0000
,
0100
0000
0000
0000
,
1001
0000
0000
0000
,
0010
0000
0100
0000
,
1000
0010
0100
0000
,
0001
0000
1000
0000
,
0100
0010
0001
0000
,
1000
0000
0100
0000
,
0001
0100
0010
0000
,
1000
0000
0001
0000
,
1001
0000
0000
0000
,
0110
0000
0000
0000
,
1001
0000
0000
0000
,
1000
1000
0100
0010
,
0001
0001
0100
0010
,
1000
0000
0001
0000
,
0100
0010
0100
0000
,
0001
0001
1000
0100
,
1000
1000
0001
0100
,
0010
0000
1000
0000
,
1001
0000
0000
0000
;

//---------------dance-single - ----------------
#NOTES:
     dance-single:
     :
     Medium:
     8:
     :
0000
0000
0000
0000
,
0000
0000
0000
0000
,
0000
0000
0000
0000
,
0000
0000
0000
0000
,
0000
0000
0000
0000
,
1000
0000
1000
0000
0100
0010
0100
0000
,
1000
0000
1000
0000
0001
0100
0001
0000
,
0010
0010
0100
0100
,
1000
0000
0001
0100
0010
0000
0000
0000
,
1000
0000
1000
0000
0100
0010
0001
0000
,
0100
0000
0100
0000
0010
1000
0001
0000
,
0010
0100
0010
0000
0001
1000
0001
0000
,
0100
0000
0100
0000
0010
1000
0100
0000
,
0010
0000
0001
0100
0001
0000
0010
0000
,
0100
0000
1000
0001
1000
0000
0100
0000
,
0010
0000
0001
1000
0001
0000
0100
0000
,
0010
1000
0100
0000
,
0001
0000
1000
0100
0010
0000
0001
0000
,
0100
0000
0010
1000
0001
0000
0100
0000
,
1000
0000
0100
0010
0001
0000
1000
0000
,
0100
0100
0010
0000
,
1001
0110
1001
1001
,
0010
0100
0010
0100
0000
0000
1001
0000
,
0010
0100
0001
1000
0000
0000
0110
0000
,
0001
0100
0010
0000
1000
0100
0010
0000
,
0101
1001
1100
0000
,
0010
0001
0100
0010
0000
0000
1001
0000
,
0100
0010
0001
1000
0000
0000
0110
0000
,
1000
0001
0100
0000
0010
1000
0001
0000
,
0110
0000
0000
0000
,
0011
1100
0110
0000
,
1000
0000
1000
0000
0001
0100
0000
0000
,
0010
0000
0010
0000
1000
0100
0000
0000
,
0010
0001
0100
0000
0010
1000
0100
0010
,
0000
0000
0000
1001
0000
0000
0000
0000
,
0010
0000
0010
0000
0100
0001
0000
0000
,
0010
0000
0010
0000
0100
1000
0000
0000
,
0001
0100
0010
0000
1000
0100
0010
0001
,
0000
0000
0000
0000
1000
1000
0000
1001
,
0000
0000
0000
0000
,
0110
0000
0000
0000
0001
1000
0000
0000
,
0010
0000
0100
0000
0001
0010
0000
0000
,
0100
0000
1000
0000
0001
0100
0000
0000
,
0010
1000
0001
0000
0010
0100
1000
0001
,
0000
0000
0000
0110
0000
0000
0000
0000
,
0001
0100
0010
0000
1000
0100
0000
0000
,
0010
0001
1000
0000
0100
0010
0000
0000
,
0001
0100
0001
0000
1000
0100
0010
0001
,
0000
0000
0000
0000
1000
0100
0000
0101
,
0000
0000
0000
0000
,
1100
0000
0000
0000
0010
0001
0000
0100
,
0010
0000
1000
0000
0100
0010
0001
0000
,
1000
0000
0010
0000
0100
0001
0010
0000
,
0100
0001
0100
0000
1000
0010
1000
0000
,
0001
0000
0001
0000
0010
0100
1000
0000
,
0001
0000
0100
0000
0010
1000
0100
0000
,
0010
0000
0001
0000
1000
0100
0010
0000
,
0001
0100
1000
0000
0100
0001
0010
0000
,
1100
0000
0000
0000
,
0101
0000
0000
0000
;

//---------------dance-single - ----------------
#NOTES:
     dance-single:
     :
     Hard:
     13:
     :
0000
0000
0000
0000
,
0000
0000
0000
0000
,
0000
0000
0000
0000
,
1000
0100
0010
0001
1000
0100
0010
0001
,
1000
0100
0010
0001
0100
0010
1000
0001
,
1000
0100
0000
0000
1000
0100
0000
0000
0010
0000
0001
0000
0100
0000
0000
0000
,
0010
1000
0000
0000
0010
1000
0000
0000
0001
0000
0010
0000
0100
0000
0000
0000
,
1000
0001
0000
1000
0001
0000
0000
0000
0010
0100
0000
0010
0100
0000
0000
0000
,
1000
0010
0100
0000
1000
0001
0110
0000
,
0001
0010
0000
0000
0001
0010
0000
0000
0100
0000
1000
0000
0001
0000
0000
0000
,
0100
0010
0000
0000
0100
0010
0000
0000
1000
0000
0001
0000
0010
0000
0000
0000
,
0100
1000
0000
0100
0010
0000
0000
0000
0001
0100
0000
0001
0010
0000
0000
0000
,
0100
0000
0100
0000
0100
0000
1000
0100
0000
0010
0000
0001
0010
0000
0000
0000
,
0100
1000
0001
0100
0010
1000
0001
0000
,
0010
1000
0001
0010
0100
1000
0001
0000
,
0100
0010
0001
0100
0010
1000
0100
0000
,
0001
0100
0010
1000
0000
0001
0000
0001
,
0010
0100
1000
0001
0100
0010
1000
0000
,
0100
0001
0010
0100
1000
0001
0100
0000
,
1000
0100
0010
0001
0100
0010
1000
0000
,
0100
0001
0010
0100
0000
0000
0000
0000
,
0000
0000
1000
0000
0001
0100
0000
0000
1000
0000
0001
0100
0000
0000
1000
0000
,
0010
0000
0100
0001
0000
1000
0100
0000
,
0010
0001
1000
0100
0000
0010
0001
0000
,
1000
0010
0100
0001
0000
1000
0100
0000
,
0010
0001
1000
0010
0000
0100
0001
0100
,
0010
0000
1000
0001
0000
0010
0100
0000
,
1000
0010
0100
0001
0000
0010
0100
0000
,
1010
0000
0101
0000
,
0010
0100
1000
0001
0100
0010
1000
0000
,
0001
0000
0000
0001
0000
0000
0010
0100
1000
0000
0000
0000
0000
0000
0000
0000
,
0001
0000
0000
1000
0000
0000
0001
0000
0000
0000
0100
0010
1000
0000
0000
0000
,
0001
0000
0000
0010
0000
0000
0100
0000
0000
0000
1000
0010
0100
0000
0000
0000
,
0001
0000
0000
0001
0000
0000
0001
0000
1000
0000
0000
1000
0000
0000
1000
0000
,
0100
0010
0001
0100
0010
1001
0000
0000
,
0100
0000
0000
0010
0000
0000
0001
0000
0000
0000
0100
0010
1000
0000
0000
0000
,
0001
0000
0000
0100
0000
0000
0100
0000
0000
0000
0010
1000
0100
0000
0000
0000
,
0010
0000
0000
0001
0000
0000
1000
0000
0010
0000
0000
0100
0000
0000
0001
0000
,
1000
0100
1001
0000
0100
0100
0000
0100
,
0000
0000
0000
0000
,
0110
0000
0000
0000
,
0001
0000
1000
0000
0100
0010
0000
0000
0001
0000
0001
0000
0001
0000
0000
0000
,
0100
0000
0010
0000
1000
0100
0000
0000
0010
0000
0010
0000
0010
0000
0000
0000
,
0001
0000
0100
0000
0010
1000
0000
0000
0001
0000
0100
0000
0010
1000
0000
0000
,
0100
0010
0001
0100
1001
0000
0000
0000
,
1000
0000
1000
0000
1000
0000
0000
0000
0001
0100
0010
0000
0000
0000
0000
0000
,
1000
0000
1000
0000
0100
0000
0000
0000
0010
0001
0100
0000
0000
0000
0000
0000
,
0010
1000
0100
0010
0001
1000
0100
0010
,
0000
0010
0010
0000
1001
0110
0000
1001
,
0000
0000
0000
0000
0000
0000
0000
0000
0000
0000
0000
0000
0000
0000
0100
0010
,
0100
0000
0000
0000
1000
0100
0000
0011
,
0000
0000
0000
0000
,
1000
0000
0100
0000
0010
0000
0001
0100
0000
0010
0000
0010
1000
0000
0000
0000
,
0001
0100
0010
0000
1000
0100
0010
0000
,
0001
0000
0001
0000
0001
0000
1000
0100
0000
0000
0000
0000
0000
0000
0000
0000
,
0010
0000
0001
0000
0100
0000
0010
1000
0000
0001
0000
0010
0100
0000
0000
0000
,
1000
0000
0001
0000
0001
0000
0100
0010
0000
1000
0000
0100
0010
0000
0000
0000
,
0001
0100
1000
0000
0001
1000
0100
0000
,
0101
0000
0000
0000
1000
0100
0010
0001
,
0110
0000
0000
0000
;

//---------------dance-single - ----------------
#NOTES:
     dance-single:
     :
     Challenge:
     16:
     :
0000
0000
0000
0000
,
0000
0000
0000
0000
,
0000
0000
0000
0000
,
0011
0000
0100
0000
1000
0000
0001
0000
0100
0000
1010
0000
0000
0101
0000
0000
,
1001
0010
1000
0100
0001
0100
1000
0001
,
0100
0010
1000
0000
0100
0010
0000
0001
0000
0100
0000
0010
1000
0001
0100
0000
,
0001
0010
0100
0000
1000
0010
0000
0100
0000
0001
0000
0010
0001
1000
0001
0100
,
0010
0000
1000
0100
1000
0100
0010
0001
0000
0001
0000
0100
0001
1000
0010
0000
,
0100
0000
0001
0000
0010
0001
0010
0100
0000
0100
0000
1000
0010
1000
0001
1000
,
0010
0000
0100
0000
0001
0010
0000
0001
0000
1000
0000
0010
1000
0100
0010
0001
,
0100
0010
1000
0000
0100
1000
0000
0001
0000
0010
0000
0001
1000
0010
0100
0001
,
0010
0000
0100
0000
1000
0010
1000
0010
0000
0100
0000
0001
0010
0001
0010
0100
,
1000
0000
0001
0100
0010
0100
0001
1000
0000
1000
0000
0001
1000
0000
0010
0000
,
0110
0000
0001
0100
1000
0010
1000
0010
,
1000
0100
0001
0010
0100
0010
0001
0100
,
0001
0010
1000
0001
1000
0010
0001
0100
,
0010
0001
0100
1000
0000
1100
0000
0101
,
0000
1001
0010
1000
0001
0010
0001
0100
,
0001
0010
1000
0001
1000
0100
0001
0010
,
0100
0010
0001
0100
1000
0001
0100
0001
,
0010
1000
0001
0010
0001
0100
1000
0010
,
0100
0000
0001
0000
0001
1000
0000
0010
0000
0010
0000
0010
1000
0000
0001
0000
,
0011
0100
1000
0010
0100
1010
0000
0000
,
0101
0010
0001
0100
1000
0011
0000
0000
,
0110
0001
0100
1000
0010
0100
0001
1000
,
1100
0001
0100
1010
0000
0010
1000
0001
,
1100
0010
0001
1000
0100
1010
0000
0000
,
1001
0010
1000
0100
0001
1010
0000
0000
,
0101
0010
0001
0100
0010
1000
0100
0001
,
0110
1000
0010
0100
1000
0100
0001
0010
,
1100
0000
0000
0011
0000
0000
0100
0001
1000
0000
0010
0000
0100
0000
1001
0000
,
0010
0000
1000
0000
0100
0000
0001
0000
0100
1000
0001
0000
0100
0000
0010
1000
,
0001
0000
0010
0000
1000
0000
0010
0000
0001
0100
0010
0000
1000
0000
0100
1000
,
0001
0000
0010
0000
1000
0000
0001
0000
0100
0000
0010
0000
0100
0000
0001
1000
,
0010
0000
1000
0100
0001
0000
0010
0000
1000
0100
0010
0001
0010
0100
1000
0000
,
0100
0000
0010
0000
1000
0000
0001
0000
0010
0100
1000
0000
0001
0000
0100
0010
,
1000
0000
0010
0000
0001
0000
1000
0000
0010
0001
0100
0000
0010
0000
1000
0100
,
0001
0010
1000
0100
1000
0001
0010
0100
,
1000
0000
0010
0100
0001
0000
0000
0000
0011
0000
1100
0000
0000
0000
1010
0000
,
0101
0000
0000
0000
1000
0010
1000
0010
0100
0001
0100
0001
1000
0010
0100
0001
,
0020
0000
0000
0001
0031
0100
0010
1000
,
0100
0000
0001
0000
0100
0000
0010
0000
0001
0100
0010
0000
1000
0000
0001
1000
,
0100
0000
0010
0000
0001
0000
0100
0000
1000
0010
0100
0000
0001
0000
0010
0100
,
1000
0000
0001
0000
0010
0000
0001
0000
0010
0100
1000
0000
0010
0000
0100
0001
,
1000
0000
0001
0010
0100
0000
1000
0000
0001
0010
0100
1000
0100
0010
0001
0000
,
0100
0000
0010
0000
1000
0000
0100
0000
0001
1000
0010
0000
0100
0000
0001
0010
,
0100
0000
1000
0000
0001
0000
0100
0000
0001
0010
0100
0000
1000
0000
0001
1000
,
0100
0010
0001
0100
1000
0010
1000
0001
,
0100
0010
1000
0001
0100
0000
0000
0000
1010
0000
0101
0000
0000
0000
0011
0000
,
1100
0000
0000
0000
0001
0100
0001
0100
0010
1000
0010
1000
0001
0100
0010
1000
,
0200
0000
0000
1000
1300
0001
0100
0010
,
1000
0001
0010
0000
0001
0100
0000
0010
0000
1000
0100
0000
0010
0001
0100
0001
,
1000
0010
0100
0000
0010
1000
0001
1000
0000
0100
0000
0100
0010
0001
0100
0001
,
1000
0000
0010
0000
0100
0001
0100
0010
0000
1000
0000
1000
0100
1000
0001
0100
,
0010
0000
1000
0000
0100
0010
0001
0100
0000
0001
0000
0001
1000
0010
1000
0100
,
0010
0001
1000
0000
0010
0100
0000
0010
0000
1000
0000
0001
0010
0001
1000
0100
,
1000
0010
0100
0000
0001
1000
0000
0001
0000
0100
0000
0010
1000
0100
1000
0001
,
0010
0000
0100
1000
0001
0100
0010
1000
0000
0001
0000
1000
0010
0100
0001
1000
,
0200
0000
0320
0000
0032
0000
2003
0000
3010
1000
0001
0100
0010
1000
0001
0100
,
0010
0000
0000
0000
;

//---------------dance-double - ----------------
#NOTES:
     dance-double:
     :
     Easy:
     7:
     :
00000000
00000000
00000000
00000000
,
00000000
00000000
00000000
00000000
,
00000000
00000000
00000000
00000000
,
00000000
00000000
00000000
00000000
,
00000000
00000000
00000000
00000000
,
10000000
00010000
01000000
00001000
,
00010000
00000010
00000001
00001000
,
00000100
00010000
00001000
00100000
,
10000000
00010000
00010000
00010000
,
00100000
00001000
00010000
00100000
,
00001000
00000010
00000001
00000010
,
00001000
00000100
00010000
00001000
,
00100000
00000000
00000000
10010000
,
01000000
00001000
00010000
00001000
,
00000010
00000001
00000100
00000000
,
00000010
00010000
00001000
00010000
,
01000000
10000000
00100000
00000000
,
01000000
00001000
00010000
00000010
,
00001000
00000100
00010000
00000000
,
00100000
00001000
00000010
00000001
,
00001000
00000100
00010000
00000000
,
00001000
00001000
00010000
00010000
,
00100000
00100000
00100000
00000000
,
01000000
01000000
01000000
00000000
,
00010000
00001000
00000100
00000000
,
00000010
00001000
00000100
00000000
,
00010000
00001000
00000010
00000000
,
00001000
00010000
00100000
00000000
,
10000000
10000000
00010000
00010000
,
00000010
00000001
00001000
00000000
,
00000100
00010000
00001000
00000000
,
00100000
00100000
00001000
00000100
,
00010000
00010000
00001000
00100000
,
10000000
10000000
00010000
00010000
,
01000000
00001000
00010000
00000000
,
00000010
00000010
00010000
01000000
,
00001000
00001000
00010000
00000010
,
00000001
00000001
00001000
00001000
,
00000100
00000000
00010000
00001000
,
00100000
00000000
00000000
00000000
,
10010000
00000000
00100000
01000000
,
10000000
10000000
00010000
00100000
,
00001000
00001000
00000010
00000001
,
00001000
00000100
00000001
00000100
,
00000010
00001000
00000100
00000000
,
00010000
00010000
01000000
10000000
,
00010000
00000010
00000001
00001000
,
00000100
00000100
00010000
00001000
,
00100000
00000000
00010000
10000000
,
01100000
00000000
00000000
00000000
,
00011000
00000000
00000010
00000001
,
00001000
00001000
00000100
00010000
,
00100000
00100000
00001000
00000010
,
00000001
00001000
00000100
00000010
,
00000001
00000001
00001000
00000100
,
00010000
00010000
00001000
00100000
,
10000000
00010000
01000000
00001000
,
00010000
00000010
00000100
00000001
,
00001000
00000000
00000000
00000000
,
00011000
00000000
00000000
00000000
;

//---------------dance-double - ----------------
#NOTES:
     dance-double:
     :
     Medium:
     10:
     :
00000000
00000000
00000000
00000000
,
00000000
00000000
00000000
00000000
,
00000000
00000000
00000000
00000000
,
00000000
00000000
00000000
00000000
,
00000000
00000000
00000000
00000000
,
10000000
00000000
01000000
00000000
00010000
00000000
01000000
00100000
,
00000000
00100000
00001000
00000000
00000100
00000000
00000001
00000000
,
00000010
00000100
00001000
00000000
00000010
00000100
00000001
00000000
,
00001000
00000000
00000100
00000000
00010000
00001000
00010000
00000000
,
00000010
00000000
00000100
00000000
00001000
00000000
00000100
00010000
,
00000000
00010000
00000100
00000000
00000010
00000000
00001000
00000000
,
00100000
00010000
01000000
00000000
00100000
10000000
01000000
00000000
,
10010000
00000000
00000000
00000000
,
00100000
00000000
00001000
00010000
00000000
00000000
00011000
00000000
,
00000100
00001000
01000000
00010000
00000000
00000000
00011000
00000000
,
00000010
00000000
00010000
00001000
00000000
00000000
00011000
00000000
,
01000000
00010000
00000100
00000000
00001001
00000000
00000000
00000000
,
00000010
00000000
00000100
00010000
00000000
00000000
00011000
00000000
,
00100000
10000000
00100000
00010000
00000000
00000000
10010000
00000000
,
00100000
00000000
01000000
00001000
00000000
00000000
00011000
00000000
,
00000010
00000001
00000010
00000000
00001001
00000000
00000000
00000000
,
00011000
00000000
00100000
00010000
00000000
01000000
00100000
10000000
,
00010000
00000000
00010000
00000100
00000000
00001001
00000000
00000000
,
00000100
00000000
00000100
00000010
00000000
00001001
00000000
00000000
,
00000100
00010000
00001000
00100000
,
00010000
10000000
00100000
01000000
00000000
00000000
00000000
00000000
,
00010000
00000000
00010000
00000100
00000000
00001001
00000000
00000000
,
00000010
00000000
00000010
00000100
00000000
00001001
00000000
00000000
,
00000100
00001000
00000100
00000000
00010000
00001000
00010000
00000000
,
00100000
10000000
00010000
00000000
,
00000100
00000000
00000000
00000001
00000000
00000000
00001000
00000000
00000100
00000000
00000000
00000000
00000000
00000000
00011000
00000000
,
00000000
00000000
00000000
00100000
10000000
00100000
00000000
10010000
,
00000000
00000000
00000000
01000000
00001000
00000010
00000000
00001001
,
00000000
00000000
00000000
00000010
00000100
00000010
00000000
00000000
,
00001000
00000100
00010000
00000000
00001000
01000000
00100000
10010000
,
00000000
00000000
00000000
01000000
00010000
00000100
00000000
00001001
,
00000000
00000000
00000000
00000100
00000010
00001000
00000000
00011000
,
00000000
00000000
00000000
00100000
10000000
01000000
00000000
00000000
,
00100000
00000000
00001000
00000000
00010000
00000100
00000000
00000100
,
00000000
00000000
00000000
00000000
,
00001001
00000000
00000000
00000000
00000000
00000000
00000000
00000000
00000010
00000000
00000000
00000100
00000000
00000000
00000100
00000000
,
00010000
00000000
00001000
00000000
00100000
00010000
00000000
10000000
,
00000000
10000000
00100000
00000000
01000000
00010000
00000000
00000010
,
00000000
00000010
00000001
00000000
00001000
00000100
00000010
00000001
,
00000000
00000001
00000100
00000010
00000000
00000010
00001000
00000000
,
00100000
00000000
10000000
00000000
00010000
00000100
00000000
00000001
,
00000000
00000001
00000010
00000000
00000100
00010000
00000000
00001000
,
00000000
00001000
00100000
00000000
00010000
01000000
00001000
00010000
,
00000000
00000100
00000100
00000000
00000010
00000001
00000000
00000001
,
00000000
00000000
00000000
00000000
,
00001100
00000000
00000000
00000000
00000000
00000000
00000000
00000000
00010000
00000000
00000000
00100000
00000000
00000000
10000000
00000000
,
01000000
00000000
01000000
00000000
00100000
00010000
01000000
00000000
,
00001000
00000000
00001000
00010000
00000000
00000010
00000100
00000000
,
00001000
00010000
01000000
00000000
10000000
00100000
01000000
00000000
,
00001000
00000000
00010000
00001000
00010000
00000000
00000000
00000000
,
00000010
00000000
00000010
00000000
00000100
00000001
00000010
00000000
,
00000100
00001000
00000010
00010000
00000000
00001000
00001000
00000000
,
00100000
10000000
00100000
00000000
00010000
01000000
00010000
00000000
,
10010000
00000000
00000000
00000000
,
00011000
00000000
00000000
00000000
;

//---------------dance-double - ----------------
#NOTES:
     dance-double:
     :
     Hard:
     13:
     :
00000000
00000000
00000000
00000000
,
00000000
00000000
00000000
00000000
,
00000000
00000000
00000000
00000000
,
00000000
00000000
00000000
00000000
,
00000000
00000000
00000000
00000000
,
10000000
01000000
00000000
00000000
00010000
00000000
00000000
00000000
00001000
00000000
00000000
00000000
00000010
00000000
00000000
00000000
,
00000001
00000100
00000000
00000000
00001000
00000000
00000000
00000000
00010000
00000000
00000000
00000000
01000000
00000000
00000000
00000000
,
10000000
00100000
00000000
00000000
01000000
00000000
00000000
00000000
00001000
00010000
00000000
00000000
01000000
00000000
00000000
00000000
,
10000000
00100000
01000000
00001000
00010000
00000000
00000000
00000000
,
00000010
00001000
00000000
00000000
00000001
00000000
00000000
00000000
00000100
00000000
00000000
00000000
00000010
00000000
00000000
00000000
,
00010000
00001000
00000000
00000000
00000010
00000000
00000000
00000000
00000001
00000000
00000000
00000000
00000100
00000000
00000000
00000000
,
00000010
00001000
00000000
00000000
00000100
00000000
00000000
00000000
00010000
00001000
00000000
00000000
00100000
00000000
00000000
00000000
,
01000000
10000000
00010000
01000000
00001000
00000010
00000001
00000000
,
00000100
00001000
00000100
00000001
00001000
00000100
00010000
00001000
,
00000100
00000001
00001000
00000100
00010000
00000000
00000000
00000000
,
00001000
00100000
00010000
10000000
00100000
00010000
00001000
00100000
,
10000000
00100000
00010000
10000000
00100000
00000000
00000000
00000000
,
01000000
00001000
00010000
00000010
00001000
01000000
00010000
00001000
,
01000000
00010000
00001000
00000010
00010000
00000000
00000000
00000000
,
00000001
00001000
00000100
00010000
00001000
00000010
00000001
00001000
,
00000100
00010000
00001000
00100000
00000000
00000000
00000000
00000000
,
01000000
00000000
01000000
00000000
00010000
00001000
00000100
00000001
,
00001000
00000010
00000000
00000000
00000000
00000000
00010000
00001000
00000000
00000000
00000000
00000000
00000000
00000000
00000000
00000000
,
01000000
00010000
00000000
00000000
00000000
00000000
10000000
00100000
00000000
00000000
00000000
00000000
00000000
00000000
00000000
00000000
,
01000000
00010000
00100000
01000000
00010000
00001000
00000100
00000000
,
00010000
01000000
10000000
00100000
01000000
00001000
00010000
00000000
,
00100000
10000000
00000000
00000000
00000000
00000000
00010000
01000000
00000000
00000000
00000000
00000000
00000000
00000000
00000000
00000000
,
00001000
00010000
00000000
00000000
00000000
00000000
00000010
00001000
00000000
00000000
00000000
00000000
00000000
00000000
00000000
00000000
,
00000001
00000010
00001000
00010000
00000010
00000001
00000010
00001000
,
00000100
00000010
00001000
00010000
00100000
00000000
00000000
00000000
,
10000000
00000000
00000000
10000000
00000000
00000000
00010000
01000000
00010000
00000000
00000000
00000000
00000000
00000000
00000000
00000000
,
00001000
00010000
00000000
00000000
00000010
00001000
00000000
00000000
00000001
00000100
00000000
00000000
00000000
00000000
00000000
00000000
,
00001000
00000010
00000000
00000000
00010000
00001000
00000000
00000000
01000000
00010000
00000000
00000000
00000000
00000000
00000000
00000000
,
10000000
01000000
00100000
00010000
01000000
00100000
10000000
00000000
,
01000000
00010000
00000000
00000000
00000000
00000000
00001000
00000010
00000000
00000000
00000000
00000000
00000000
00000000
00000000
00000000
,
00000001
00000100
00000000
00000000
00000010
00001000
00000000
00000000
00000100
00000001
00000000
00000000
00000000
00000000
00000000
00000000
,
00001000
00000010
00000000
00000000
00010000
00001000
00000000
00000000
01000000
00010000
00000000
00000000
00000000
00000000
00000000
00000000
,
10000000
01000000
00010000
01000000
10000000
00100000
01000000
00000000
,
00001000
00010000
00000000
00000000
00000000
00000000
00000000
00000000
00000010
00000000
00000000
00001000
00000000
00000000
00000001
00000000
,
00000000
00000000
00000000
00000000
,
00011000
00000000
00000000
00000000
00000000
00000000
00000000
00000000
00000010
00000000
00000000
00001000
00000000
00000000
00000001
00000000
,
00000010
00000100
00001000
00010000
00001000
00000100
00000000
00000000
,
00000001
00000100
00001000
00010000
00001000
00000100
00000000
00000000
,
00010000
00001000
00000000
00000000
00100000
00010000
00000000
00000000
10000000
01000000
00000000
00000000
00100000
00010000
00000000
00000000
,
01000000
00001000
00000000
00000000
00000000
00000000
00010000
00000010
00000000
00000000
00000000
00000000
00000000
00000000
00000000
00000000
,
00001000
00000100
00010000
00001000
00000100
00000001
00000000
00000000
,
00001000
00000100
00010000
01000000
10000000
00010000
00000000
00000000
,
01000000
00001000
00000000
00000000
00010000
00000010
00000000
00000000
00001000
00000001
00000000
00000000
00000010
00000100
00000000
00000000
,
00000001
00001000
00000000
00000000
00000000
00000000
00000000
00000000
00000100
00000000
00000000
00010000
00000000
00000000
00001000
00000000
,
00000000
00000000
00000000
00000000
,
10010000
00000000
00000000
00000000
00000000
00000000
00000000
00000000
00100000
00000000
00000000
01000000
00000000
00000000
00010000
00000000
,
10000000
01000000
00000000
00000000
00100000
00010000
00000000
00000000
01000000
00000000
00001000
00000000
00010000
00000000
00000000
00000000
,
00000010
00001000
00000000
00000000
00000001
00000100
00000000
00000000
00000010
00000000
00001000
00000000
00000100
00000000
00000000
00000000
,
00010000
00001000
00010000
00000000
00000000
00000000
00000000
00000000
10000000
00010000
10000000
00000000
00000000
00000000
00000000
00000000
,
00100000
01000000
00010000
00100000
00001000
00000000
00000000
00000000
,
01000000
00010000
00000000
00000000
00100000
01000000
00000000
00000000
10000000
00000000
00010000
00000000
01000000
00000000
00000000
00000000
,
00001000
00010000
00000000
00000000
00000010
00001000
00000000
00000000
00000001
00000000
00000010
00000000
00000100
00000000
00000000
00000000
,
00010000
00001000
00100000
00000000
00000000
00000000
00000000
00000000
00001000
00010000
00000100
00000000
00000000
00000000
00000000
00000000
,
00001001
00000000
00010000
00001000
,
10010000
00000000
00000000
00000000
;

//---------------dance-couple - ----------------
#NOTES:
     dance-couple:
     :
     Medium:
     8:
     :
00000000
00000000
00000000
00000000
,
00000000
00000000
00000000
00000000
,
00000000
00000000
00000000
00000000
,
10000001
01000100
00100010
00011000
10000001
01000100
00100010
00011000
,
10000001
01000100
00100010
00011000
01000100
00100010
10000001
00011000
,
10000001
10000000
01000000
10000000
,
00010001
00010000
01000000
00010000
,
10000001
00000000
01000000
00000000
,
00100010
00100010
00010001
00000000
,
10001000
00001000
00000100
00001000
,
10000001
00000001
00000100
00000001
,
10001000
00000000
00000100
00000000
,
10011001
00000000
00000000
00000000
,
00100000
00000000
00010100
01000000
00010000
00000000
00100000
00000000
,
01000000
00000000
10000100
00010000
10000000
00000000
01000000
00000000
,
00100000
00000000
00010100
10000000
00010000
00000000
01000000
00000000
,
00100000
10000100
01000000
00000000
,
00000010
00000000
01000001
00000100
00000001
00000000
00000010
00000000
,
00000100
00000000
01001000
00000001
00001000
00000000
00000100
00000000
,
00000010
00000000
01000001
00001000
00000001
00000000
00000100
00000000
,
00000010
01001000
00000100
00000000
,
10011001
01100110
10010000
00001001
,
00100000
00000000
00000000
01000000
,
00000010
00000000
00000000
00000100
,
00100000
00000000
00000000
10001000
,
01000100
00000000
00000000
00000010
,
00010000
00000000
00000000
10000000
,
00000001
00000000
00000000
00001000
,
00010001
00000000
00100010
00000000
,
01000100
00000000
00000000
00000000
,
10100011
01011100
01100110
00000000
,
10000001
00000000
10000000
00000000
00010001
01000000
00000000
00000000
,
00100001
00000000
00100000
00000000
10000001
01000000
00000000
00000000
,
00100001
00010000
01000000
00000000
00100001
10000000
01000000
00100000
,
00000001
00000000
00000000
10010000
00000000
00000000
00000000
00000000
,
10000010
00000000
00000010
00000000
10000100
00000001
00000000
00000000
,
10000010
00000000
00000010
00000000
10000100
00001000
00000000
00000000
,
10000001
00000100
00000010
00000000
10001000
00000100
00000010
00000001
,
10000000
00000000
00000000
00000000
00011000
00011000
00000000
00001001
,
00000000
00000000
00000000
00000000
,
01100110
00000000
00000000
00000000
00011000
10000001
00000000
00000000
,
00010000
00000000
10000000
00000000
01000001
00100000
00000000
00000000
00010000
00000000
00010000
00000000
00010001
00000000
00000000
00000000
,
01000000
00000000
00100000
00000000
10000001
01000000
00000000
00000000
00100000
00000000
00100000
00000000
00100001
00000000
00000000
00000000
,
00010000
00000000
01000000
00000000
00100001
10000000
00000000
00000000
00010000
00000000
01000000
00000000
00100001
10000000
00000000
00000000
,
01000000
00100000
00010001
01000000
10010000
00000000
00000000
00000000
,
00000001
00000000
00001000
00000000
10000100
00000010
00000000
00000000
00000001
00000000
00000001
00000000
10000001
00000000
00000000
00000000
,
00000100
00000000
00000010
00000000
10001000
00000100
00000000
00000000
00000010
00000000
00000010
00000000
10000010
00000000
00000000
00000000
,
00000001
00000000
00000100
00000000
10000010
00001000
00000000
00000000
00000001
00000000
00000100
00000000
10000010
00001000
00000000
00000000
,
00000100
00000010
10000001
00000100
00001001
00000000
00000000
10011001
,
00000000
00000000
00000000
00000000
,
01100110
00000000
00000000
00000000
00100010
00010001
00000000
01000100
,
00100000
00000000
10000000
00000000
01000000
00100000
00010000
00000000
,
00001000
00000000
00000010
00000000
00000100
00000001
00000010
00000000
,
01000000
00010000
01000000
00000000
00001000
00000010
00001000
00000000
,
00010001
00000000
00010001
00000000
00100010
01000100
10001000
00000000
,
00100000
00000000
00010000
00000000
01000000
00000000
00100000
10000000
00000000
00010000
00000000
00100000
01000000
00000000
00000000
00000000
,
00000010
00000000
00000001
00000000
00000100
00000000
00000010
00001000
00000000
00000001
00000000
00000010
00000100
00000000
00000000
00000000
,
00011000
01000100
10000001
00000000
00011000
10000001
01000100
00000000
,
01011100
00000000
00000000
00000000
10000001
01000100
00100010
00011000
,
01100110
00000000
00000000
00000000
;

//---------------dance-solo - ----------------
#NOTES:
     dance-solo:
     :
     Easy:
     4:
     :
000000
000000
000000
000000
,
000000
000000
000000
000000
,
000000
000000
000000
000000
,
000000
000000
000000
000000
,
000000
000000
000000
000000
,
010000
010000
010000
010000
,
000010
000010
000010
000010
,
000100
000000
001000
000000
,
100000
000001
001000
000000
,
000010
000010
000010
000010
,
010000
010000
010000
010000
,
000100
000000
001000
000000
,
000001
100000
001000
000100
,
000001
010000
000001
010000
,
000010
100000
000010
100000
,
000100
001000
000100
001000
,
000001
100000
001000
000000
,
010000
000001
010000
000001
,
000100
000010
000100
000010
,
010000
000001
000100
001000
,
010000
010000
000001
000000
,
001000
000000
000100
000000
,
100000
001000
010000
000000
,
000001
001000
000010
000000
,
100000
000100
001000
000000
,
000001
100000
001000
000000
,
010000
000001
100000
000000
,
000010
001000
000001
000000
,
100000
000000
001000
000000
,
000100
000100
000001
100000
,
001000
000100
100001
000000
,
010000
001000
000100
000000
,
001000
010000
000001
000000
,
100000
000000
000010
000000
,
001000
000000
000100
000000
,
100000
000010
010000
000000
,
000001
000100
001000
000000
,
010000
000000
000001
000000
,
001000
000000
000100
000000
,
100000
000000
000000
000000
,
100001
000000
000100
000000
,
001000
010000
000001
000000
,
000100
001000
010000
000000
,
000001
000000
001000
000000
,
000100
000000
100000
000000
,
001000
010000
000001
000000
,
000100
001000
010000
000000
,
000001
000000
001000
000000
,
100000
000000
001000
000000
,
000100
000000
000000
000000
,
100001
000000
001000
000000
,
000100
100000
000010
001000
,
000001
000100
001000
100000
,
000001
000010
000001
010000
,
000100
100000
001000
000100
,
000001
100000
001000
000100
,
000001
001000
000100
100000
,
000010
000000
010000
000000
,
001000
000000
000000
000000
,
100001
000000
000000
000000
;

//---------------dance-solo - ----------------
#NOTES:
     dance-solo:
     :
     Medium:
     6:
     :
000000
000000
000000
000000
,
000000
000000
000000
000000
,
000000
000000
000000
000000
,
000000
000000
000000
000000
,
000000
000000
000000
000000
,
010000
000000
000001
000000
000100
001000
000100
000001
,
000000
000001
010000
000000
000010
000000
000100
000000
,
000001
001000
000010
000000
100000
001000
010000
000000
,
000001
000000
001000
000000
000100
100000
001000
000000
,
010000
000000
000001
000000
000100
001000
000100
000001
,
000000
100000
001000
000000
000100
000001
010000
000000
,
000010
001000
000100
000000
100000
000001
000100
000000
,
001000
000000
000100
001000
000000
010000
000001
000000
,
100000
000100
001000
000000
000010
000000
000001
000000
,
000100
100000
001000
000000
010000
000000
100000
000000
,
000100
000001
100000
000000
000010
000000
000001
000000
,
000100
010000
100000
000000
,
000100
000001
001000
000000
000010
000000
000001
000000
,
000100
100000
001000
000000
010000
000000
100000
000000
,
000100
000001
100000
000000
000100
001000
000001
000000
,
000010
001000
010000
000000
,
000001
001000
000001
000000
100000
000000
001000
000000
,
000100
000000
000001
000010
000000
001000
000000
000000
,
010000
000000
000001
000100
000000
000010
000000
000000
,
010000
000100
100000
001000
,
000100
000001
001000
000000
,
000100
000000
100000
000010
000000
010000
000000
000000
,
000001
000000
000100
001000
000000
010000
000000
000000
,
000001
000000
001000
000000
,
000100
000000
000000
000000
,
000010
000000
000000
000010
000000
000000
000010
000000
000010
000000
000000
000000
000000
000000
000000
000000
,
100000
000000
100000
000000
001000
000100
000000
000000
,
000001
000000
001000
000000
000100
100000
000000
000000
,
000010
000000
000100
000000
001000
010000
000000
010000
,
001000
000100
000001
000000
,
100000
000000
000100
000000
001000
000010
000000
000000
,
000100
000000
001000
000000
010000
000001
000000
000000
,
100000
000000
001000
000000
000100
000001
010000
000000
,
000010
000000
000000
000000
001000
000100
000000
100000
,
000000
000000
000000
000000
,
010010
000000
000000
000000
000000
000000
000000
000000
000100
000000
000000
001000
000000
000000
010000
000000
,
000001
000000
001000
000000
000100
100000
000000
000000
,
001000
000100
000001
000000
010000
000010
000000
000000
,
000100
000000
001000
000000
100000
000100
001000
000000
,
000010
100000
001000
000000
,
000100
000000
000001
000000
010000
001000
000000
000000
,
000100
000001
001000
000000
000010
100000
000000
000000
,
000100
010000
000010
000000
000100
000000
001000
000000
,
100000
000000
000000
000000
000100
001000
000000
000010
,
000000
000000
000000
000000
,
100001
000000
000000
000000
000000
000000
000000
000000
000100
000000
000000
001000
000000
000000
010000
000000
,
000001
000000
000001
000000
000001
001000
000100
100000
,
000000
100000
000010
000000
000100
000001
000010
000000
,
001000
010000
000001
000000
001000
000100
100000
000000
,
000001
000000
000100
000000
001000
010000
000001
000000
,
001000
000000
001000
000000
000100
100000
000010
010000
,
000000
010000
000100
000000
100000
001000
010000
000000
,
000001
001000
000001
000000
100000
001000
100000
000000
,
000100
000000
000000
000000
,
010010
000000
000000
000000
;

//---------------dance-solo - ----------------
#NOTES:
     dance-solo:
     :
     Hard:
     8:
     :
000000
000000
000000
000000
,
000000
000000
000000
000000
,
000000
000000
000000
000000
,
000010
000100
000001
001000
000010
000100
000001
001000
,
000100
100000
001000
010000
001000
000100
000001
000010
,
000001
000000
000000
000000
000001
000100
000000
000000
001000
000000
100000
000000
000100
000000
000000
000000
,
001000
000000
000000
000000
000010
100000
000000
000000
000001
000000
000100
000000
001000
000000
000000
000000
,
100000
000000
000001
000000
001000
000010
000000
000000
100000
000000
000001
000000
001000
000010
000000
000000
,
100000
001000
000100
000001
010000
000010
001000
000000
,
000100
000000
000000
000000
100000
000010
000000
000000
010000
000000
000001
000000
001000
000000
000000
000000
,
000100
000000
000000
000000
001000
010000
000000
000000
000001
000000
001000
000000
000100
000000
000000
000000
,
100000
000000
001000
000000
010000
000001
000000
000000
100000
000000
001000
000000
010000
000001
000000
000000
,
000100
000010
001000
000001
100000
001000
000100
000000
,
000001
000000
001000
000000
000100
100000
000000
000000
000010
000000
010000
000000
000100
000000
000000
000000
,
100000
000000
001000
000000
000100
000001
000000
000000
010000
000000
000010
000000
100000
000000
000000
000000
,
000100
000000
001000
000000
000010
100000
000000
000000
000001
000000
000100
000000
001000
000000
000000
000000
,
010000
000000
000001
000000
100000
000010
000000
000000
000100
000000
000001
000000
001000
000010
000000
000000
,
100000
000000
000100
000000
001000
000010
000000
000000
100000
000000
000001
000000
000100
000000
000000
000000
,
001000
000000
010000
000000
000001
100000
000000
000000
000010
000000
001000
000000
000100
000000
000000
000000
,
100000
000000
000001
000000
010000
001000
000000
000000
000100
000000
000001
000000
001000
000000
000000
000000
,
000010
000100
000001
001000
000010
100000
001000
000000
,
100001
000000
000000
000000
,
010000
001000
000000
000000
000100
000000
000001
000000
000000
000000
010010
000000
000000
000000
000000
000000
,
000100
000001
000000
000000
001000
000000
000010
000000
000000
000000
100001
000000
000000
000000
000000
000000
,
000100
000010
000000
000000
010000
000000
000000
000000
000100
100000
000000
000000
001000
000000
000000
000000
,
000100
000001
010000
000010
000000
000000
000000
000000
,
100000
000001
000000
000000
000100
000000
001000
000000
000000
000000
100001
000000
000000
000000
000000
000000
,
010000
001000
000000
000000
000100
000000
000001
000000
000000
000000
010010
000000
000000
000000
000000
000000
,
000100
000001
000000
000000
001000
000000
000000
000000
000100
100000
000000
000000
001000
000000
000000
000000
,
000100
000001
010000
000010
100000
000000
000000
000000
,
001000
000000
000000
000100
000000
000000
000001
010000
000010
000000
000000
000000
000000
000000
100000
000000
,
000000
000000
000100
000000
001000
000000
000001
000000
100000
001000
010000
000000
000000
000000
000001
000000
,
000000
000000
001000
000000
000100
000000
100000
000000
000010
010000
000001
000000
000000
000000
000000
000000
,
000100
000000
001000
000000
010000
000001
000000
000000
000100
000000
001000
000000
010000
000001
000000
000000
,
000100
000010
001000
000100
100000
000000
000000
000001
,
000000
000000
000100
000000
001000
000000
100000
000000
000001
001000
000010
000000
000000
000000
100000
000000
,
000000
000000
001000
000000
000100
000000
000001
000000
010000
001000
000100
000000
000000
000000
000000
000000
,
000001
000000
001000
000000
000010
100000
000000
000000
000001
000000
001000
000000
000010
100000
000000
000000
,
000100
010000
001000
000100
000001
000000
100000
000000
,
001000
000000
000000
000000
,
100001
000000
000000
000000
000000
000000
000000
001000
,
000000
000000
000010
000000
100000
000000
000001
000000
010000
001000
000100
000000
000000
000000
000001
000000
,
000000
000000
100000
000000
000100
000000
001000
000000
000010
100000
000100
000000
000000
000000
000000
000000
,
010000
000000
001000
000000
000100
000001
000000
000000
010000
000000
001000
000000
000100
000001
000000
000000
,
001000
000100
100000
001000
000100
000000
000000
000001
,
000000
000000
010000
000000
000100
000000
100000
000000
001000
010000
000001
000000
000000
000000
100000
000000
,
000000
000000
000010
000000
001000
000000
000100
000000
100000
000010
010000
000000
000000
000000
000000
000000
,
000001
000000
000100
000000
001000
010000
000000
000000
000001
000000
000100
000000
001000
010000
000000
000000
,
000001
100000
000100
000000
010000
000000
001000
000000
,
000100
000000
000000
000000
,
100001
000000
000000
000000
,
010000
000000
001000
000000
000100
000001
000000
000000
010000
000000
000010
000000
001000
000000
000000
000000
,
000100
000000
100000
000000
000010
010000
000000
000000
000001
000000
000100
000000
001000
000000
000000
000000
,
010000
000001
000000
000000
001000
000000
000000
000000
000010
100000
000000
000000
001000
000000
000000
000000
,
000100
000001
001000
000100
100000
000000
000000
000000
,
000010
000000
010000
000000
000001
000100
000000
000000
001000
000000
010000
000000
000001
000000
000000
000000
,
100000
000000
000010
000000
001000
000100
000000
000000
100000
000000
001000
000000
000100
000000
000000
000000
,
000001
000010
000000
000000
001000
000000
000000
000000
100000
010000
000000
000000
001000
000000
000000
000000
,
100010
000000
000000
000000
,
010001
000000
000000
000000
;
