#VERSION:0.83;
#TITLE:CASSANDRA;
#SUBTITLE:;
#ARTIST:亜熱帯マジ-SKA爆弾;
#TITLETRANSLIT:;
#SUBTITLETRANSLIT:;
#ARTISTTRANSLIT:ANETTAI MAJI-SKA BAKUDAN;
#GENRE:;
#ORIGIN:;
#CREDIT:;
#BANNER:CASSANDRA-bn.png;
#BACKGROUND:CASSANDRA-bg.png;
#PREVIEWVID:;
#JACKET:CASSANDRA-jacket.png;
#CDIMAGE:;
#DISCIMAGE:;
#LYRICSPATH:;
#CDTITLE:;
#MUSIC:CASSANDRA.ogg;
#OFFSET:1.375000;
#SAMPLESTART:11.042000;
#SAMPLELENGTH:20.000000;
#SELECTABLE:YES;
#DISPLAYBPM:136.000000:192.000000;
#BPMS:0.000=168.000,
10.000=136.000,
15.625=192.000,
32.000=190.000,
240.000=166.000,
243.000=152.000,
244.875=136.000;
#STOPS:;
#DELAYS:;
#WARPS:;
#TIMESIGNATURES:0.000=4=4;
#TICKCOUNTS:0.000=4;
#COMBOS:0.000=1;
#SPEEDS:0.000=1.000=0.000=0;
#SCROLLS:0.000=1.000;
#FAKES:;
#LABELS:0.000=Song Start;
#BGCHANGES:;
#KEYSOUNDS:;
#ATTACKS:
;

//---------------dance-single - ----------------
#NOTEDATA:;
#CHARTNAME:;
#STEPSTYPE:dance-single;
#DESCRIPTION:;
#CHARTSTYLE:;
#DIFFICULTY:Hard;
#METER:13;
#RADARVALUES:0.700366,0.737232,0.443448,0.517356,0.203247,398.000000,362.000000,36.000000,42.000000,0.000000,0.000000,0.000000,0.000000,0.000000,0.700366,0.737232,0.443448,0.517356,0.203247,398.000000,362.000000,36.000000,42.000000,0.000000,0.000000,0.000000,0.000000,0.000000;
#CREDIT:;
#DISPLAYBPM:136.000000:192.000000;
#NOTES:
0000
0000
0000
0000
,
2020
0000
0000
3030
,
0202
0000
0000
0303
,
2200
0000
0000
0000
,
0000
0000
3300
1001
,
0010
0000
0000
1000
0010
0000
0000
0000
0100
0000
0000
0001
0100
0000
0000
0000
,
0001
0000
0000
0010
0001
0000
0000
0000
1000
0000
0000
0100
1000
0000
0000
0000
,
0100
0000
0000
0010
0100
0000
0000
0000
1000
0000
0000
0001
1000
0000
0000
0000
,
0011
0000
0000
0000
1100
0000
0000
0000
1000
0001
1000
0001
1000
0000
0100
0000
,
0020
0001
0000
0100
0000
1000
0000
0130
,
2000
0001
0000
0010
0000
3001
0100
0010
,
1000
0001
0000
0020
0000
0031
0100
1000
,
0000
0010
1000
0100
0000
0001
0010
1000
,
0002
0100
0000
0010
0000
1000
0000
0013
,
0200
1000
0000
0001
0000
1300
0010
0100
,
0001
0010
0000
2000
0000
3100
1000
0001
,
0000
0000
0100
0000
0010
0000
1000
0000
0001
0000
0010
0000
0100
0000
1000
0001
,
1000
0010
0100
0001
0000
0010
0001
0100
,
0001
1000
0100
0010
0000
0001
1000
0010
,
1000
0100
0010
0002
0000
0103
0010
1000
,
0200
0000
0320
0000
0031
0100
0001
1000
,
0010
1000
0100
0010
0000
0001
0100
0001
,
1000
0010
0100
0010
0000
1000
0100
0001
,
0010
0001
1000
0020
0000
0130
0001
0100
,
0000
0000
0010
0000
0000
0000
1000
0000
0001
0010
0001
0010
0001
0000
0100
0000
,
0120
0000
1030
0101
0000
0010
1000
0000
,
2100
0000
0000
0000
3001
0000
1010
0000
0000
0000
0010
0000
1000
0001
1000
0000
,
1002
0000
0013
1100
0000
0001
1000
0000
,
0120
0000
0000
0000
0130
0000
1010
0000
0000
0000
0001
0000
1000
0100
2000
0000
,
0000
0000
0001
0000
0010
0000
0002
0000
0000
3003
0000
0000
,
0011
0000
0000
0100
1000
0000
0000
0100
1000
0000
0000
0001
0100
0000
0010
0000
,
1000
0100
0002
0000
0013
0001
0200
0000
,
0301
0010
1000
0010
0002
0000
0103
0010
,
1000
0000
0000
0000
1100
0000
0001
1000
0001
0000
0100
0000
0010
0000
0000
0000
,
0100
0001
0100
1000
0100
0001
0100
0010
,
1000
0100
0002
0000
0023
0000
0031
0100
,
0010
1000
0100
0002
0000
0013
0001
0100
,
1000
0000
0000
0010
0000
0000
1000
0000
0100
0000
0000
0010
0000
0000
0001
0000
,
0100
0010
1000
0010
0000
0100
0001
1000
,
0100
0000
0010
0000
0100
0000
2000
0000
0000
0000
3001
0100
0001
0000
0010
0000
,
0000
1001
0000
0100
2000
0000
3010
1000
,
0001
0010
0001
0100
1000
1000
0010
0100
,
0001
0010
0001
0000
0100
0000
0010
0000
0000
0000
1000
0000
0000
0000
0100
0000
,
0000
0000
2000
0000
0000
0000
0001
0000
3001
0000
0000
0100
0000
0000
0010
0000
,
1000
0001
1000
0000
0000
0000
0100
0000
0000
0000
0010
0001
0010
0000
0100
0000
,
1000
0000
1100
0000
0000
0000
0101
0000
0000
0000
1000
0000
0001
0100
0001
0000
,
1001
0000
0010
1000
0000
1000
0100
0001
,
0110
0000
0001
0010
0000
0001
0100
1000
,
1010
0000
0001
1000
0000
0100
0010
0001
,
0101
0000
0000
0000
0010
0000
1000
0000
0000
0000
0001
0000
1000
0010
1000
0010
,
1000
0000
0100
0011
0000
0001
0100
1000
,
0010
0000
0100
1010
0000
0001
0010
1000
,
0000
1100
0000
0101
0000
1100
0000
0110
,
0000
0011
0000
1001
0000
0101
0000
0000
,
2010
0001
0000
0100
0000
0010
0000
3100
,
0002
0010
0000
1000
0000
0103
0001
0010
,
0100
1000
0000
0002
0000
1003
0010
0100
,
0000
0000
0001
0000
0010
0000
2000
0000
0000
0000
3100
0000
0010
0001
0010
0001
,
0020
1000
0000
0100
0000
0031
1000
0010
,
0100
0000
0001
0000
0010
0000
1000
0000
0000
0000
0001
0000
1000
0000
0010
0100
,
0010
0000
0202
0303
,
2200
3300
0022
0000
,
0000
0000
0000
0000
0000
0000
0000
0000
0000
0000
0000
0000
0033
0000
1000
0001
,
0100
0000
0000
0000
;

//---------------dance-single - ----------------
#NOTEDATA:;
#CHARTNAME:;
#STEPSTYPE:dance-single;
#DESCRIPTION:;
#CHARTSTYLE:;
#DIFFICULTY:Medium;
#METER:10;
#RADARVALUES:0.519116,0.659629,0.492720,0.689808,0.012318,295.000000,255.000000,40.000000,56.000000,0.000000,0.000000,0.000000,0.000000,0.000000,0.519116,0.659629,0.492720,0.689808,0.012318,295.000000,255.000000,40.000000,56.000000,0.000000,0.000000,0.000000,0.000000,0.000000;
#CREDIT:;
#DISPLAYBPM:136.000000:192.000000;
#NOTES:
0000
0000
0000
0000
,
2020
0000
0000
3030
,
0202
0000
0000
0303
,
2200
0000
0000
0000
,
0000
0000
3300
1001
,
0010
0010
1000
1000
,
0100
0100
0001
0001
,
0010
1000
0100
0001
,
0011
0000
1100
0000
1000
0001
1000
0100
,
0000
0010
0000
0001
0000
0100
0000
0010
,
0000
1000
0000
0001
0000
1000
0000
0100
,
0000
0010
0000
0001
0000
0100
0000
0010
,
0000
1000
0000
0100
0000
1000
0000
0100
,
0000
0010
0000
0001
0000
0100
0000
0001
,
0000
1000
0000
0010
0000
0100
0000
0001
,
0000
0010
0000
0001
0000
1000
0000
0001
,
0000
1000
0000
0010
0100
0001
0100
0000
,
0020
1000
0000
1000
0000
1030
0000
0001
,
0020
0100
0000
0100
0000
0130
0000
0010
,
0002
0000
0000
2000
0000
0000
3003
0000
,
0200
0000
0320
0000
0031
1000
0001
0000
,
2000
0010
0000
0010
0000
3100
0000
0001
,
2000
0001
0000
0010
0000
3100
0000
1000
,
0020
0000
0000
0230
0000
0001
0000
1000
,
0000
0001
0000
0310
1000
0100
1000
0000
,
0022
0000
0033
0011
0000
0000
0100
0000
,
2200
0000
3300
1100
0000
0001
1000
0000
,
2020
0000
3030
1010
0000
0000
0100
0000
,
0202
0000
0303
0101
0000
1000
0001
0200
,
0000
0000
0010
0000
0010
0000
0020
0000
0000
0330
0000
0000
,
1001
0000
1010
0000
0101
0000
1000
0100
,
0002
0023
0032
0203
,
0310
1000
0001
1000
0020
0000
0130
0001
,
0200
0000
0320
0000
0130
0001
1000
0000
,
1100
0000
0011
0000
0101
0000
1000
0010
,
2000
0000
3200
0000
0320
0000
0031
1000
,
0001
0100
0001
0200
0000
0000
0310
1000
,
0001
0011
1000
1010
,
0220
0000
0000
0000
0300
0000
0130
0001
,
1000
0001
1000
0020
0000
1030
0100
0001
,
0000
1001
0000
0100
2000
0000
3010
0100
,
0002
0000
0013
0100
1000
0001
0000
0200
,
0020
0000
0000
0000
0000
0000
0000
0300
,
0000
1030
0000
0001
1000
0000
1100
0000
,
0001
0100
0000
0000
0000
0010
1000
0001
,
1000
0010
0000
0101
0000
1000
0001
0000
,
1001
0000
0000
0010
0000
0100
0001
0000
,
0011
0000
0000
0100
0000
1000
0001
0000
,
1010
0000
0000
0001
0000
1000
0010
0000
,
0110
0000
0000
0010
0000
1000
0100
0000
,
1000
0000
0001
0010
0000
0001
1000
0100
,
1000
0000
0010
0100
0000
0001
0010
1000
,
0000
1100
0000
0101
0000
1100
0000
0101
,
0000
1001
0000
0110
0000
1001
0000
0000
,
0002
0010
0000
1000
0000
0013
0000
0100
,
2000
0010
0000
0100
0000
3001
0000
0100
,
0020
0000
0000
2030
0000
0001
0000
0100
,
0000
0001
0000
0010
0000
3001
1000
0000
,
0200
1000
0000
0001
0000
1300
0000
0010
,
0200
1000
0000
0301
0000
0100
0010
1000
,
0000
0000
2020
3030
,
0202
0303
2200
0000
,
0000
0000
0000
0000
0000
0000
3300
1000
,
0001
0000
0000
0000
;

//---------------dance-single - ----------------
#NOTEDATA:;
#CHARTNAME:;
#STEPSTYPE:dance-single;
#DESCRIPTION:;
#CHARTSTYLE:;
#DIFFICULTY:Easy;
#METER:7;
#RADARVALUES:0.311469,0.465620,0.172452,0.615900,0.000000,177.000000,163.000000,14.000000,50.000000,0.000000,0.000000,0.000000,0.000000,0.000000,0.311469,0.465620,0.172452,0.615900,0.000000,177.000000,163.000000,14.000000,50.000000,0.000000,0.000000,0.000000,0.000000,0.000000;
#CREDIT:;
#DISPLAYBPM:136.000000:192.000000;
#NOTES:
0000
0000
0000
0000
,
0000
0000
0000
0000
,
0000
0000
0000
0000
,
0000
0000
0000
0000
,
0000
0000
0000
0000
,
0010
0010
1000
1000
,
0001
1000
0100
0000
,
0010
0010
0001
1000
,
1001
1001
0100
0010
,
2000
0000
0000
3000
,
0002
0000
0000
0000
0000
0023
0000
0000
,
0032
0000
0000
2000
0000
0000
0000
3003
,
0000
0010
0000
1000
0000
0001
0000
0100
,
0020
0000
0000
0030
,
0200
0000
0000
0000
0000
0302
0000
0000
,
2003
0000
0000
0002
0000
0000
0000
3003
,
0000
1000
0000
0010
0200
0000
0301
0000
,
0020
0000
0000
0030
,
0002
0000
0000
0000
0000
0203
0000
0000
,
0302
0000
0000
2000
0000
0000
3003
0000
,
2000
3020
2030
3002
,
0203
0000
0000
0300
,
0020
0000
0000
0000
0000
2030
0000
0000
,
3002
0000
0000
0200
0000
0000
0000
0000
,
0000
0000
0303
0000
0001
1000
0001
0000
,
0020
0000
0000
0031
0000
0000
0000
0000
,
2000
0000
0000
3010
0000
0000
0000
0000
,
0200
0000
0000
0301
0000
0000
0000
0000
,
2000
0000
0000
3100
0000
0000
0000
0110
,
0000
2000
0002
3003
,
0010
0010
0010
0001
,
0100
0001
1000
1000
,
0001
0100
0010
0100
,
0001
0010
1000
0100
,
0010
0010
0001
0100
,
1000
1000
1000
0001
,
1000
0010
1000
0001
,
0100
0100
0010
0010
,
0220
0000
0300
1000
,
0100
1000
0001
0130
,
0000
0002
0000
0000
1003
0000
0001
0000
,
0010
0001
0100
0000
,
2000
0000
0000
0000
,
0000
3020
0000
0000
0130
0000
0001
0000
,
1000
0000
0000
0000
0000
0100
1000
0000
,
0001
1000
0000
0010
0000
1000
0001
0000
,
0011
0001
0100
1000
,
1010
1000
0100
0001
,
0101
0010
1000
0100
,
1100
0001
0010
1000
,
1001
0000
0000
0010
0000
0000
1000
0000
,
0110
0000
0000
0001
0000
0000
0010
0100
,
0000
1000
0000
1000
0000
0001
0000
0001
,
0000
1000
0000
0001
0000
1000
0000
0000
,
0020
0000
0000
0030
,
0002
0000
0000
0000
0000
2003
0000
0000
,
3020
0000
0000
0200
0000
0000
0000
0330
,
0000
0001
0000
2000
0000
3001
0000
0000
,
0020
0000
0000
0030
,
0200
0000
0000
0000
0000
1300
0000
0001
,
0000
0000
2200
3300
,
0022
0033
0202
0000
,
0000
0000
0000
0303
,
1001
0000
0000
0000
;

//---------------dance-single - ----------------
#NOTEDATA:;
#CHARTNAME:;
#STEPSTYPE:dance-single;
#DESCRIPTION:;
#CHARTSTYLE:;
#DIFFICULTY:Beginner;
#METER:3;
#RADARVALUES:0.144297,0.271612,0.073908,0.073908,0.000000,82.000000,76.000000,6.000000,6.000000,0.000000,0.000000,0.000000,0.000000,0.000000,0.144297,0.271612,0.073908,0.073908,0.000000,82.000000,76.000000,6.000000,6.000000,0.000000,0.000000,0.000000,0.000000,0.000000;
#CREDIT:;
#DISPLAYBPM:136.000000:192.000000;
#NOTES:
// measure 0
0000
0000
0000
0000
,  // measure 1
0000
0000
0000
0000
,  // measure 2
0000
0000
0000
0000
,  // measure 3
0000
0000
0000
0000
,  // measure 4
0000
0000
0000
0000
,  // measure 5
0010
0000
0000
0000
,  // measure 6
0000
0000
0000
0000
,  // measure 7
0100
0000
0000
0000
,  // measure 8
0001
0001
0001
0000
,  // measure 9
1000
0000
0000
0000
,  // measure 10
0001
0000
0000
0000
,  // measure 11
0010
0000
0000
0000
,  // measure 12
0000
0000
0000
0000
,  // measure 13
0100
0000
0000
0000
,  // measure 14
0010
0000
0000
0000
,  // measure 15
0001
0000
0000
0000
,  // measure 16
0000
0000
1000
1000
,  // measure 17
1000
0000
0000
0000
,  // measure 18
0010
0000
0000
0000
,  // measure 19
0100
0000
0000
0000
,  // measure 20
0000
0000
0000
0000
,  // measure 21
0001
0000
0000
0000
,  // measure 22
1000
0000
0000
0000
,  // measure 23
0100
0000
0000
0000
,  // measure 24
0000
0000
0010
0010
,  // measure 25
0020
0000
0030
0000
,  // measure 26
0002
0000
0003
0000
,  // measure 27
2000
0000
3000
0000
,  // measure 28
0200
0000
0300
0000
,  // measure 29
1000
0000
0000
0000
,  // measure 30
0001
0000
0001
0000
,  // measure 31
0001
0000
0100
0000
,  // measure 32
0010
0000
1000
0000
,  // measure 33
0010
0000
0100
0000
,  // measure 34
0001
0001
0001
0000
,  // measure 35
1000
1000
1000
0000
,  // measure 36
0010
0000
1000
0000
,  // measure 37
0100
0000
0010
0000
,  // measure 38
0002
0000
0003
0000
,  // measure 39
0100
0100
0100
0000
,  // measure 40
0000
0000
0010
0000
,  // measure 41
1000
0000
0100
0000
,  // measure 42
2000
0000
0000
3000
,  // measure 43
0000
0000
0010
0000
,  // measure 44
0010
0000
0000
0100
,  // measure 45
0100
0000
0001
0000
,  // measure 46
1001
0000
0000
0000
,  // measure 47
1001
0000
0000
0000
,  // measure 48
1001
0000
0000
0000
,  // measure 49
1001
0000
0000
0000
,  // measure 50
1001
0000
0000
0000
,  // measure 51
1001
0000
0000
0000
,  // measure 52
0000
0000
0010
0000
,  // measure 53
0010
0000
0010
0000
,  // measure 54
0100
0000
0000
0000
,  // measure 55
0001
0000
0000
0000
,  // measure 56
1000
0000
0000
0000
,  // measure 57
0000
0000
0001
0000
,  // measure 58
0010
0000
0000
0000
,  // measure 59
0100
0000
0000
0000
,  // measure 60
0000
0000
1000
0000
,  // measure 61
1000
0000
1000
0000
,  // measure 62
0000
0000
0000
0000
,  // measure 63
0010
0000
0000
0000
;
