#TITLE:CARTOON HEROES (Speedy Mix);
#ARTIST:BARBIE YOUNG;
#BANNER:CARTOON HEROES (Speedy Mix)-bn.png;
#BACKGROUND:CARTOON HEROES (Speedy Mix)-bg.png;
#JACKET:CARTOON HEROES (Speedy Mix)-jacket.png;
#MUSIC:CARTOON HEROES (Speedy Mix).ogg;
#SAMPLESTART:56.468;
#SAMPLELENGTH:20;
#DISPLAYBPM:170;
#BPMS:0=170.001;
#BGCHANGES:0=CARTOON HEROES (Speedy Mix).mp4=1=0=0=0,
;

//---------------dance-single - ----------------
#NOTES:
     dance-single:
     :
     Beginner:
     4:
     :
0000
0000
0000
0000
,
0000
0000
0000
0000
,
0000
0000
0000
0000
,
0000
0000
0000
0000
,
0000
0000
0000
0000
,
0100
0100
0100
0000
,
1000
1000
1000
0000
,
0010
0010
0010
0000
,
0001
0001
0001
0000
,
1001
0000
0000
0000
,
0000
0010
0000
0010
,
0000
0010
0000
1001
,
0000
0100
0000
0100
,
0000
0100
0000
1001
,
0000
0001
0000
1000
,
0000
0001
0000
1001
,
1001
0000
0100
0000
,
1001
0000
0010
0000
,
0000
1000
0000
0100
,
0000
1000
0000
1001
,
0000
0001
0000
0100
,
0000
0001
0000
1001
,
1001
0000
1000
0000
,
0110
0000
0010
0000
,
1000
1000
1000
0000
,
0010
0010
0010
0000
,
0001
0001
0001
0000
,
0100
0100
0100
0000
,
1000
1000
1000
0000
,
0001
0001
0001
0000
,
0100
0000
1001
0000
,
0010
0000
1001
0000
,
0000
1000
0000
1000
,
0000
0001
0000
1001
,
0000
0010
0000
0010
,
0000
0100
0000
0110
,
0000
0100
0100
0000
,
0000
0010
0010
0000
,
0000
1000
1000
0000
,
0000
1001
1001
0000
,
1000
0000
1000
0000
,
0001
0000
0001
0000
,
0100
0000
0100
0000
,
0010
0000
0110
0000
,
1000
0000
0100
0000
,
0010
0000
0001
0000
,
1000
0000
0001
0000
,
0100
0000
0000
1001
,
0000
0100
0100
0100
,
0000
0010
0010
0010
,
0000
1000
0000
1000
,
0000
0001
0000
1001
,
0000
0010
0010
0010
,
0000
0100
0100
0100
,
0000
0001
0000
0001
,
0000
1000
0000
1001
,
0000
1000
1000
1000
,
0000
0001
0001
0001
,
0000
0100
0100
0000
,
0010
0000
1001
0000
,
0100
0000
1001
0000
,
0100
0100
0100
0000
,
1001
0000
0000
0000
,
0000
0000
0000
0000
;

//---------------dance-single - ----------------
#NOTES:
     dance-single:
     :
     Easy:
     6:
     :
0000
0000
0000
0000
,
0000
0000
0000
0000
,
0000
0000
0000
0000
,
0000
0000
0000
0000
,
0000
0000
0000
0000
,
0100
0100
0100
0010
,
1000
1000
1000
0001
,
0010
0010
0010
0100
,
1000
0001
1000
0001
,
2002
0000
0000
3003
,
0100
0010
0100
0010
,
1000
0001
0000
1001
,
0100
0010
0100
0010
,
0001
1000
0000
1001
,
0010
0100
0010
0100
,
1000
0001
0000
1001
,
0001
0100
0010
1000
,
0001
0010
0100
1000
,
0001
1000
0001
1000
,
0100
0010
0000
0110
,
0001
1000
0001
1000
,
0010
0100
0000
0110
,
0100
0010
0010
0000
,
0100
0010
0010
0000
,
0010
0100
0010
0100
,
1000
0001
0000
1001
,
0010
0100
0010
0100
,
0001
1000
0000
1001
,
0100
0010
0100
0010
,
1000
0001
0000
1001
,
0001
0010
0100
1000
,
0001
0100
0010
1000
,
0001
1000
0001
1000
,
0010
0100
0000
0110
,
0001
1000
0001
1000
,
0100
0010
0000
0110
,
0010
0100
0100
0000
,
0010
0100
0100
0000
,
0100
0010
0001
0000
,
0100
0010
1000
1001
,
0001
1000
0001
0001
,
1000
0001
1000
1000
,
0001
1000
0001
1000
,
0001
0010
0100
1000
,
0001
0001
1000
1000
,
0100
0010
0100
0010
,
1000
1000
0001
0001
,
1001
0000
0000
1001
,
0100
0010
0000
0110
,
0100
0010
0000
0110
,
1000
0100
0001
0010
,
0001
0100
1000
0010
,
1000
0001
0000
1001
,
1000
0001
0000
1001
,
0001
0100
1000
0010
,
1000
0100
0001
0010
,
1000
0100
0000
1100
,
0010
0001
0000
0011
,
1000
0100
0010
0100
,
0001
0001
0010
0010
,
1000
1000
0001
0001
,
0100
0010
0100
0010
,
2002
0000
0000
3003
,
0000
0000
0000
0000
;

//---------------dance-single - ----------------
#NOTES:
     dance-single:
     :
     Medium:
     9:
     :
0000
0000
0000
0000
,
0000
0000
0000
0000
,
0000
0000
0000
0000
,
0000
0000
0000
0000
,
0000
0000
0000
0000
,
0100
0000
0100
0000
0001
1000
0001
0010
,
0100
0000
0100
0000
1000
0001
1000
0010
,
0100
0000
0100
0000
0001
0010
0001
1000
,
0100
0010
0100
0000
1000
0010
1000
0001
,
0020
0000
0000
0030
,
0100
1100
1001
0101
,
0100
0000
0010
2000
0000
0001
3001
0000
,
0100
0101
1001
1100
,
0100
0000
0010
0002
0000
1000
1003
0000
,
0100
0000
0110
0000
0011
0000
0001
2000
,
0000
0000
3001
0010
0000
0001
0100
0000
,
0010
0000
1000
0000
1001
0000
0100
0010
,
0000
0001
0000
1001
0000
1000
0100
0000
,
0010
0011
1001
1010
,
0010
0000
0100
0002
0000
1000
1003
0000
,
0010
1010
1001
0011
,
0010
0000
0100
2000
0000
0001
3001
0000
,
0100
0000
0010
0000
0110
0000
0010
0100
,
0000
0010
0010
0000
0110
0000
0100
0000
,
0001
0101
0110
1010
,
1000
0000
0100
0010
0000
0001
1000
0000
,
1000
1100
0110
0011
,
0001
0000
0100
0010
0000
1000
0001
0000
,
0010
0000
0011
0000
1001
0000
1000
0001
,
0000
0000
1000
0010
0000
1000
0100
0000
,
0010
0000
0001
0000
0011
0000
0100
1000
,
0000
0100
0000
1100
0000
0010
0001
0000
,
0001
0011
0110
1100
,
1000
0000
0010
0100
0000
0001
1000
0000
,
1000
0000
1010
0000
0110
0000
0100
0001
,
0000
0001
1000
0010
0000
0000
0100
0000
,
0002
0000
1003
0000
1001
0000
0000
2000
,
0000
0001
3001
0000
1001
0000
1000
0000
,
0100
0000
0010
0000
0110
0000
0100
1000
,
0000
0001
0001
0000
1000
0000
1001
0000
,
0001
0100
0010
1000
0001
0000
0001
0000
,
1000
1000
0100
0110
,
0010
0001
1000
0100
0010
0000
0010
0000
,
0100
1100
0010
0011
,
1000
0100
0010
0001
1000
0000
1000
0000
,
0001
0001
0100
0110
,
0100
0101
0100
0101
,
1010
0000
0000
1001
0000
0000
1100
0000
,
0010
0001
0010
0100
1000
0000
1000
0000
,
0010
1000
0010
0100
0001
0000
0001
0000
,
0110
1010
1001
1100
,
0110
0011
1001
1010
,
0100
0001
0100
0010
1000
0000
1000
0000
,
0100
1000
0100
0010
0001
0000
0001
0000
,
0110
1100
1001
1010
,
0110
0101
1001
1100
,
0010
0001
0010
0100
1000
0000
0001
0000
,
0010
1000
0010
0100
0001
0000
1000
0000
,
1100
0110
0011
1001
,
0100
0100
0110
0110
,
0010
0010
0110
0110
,
1000
0001
1000
0000
0001
1000
0001
0000
,
2002
0000
0000
3003
,
0000
0000
0000
0000
;

//---------------dance-single - ----------------
#NOTES:
     dance-single:
     :
     Hard:
     13:
     :
0000
0000
0000
0000
,
0000
0000
0000
0000
,
0000
0000
0000
0000
,
0000
0000
0000
0000
,
0000
0000
0000
0000
,
0100
0000
0000
0000
0100
0000
0000
0001
0000
0000
1000
0000
0100
0000
0010
0000
,
0010
0000
0000
0000
0010
0000
0000
0001
0000
0000
1000
0000
0100
0000
0010
0000
,
0001
0000
0000
0000
0001
0000
0000
0100
0000
0010
1000
0000
0001
0000
0100
0000
,
0010
0000
1000
0000
0010
0000
0100
0001
0000
1000
0100
0000
0010
0000
0100
0000
,
2002
0000
0000
3003
,
0100
0000
0000
0000
1010
0000
0000
0000
1001
0000
0000
0000
0011
0000
0000
0010
,
0001
0000
0000
0001
1000
0000
1020
0000
0000
0000
0100
0000
0100
0000
0130
0000
,
0010
0000
0000
0000
0101
0000
0000
0000
1001
0000
0000
0000
1100
0000
0000
0100
,
1000
0000
0000
1000
0001
0000
0201
0000
0000
0000
0010
0000
0010
0000
0310
0000
,
0100
0000
1010
0000
1001
0000
0010
0100
,
0100
0000
0010
1000
0000
0100
0010
0001
,
1000
0010
0000
0000
0010
0100
0000
0000
0100
0001
0000
0000
1001
0000
1010
0000
,
0000
1001
0000
1100
0000
0010
0001
0010
,
0100
1000
1100
0000
1001
0000
0101
0000
,
0010
1000
0001
0100
0000
0010
1000
1000
,
0100
0100
0011
0000
1001
0000
1100
0010
,
0001
0000
0100
0010
0000
1000
0001
0100
,
0010
1000
0000
0000
1000
0010
0000
0000
0101
0000
0000
0000
1000
0000
0100
0000
,
0000
0000
0010
0000
0001
0000
0000
0000
1000
0100
1000
0000
0001
0000
1000
0000
,
0100
0000
0010
0000
0011
0000
0000
0000
1001
0000
0010
0000
1010
0000
0000
0010
,
1000
0000
0000
1000
0001
0000
0021
0000
0000
0000
0100
0000
0100
0000
0130
0000
,
0010
0000
0100
0000
1100
0000
0000
0000
1001
0000
0100
0000
0101
0000
0000
0100
,
0001
0000
0000
0001
1000
0000
1200
0000
0000
0000
0010
0000
0010
0000
0310
0000
,
0100
0010
0011
0000
1001
0010
0100
0001
,
0001
0000
1000
0010
0000
0100
0100
0100
,
0010
1000
0000
0000
1000
0001
0000
0000
0001
0010
0000
0000
0110
0000
1100
0000
,
0000
1001
0000
0101
0000
0010
1000
0010
,
0100
0001
0101
1000
1001
0100
1100
0000
,
0010
0001
1000
0100
0000
0010
0001
0001
,
0100
0100
1010
1000
1001
0001
0101
0010
,
1000
0100
0001
0100
1000
0010
1000
0100
,
0010
0001
0000
0000
0001
0010
0000
0000
0010
0100
0000
0000
1100
0000
0010
0000
,
0001
0100
1000
0100
0001
0010
0001
0100
,
0010
1000
0000
0000
1000
0010
0000
0000
0010
0100
0000
0000
0101
0000
1010
0000
,
0000
0000
1000
0000
0100
0000
0010
0000
0001
0100
0001
0000
1001
0000
0000
0000
,
1000
0000
0100
0000
1000
0000
0010
0000
0100
0001
0100
0000
0001
0000
0010
0000
,
0001
0100
1000
0100
0001
0010
0001
0100
,
0010
1000
0100
1000
0010
0001
0010
1000
,
0100
0010
0000
0000
0010
0001
0000
0000
0001
1000
0000
0000
1000
0010
0000
0000
,
0100
0000
0001
0000
0010
0000
0001
0000
0100
0010
0100
0000
0001
0000
1000
0000
,
0100
0010
0001
0100
0010
1000
0100
0001
,
0100
1000
0010
0100
0001
0010
0100
1000
,
2100
0000
3001
0012
0000
1003
1001
0000
,
0001
0100
1000
0100
0001
0010
0100
1000
,
0010
0100
0001
0100
1000
0100
0001
0010
,
0100
1000
0000
0000
1000
0001
0000
0000
0001
0100
0000
0000
0100
0010
0000
0000
,
0010
0001
0000
0000
0001
0010
0000
0000
0010
1000
0000
0000
1000
0001
0000
0000
,
0001
0100
1000
0010
1000
0100
0010
1000
,
1000
0100
0001
0010
0001
0100
0010
0001
,
0001
0100
0000
0000
0100
1000
0000
0000
1000
0100
0000
0000
0100
0001
0000
0000
,
0001
0000
0100
0000
0010
0000
0000
1000
0100
0000
0000
0001
0010
0000
0110
0000
,
1000
0010
0001
0100
0001
0010
0100
0001
,
0001
0010
1000
0100
1000
0010
0100
1000
,
1000
0010
0000
0000
0010
0001
0000
0000
0001
0010
0000
0000
0010
1000
0000
0000
,
1000
0100
0000
0100
0010
0000
0002
0000
1000
0000
1000
0000
1003
0000
0000
0000
,
0001
0100
0000
0100
0010
0000
2000
0000
0001
0000
0001
0000
3001
0000
0000
0000
,
1000
0100
0000
0100
0010
0000
0010
0001
0000
0001
0100
0000
0010
0000
0010
0000
,
2002
0000
0000
3003
;

//---------------dance-single - ----------------
#NOTES:
     dance-single:
     :
     Challenge:
     16:
     :
0000
0000
0000
0000
,
0000
0000
0000
0000
,
0000
0000
0000
0000
,
0000
0000
0000
0000
,
0000
0000
0000
0000
,
1010
0000
0000
0000
0101
0000
0010
0100
0000
0100
1000
0000
0001
0000
0100
0000
,
1000
0000
0100
0000
0010
0000
0100
0001
0000
0001
1000
0000
0010
0000
0100
0000
,
0010
0000
1000
0000
0001
0000
0010
0100
0000
1000
0001
0000
1000
0000
0010
0000
,
0100
0000
1000
0000
0100
0000
0001
0010
0000
0001
1000
0010
0100
0000
0001
0000
,
1000
0000
0100
0000
0010
0000
0100
0010
0000
0100
0010
0100
0010
0000
0001
0000
,
0110
0000
0000
0000
0001
0010
0000
0000
0001
0100
0000
0000
0010
1000
0000
0000
,
0100
0000
1000
0010
1000
0000
0001
0000
0100
0000
0010
0000
0110
0000
0000
0000
,
1000
0000
0000
0000
0001
0010
0000
0000
0001
0100
0000
0000
0010
1000
0000
0000
,
0100
0000
0010
0001
0010
0000
0100
0000
1000
0000
0001
0000
0101
0000
0000
0000
,
0010
0000
0000
0000
1000
0001
0000
0000
0010
0000
0001
0100
0001
0000
2000
0000
,
0010
0000
3100
1000
0001
0100
1010
0000
,
0001
0100
0000
0000
0001
1000
0000
0000
0010
1000
0000
0000
0110
0000
0011
0000
,
0100
0000
0101
0000
1000
0000
1010
0000
0001
0000
0101
0000
1001
0000
0010
1000
,
0100
0000
0000
0000
0010
0001
0000
0000
1000
0001
0000
0000
0100
0010
0000
0000
,
1000
0100
0010
0100
1000
0000
0001
0000
0100
0000
0010
0000
0110
0000
0000
0000
,
1000
0000
0000
0000
0010
1000
0000
0000
0100
0010
0000
0000
0001
1000
0000
0000
,
0001
0000
0100
0010
1000
0000
0001
0000
0010
0000
0100
0000
1000
0000
0000
0000
,
1010
0000
0001
0100
0001
0000
1000
0100
1000
0000
0010
0000
0100
0000
0102
0000
,
0000
0000
1000
0000
1003
0000
0000
0000
0001
0010
0100
1000
0010
0000
0100
0001
,
1000
0000
0000
0000
0010
1000
0010
0000
0100
0001
0100
0000
0001
1000
0001
0000
,
0010
0100
1000
0100
0010
0000
0001
0000
0100
0000
0010
0000
1000
0000
1100
0000
,
1001
0000
0000
0000
0010
0100
0010
0000
0001
1000
0001
0000
0100
0010
0100
0000
,
0010
1000
0001
1000
0100
0000
0010
0000
0001
0000
0100
0000
1000
0000
1001
0000
,
0110
0000
0000
0000
0001
0010
0001
0000
1000
0100
1000
0010
0100
0000
0002
0000
,
0010
0100
1003
0001
0100
0010
0101
0000
,
1000
0010
1000
0000
0001
0010
0001
0000
0100
0010
0100
0000
0110
0000
1010
0000
,
0001
0000
0011
0000
0100
0000
1100
0000
0010
0000
0110
0000
1001
0000
1000
0001
,
0100
0000
0000
0000
0010
1000
0010
0000
1000
0100
1000
0000
0001
0100
0001
0000
,
0010
0100
0010
0001
1000
0000
0010
0000
0100
0000
0001
0000
1010
0000
0000
0000
,
0100
0000
0001
0010
0100
1000
0001
0100
,
1000
0100
0001
0010
0100
1000
0001
0100
,
0010
0000
1000
0100
1000
0000
0001
0100
0001
0000
1000
0000
0010
0000
0102
0000
,
0000
0000
0010
0000
0013
0000
0000
0000
0001
1000
0001
0000
0100
0010
1000
0001
,
0100
0000
0010
1000
0010
0000
0100
0001
0100
0000
0001
0010
0100
0000
2100
0000
,
0000
0000
0001
0000
3001
0000
0000
0000
1000
0010
0100
0000
0001
1000
0100
0000
,
0010
0000
1000
0000
0010
0000
0001
0000
0100
0010
1000
0000
0001
0000
0000
0000
,
0010
0000
0100
1000
0001
0000
0100
0000
0000
0000
0010
0000
1001
0000
0100
0000
,
0001
0010
0110
0100
1100
0001
0101
0100
,
0010
1000
0001
0000
0010
0100
1000
0000
0010
0100
0001
0000
1000
0100
0010
0000
,
0001
0000
0100
0000
0010
0000
1000
0000
0100
0010
0001
0000
1000
0000
0000
0000
,
0001
0000
0100
0010
1000
0000
0001
0000
0000
0000
0100
0000
1010
0000
0001
0000
,
1000
0100
0110
0010
0011
0001
1001
0100
,
1010
0000
1000
0100
1000
0000
0011
0000
0100
0001
0100
0000
0110
0000
1000
0001
,
0100
0000
0010
1000
1100
0110
0011
0100
,
0010
0000
1000
0000
1000
0000
0001
0000
0101
0000
0110
0000
1010
0000
1000
0100
,
1000
0000
0001
0100
0001
0000
0010
0100
1000
0000
0010
0100
0001
0000
1000
0100
,
0010
0000
0100
0010
0001
0000
0100
0010
1000
0000
0001
1000
0100
0000
0010
0001
,
0100
0000
0000
0000
0010
1000
0001
0000
1001
0000
1010
0000
1100
0000
0010
0001
,
0100
0000
0010
0000
0010
0000
1000
0000
1010
0000
1001
0000
0011
0000
0100
1000
,
0001
0000
0100
0001
0010
0000
0001
1000
0001
0000
0100
0010
1000
0000
0100
0010
,
0001
0000
1000
0100
1000
0000
0010
0100
0001
0000
1000
0100
0010
0000
0001
1000
,
0010
0000
0000
0000
0100
0001
0010
0001
1000
0000
0010
0000
0010
0000
0100
0000
,
0001
0000
1000
0000
1000
0000
0100
0000
0010
0001
0010
0100
1000
0000
0000
0000
,
0001
0010
0001
0000
1000
0010
1000
0000
0001
0100
0001
0000
1000
0100
1000
0000
,
0001
0010
0100
1000
0010
0100
0001
1000
0100
0000
0000
0000
0110
0000
0000
0000
,
0010
0001
0010
0100
1000
0010
1000
0001
0100
0000
0000
0000
0110
0000
0000
0000
,
0001
0010
0001
0010
0100
1000
0100
1000
0010
0100
0010
0100
0001
1000
0001
1000
,
0020
0100
0100
0100
,
0130
0000
0000
0000
;

//---------------dance-double - ----------------
#NOTES:
     dance-double:
     :
     Easy:
     6:
     :
00000000
00000000
00000000
00000000
,
00000000
00000000
00000000
00000000
,
00000000
00000000
00000000
00000000
,
00000000
00000000
00000000
00000000
,
00000000
00000000
00000000
00000000
,
10000000
00000000
10000000
01000000
,
00010000
00000000
00010000
00001000
,
00000100
00000000
00000100
00000010
,
00001000
00000001
00001000
00000001
,
00000200
00000000
00000000
00000300
,
00001000
00010000
00100000
10000000
,
00100000
00010000
00001000
00000100
,
00001000
00010000
01000000
10000000
,
01000000
00010000
00001000
00000010
,
00001000
00010000
01000000
00010000
,
00001000
00000010
00000100
00001000
,
00000010
00000010
00001001
00000000
,
00000100
00000100
00001000
00011000
,
00010000
00001000
00000100
00000001
,
00000100
00001000
00010000
00100000
,
00010000
00001000
00000010
00000001
,
00000010
00001000
00010000
01000000
,
00010000
00001000
00000010
00001000
,
00010000
01000000
00100000
10010000
,
10000000
01000000
00100000
00010000
,
00001000
00000100
00000010
00000110
,
00000100
00000010
00001000
00010000
,
01000000
00100000
00010000
00110000
,
01000000
00100000
10000000
01000000
,
00010000
00001000
00000010
00000011
,
00001000
00001000
00001001
00000100
,
00001000
00010000
00100000
01100000
,
10000000
00100000
01000000
00010000
,
00001000
00000010
00000100
00000110
,
00000010
00000100
00001000
00010000
,
00100000
01000000
00010000
01010000
,
00100000
01000000
10000000
00100000
,
00010000
00001000
00000100
00000101
,
00001000
00001000
00000001
00000001
,
00000100
00001000
00010000
00011000
,
00010000
00100000
10000000
00100000
,
00010000
00001000
00000100
00000110
,
00000100
00000001
00000010
00001000
,
00010000
00011000
01000000
01100000
,
10000000
01000000
00010000
00001000
,
00000010
00000001
00000010
00000110
,
00001000
00000001
00000100
00001000
,
00010000
00000000
00000000
00011000
,
00010000
00100000
00010000
00011000
,
00001000
00000010
00001000
00011000
,
00010000
00100000
10000000
01000000
,
00010000
00001000
00010000
00011000
,
00001000
00000010
00001000
00011000
,
00010000
00100000
00010000
00011000
,
00001000
00000010
00000001
00000100
,
00001000
00010000
00001000
00011000
,
00010000
00100000
10000000
10100000
,
10000000
01000000
00010000
01010000
,
00010000
00001000
00000100
00000010
,
00001000
00001000
00000001
00000001
,
00000100
00000100
00001000
00001000
,
00010000
01000000
10000000
00010000
,
20020000
00000000
00000000
30030000
,
00000000
00000000
00000000
00000000
;

//---------------dance-double - ----------------
#NOTES:
     dance-double:
     :
     Medium:
     9:
     :
00000000
00000000
00000000
00000000
,
00000000
00000000
00000000
00000000
,
00000000
00000000
00000000
00000000
,
00000000
00000000
00000000
00000000
,
00000000
00000000
00000000
00000000
,
01000000
00000000
00100000
00000000
10000000
01000000
00010000
00000000
,
00001000
00000000
00010000
00000000
00000100
00000001
00000010
00000000
,
00000001
00000000
00000100
00000000
00001000
00010000
01000000
00000000
,
00010000
00000000
00001000
00000000
00000010
00000001
00000010
00001000
,
02000000
00000000
00000000
03000000
,
00100000
01010000
10010000
10100000
,
10000000
01000000
00010000
00001000
,
00000010
00001100
00001001
00000011
,
00000001
00000100
00001000
00010000
,
01000000
11000000
10010000
00110000
,
10000000
01000000
00100000
00001000
,
00010000
00000000
00010100
00000000
00001001
00000000
00000100
00000010
,
00000000
00010010
00000000
00011000
00000000
00100000
01000000
00000000
,
00010000
00001000
00000010
00000100
,
00001000
00000000
00010000
00100000
00000000
01000000
10000000
00000000
,
01000000
00100000
00010000
00001000
,
00000100
00000000
00000010
00000001
00000000
00001000
00000100
00000000
,
00000010
00000001
00001001
00000100
,
00001000
00010000
01100000
10010000
,
01000000
00110000
10010000
11000000
,
10000000
00100000
00010000
00001000
,
00000100
00001010
00001001
00000101
,
00000001
00000010
00001000
00010000
,
00100000
10100000
10010000
01010000
,
10000000
00100000
01000000
00001000
,
00010000
00000000
00010010
00000000
00001001
00000000
00000010
00000100
,
00000000
00010100
00000000
00011000
00000000
01000000
00100000
00000000
,
00010000
00001000
00000100
00000010
,
00001000
00000000
00010000
01000000
00000000
00100000
10000000
00000000
,
00100000
01000000
00010000
00001000
,
00000010
00000000
00000100
00000001
00000000
00001000
00000010
00000000
,
00000100
00000001
00001001
00000010
,
00001000
00010000
01100000
10010000
,
01000000
00010000
00001000
00011000
,
00000010
00000100
00000001
00000010
00001000
00000000
00011000
00000000
,
00010000
00100000
00010000
00000000
00100000
00000000
10100000
00000000
,
01000000
01010000
00100000
00101000
,
00001000
00000010
00001000
00000000
00000010
00000000
00000011
00000000
,
00001001
00010100
00011000
00110000
,
01000000
10000000
00100000
00000000
01000000
00000000
00101000
00000000
,
00010000
00010100
00001000
00000110
,
00000010
00000001
00001000
00000000
00000100
00000000
00000011
00000000
,
00000100
00000000
00001000
00010000
00000000
00000000
00011000
00000000
,
00010000
00100000
00010000
00001000
00000100
00000000
00000110
00000000
,
00000001
00000010
00000001
00000100
00001000
00000000
00011000
00000000
,
01100000
11000000
10010000
00101000
,
00011000
00010100
00000110
00000011
,
00001000
00000100
00010000
00001000
00100000
00000000
01100000
00000000
,
10000000
01000000
10000000
00100000
00010000
00000000
00011000
00000000
,
00000110
00000011
00001001
00010100
,
00011000
00101000
01100000
11000000
,
00100000
00010000
00001000
00000100
00000010
00000000
00001001
00000000
,
00000010
00001000
00010000
01000000
00100000
00000000
10010000
00000000
,
11000000
00110000
01001000
00011000
,
00010100
00000100
00000010
00000011
,
00000101
00000100
00000010
00010010
,
00001000
00010000
00001000
00000000
01000000
00100000
10000000
01000000
,
20020000
00000000
00000000
30030000
,
00000000
00000000
00000000
00000000
;

//---------------dance-double - ----------------
#NOTES:
     dance-double:
     :
     Hard:
     13:
     :
00000000
00000000
00000000
00000000
,
00000000
00000000
00000000
00000000
,
00000000
00000000
00000000
00000000
,
00000000
00000000
00000000
00000000
,
00000000
00000000
00000000
00000000
,
00100000
00000000
00000000
00000000
10000000
00000000
00000000
01000000
00000000
00000000
00010000
00000000
00100000
00000000
00001000
00000000
,
00010000
00000000
00000000
00000000
00001000
00000000
00000000
00000100
00000000
00000000
00000001
00000000
00001000
00000000
00000010
00000000
,
00001000
00000000
00000000
00000000
00000001
00000000
00000000
00000100
00000000
00000010
00010000
00000000
00001000
00000000
00000000
00000000
,
00000010
00000000
00000001
00000000
00000100
00000000
00001000
00010000
00000000
00001000
01000000
00000000
00100000
00000000
10000000
00000000
,
02000000
00000000
00000000
03000000
,
00100000
00000000
00000000
00000000
11000000
00000000
00000000
00000000
00100000
00000000
01000000
00000000
00010000
00000000
00000000
00001000
,
00010000
00000000
01000000
10000000
00000000
00100000
00010000
00001000
,
00000010
00000000
00000000
00000000
00000110
00000000
00000000
00000000
00010000
00000000
00000100
00000000
00000010
00000000
00000000
00000001
,
00000100
00000000
00001000
00000100
00000000
00000001
00000010
00001000
,
00010000
00000000
01010000
00000000
00100000
10000000
01000000
00100000
,
00000000
00000000
00001000
00010000
00000000
00001000
00000100
00000001
,
00000001
00000100
00000000
00000000
00000100
00001000
00000000
00000000
00001000
00010000
00000000
00000000
01000000
00000000
01000000
00000000
,
00000000
01100000
00000000
00110000
00000000
10000000
01000000
00010000
,
01000000
00000000
10010000
00000000
00100000
00010000
00001000
00000000
,
00010000
00000000
00001000
00000100
00000000
00000010
00001000
00000001
,
00000100
00000000
00001010
00000000
00000100
00000001
00000010
00000000
,
00001000
00000000
00010000
00001000
00000000
01000000
00100000
10000000
,
01000000
00010000
00001000
00000000
00011000
00000000
00010000
01000000
,
00000000
00000000
00010000
00000000
00001000
00000000
00000000
00000000
00000010
00000100
00000010
00000000
00000001
00000000
00001001
00000000
,
00000100
00000000
00000000
00000000
00000011
00000000
00000000
00000000
00000100
00000000
00000010
00000000
00001000
00000000
00000000
00010000
,
00001000
00000000
00000010
00000001
00000000
00000100
00001000
00010000
,
01000000
00000000
00000000
00000000
01100000
00000000
00000000
00000000
00001000
00000000
00100000
00000000
01000000
00000000
00000000
10000000
,
00100000
00000000
00010000
00100000
00000000
10000000
01000000
00010000
,
00001000
00000000
00001010
00000000
00000100
00000001
00000010
00000100
,
00000000
00000000
00010000
00001000
00000000
00010000
00100000
10000000
,
10000000
00100000
00000000
00000000
00100000
00010000
00000000
00000000
00010000
00001000
00000000
00000000
00000010
00000000
00000010
00000000
,
00000000
00000110
00000000
00001100
00000000
00000001
00000010
00001000
,
00000010
00000000
00001001
00000000
00000100
00001000
00010000
00000000
,
00001000
00000000
00010000
00100000
00000000
01000000
00010000
10000000
,
00100000
00000000
01010000
00010000
00100000
00000000
10000000
01000000
,
00000000
00010000
00001000
00010000
00000000
00000010
00000100
00000001
,
00000010
00001000
00010000
00000000
00011000
00000000
00001000
00000010
,
00000000
00001000
00010000
00000000
01000000
00100000
10010000
00000000
,
11000000
00000000
01100000
00000000
00101000
00000000
00010000
00000100
,
00000000
00000010
00000001
00000000
00001000
00000100
00000011
00000000
,
00000001
00000000
00000100
00000000
00001000
00000000
00010000
00000000
00001000
01000000
00000000
01000000
00100000
00000000
10000000
00000000
,
01000000
00010000
00001000
00010000
00000000
01000000
10000000
00100000
,
00000000
00010000
00001000
00000100
00000001
00000000
00000010
00000001
,
00000100
00001000
00000000
00000000
00001000
00010000
00000000
00000000
00010000
00100000
00000000
00000000
00100000
01000000
00000000
00000000
,
10000000
00000000
01000000
00000000
00010000
00000000
00100000
00000000
01000000
00010000
00000000
00010000
00001000
00000000
00001000
00000000
,
00000010
00000001
00000100
00001000
00000000
00000100
00000001
00000010
,
00000000
00000001
00000010
00001000
00010000
01000000
10000000
00100000
,
01010000
00000000
00010000
10010000
00000000
00100000
01100000
00000000
,
01000000
00000000
00010000
00000000
00001000
00000000
00000010
00000000
00000001
00001000
00000000
00000000
00000100
00000000
00000010
00000000
,
00000001
00000000
00000100
00000000
00001000
00000000
00010000
00000000
00001000
01000000
00000000
00000000
00100000
00000000
10000000
00000000
,
01000000
00100000
00000000
00000000
00100000
00001000
00000000
00000000
00001000
00010000
00000000
00000000
00010000
00000100
00000000
00000000
,
00000100
00000010
00000000
00000000
00000010
00000001
00000000
00000000
00000001
00000100
00000000
00000000
00000100
00001000
00000000
00000000
,
00001000
00000000
00000100
00000000
00000001
00000000
00000010
00000000
00000100
00000010
00000000
00000000
00000001
00000000
00000100
00000000
,
00001000
00000000
00010000
00000000
00001000
00000000
00000100
00000000
00000010
00001000
00000000
00000000
00000001
00000000
00000100
00000000
,
00000001
00000010
00000000
00000000
00000010
00001000
00000000
00000000
00001000
00010000
00000000
00000000
00010000
01000000
00000000
00000000
,
01000000
00100000
00000000
00000000
00100000
00001000
00000000
00000000
00001000
00010000
00000000
00000000
00010000
00000100
00000000
00000000
,
00000010
00000001
00000100
00001000
00010000
00100000
00010000
00001000
,
00000100
00001000
00010000
01000000
10000000
00100000
10010000
00000000
,
00100000
00010000
00000000
00000000
00010000
00001000
00000000
00000000
00001000
00000100
00000000
00000000
00000100
00000001
00000000
00000000
,
00001000
00001000
00001000
00000000
00001100
00000000
00010010
00000000
,
00001000
00001000
00001000
00000000
01001000
00000000
00110000
00000000
,
00100000
00001000
00000000
00001000
00010000
00000000
00010000
00000100
00000000
00000100
00000010
00000000
00000001
00000000
00000001
00000000
,
00000220
00000000
00000000
00000330
,
00000000
00000000
00000000
00000000
;
