#TITLE:「カルメン」前奏曲;
#ARTIST:ヴァイオレント・ストリング・アンサンブル;
#TITLETRANSLIT:CARMEN PRELUDE;
#ARTISTTRANSLIT:VIOLENT STRING ENSEMBLE;
#BANNER:CARMEN PRELUDE-bn.png;
#BACKGROUND:CARMEN PRELUDE-bg.png;
#JACKET:CARMEN PRELUDE-jacket.png;
#MUSIC:CARMEN PRELUDE.ogg;
#SAMPLESTART:23.125;
#SAMPLELENGTH:20;
#DISPLAYBPM:177;
#BPMS:0=177;
#BGCHANGES:;

//---------------dance-single - ----------------
#NOTES:
     dance-single:
     :
     Beginner:
     2:
     :
0000
0000
0000
0000
,
0000
0000
0000
0000
,
0000
0000
0000
0000
,
0000
0000
0000
0000
,
0000
0000
0000
0000
,
0001
0000
0000
0000
,
0000
0000
0000
0000
,
1000
0000
0000
0000
,
0001
0000
0000
0000
,
1000
0000
1000
0000
,
1000
0000
0000
0000
,
0001
0000
0001
0000
,
0001
0000
0000
0000
,
1000
0000
1000
0000
,
1000
0000
0000
0000
,
0001
0000
0001
0000
,
0010
0000
0000
0000
,
1000
0000
1000
0000
,
1000
0000
0000
0000
,
0001
0000
0001
0000
,
0001
0000
0000
0000
,
1000
0000
1000
0000
,
1000
0000
0000
0000
,
0001
0000
0001
0000
,
0010
0000
0000
0000
,
1000
0000
0000
0000
,
0000
0000
0000
0000
,
0001
0000
0000
0000
,
0000
0000
0000
0000
,
1001
0000
0000
0000
,
0000
0000
0000
0000
,
1001
0000
0000
0000
,
0010
0000
0000
0000
,
0010
0000
0000
0000
,
1000
0000
0000
0000
,
0000
0000
0000
0000
,
0001
0000
0000
0000
,
0000
0000
0000
0000
,
0010
0000
0000
0000
,
0000
0000
0000
0000
,
1000
0000
0000
0000
,
0001
0000
0000
0000
,
1001
0000
0000
0000
,
1001
0000
0000
0000
,
1001
0000
0000
0000
,
1001
0000
0000
0000
,
0000
0000
0000
0000
,
1000
0000
1000
0000
,
1000
0000
0000
0000
,
0001
0000
0001
0000
,
0001
0000
0000
0000
,
1000
0000
1000
0000
,
1000
0000
0000
0000
,
0001
0000
0001
0000
,
0010
0000
0010
0000
,
1000
0000
1000
0000
,
0001
0000
0001
0000
,
1000
0000
1000
0000
,
0010
0000
0010
0000
,
0001
0000
0001
0000
,
1000
0000
1000
0000
,
0001
0000
0001
0000
,
1000
0000
0001
0000
,
1001
0000
0000
0000
;

//---------------dance-single - ----------------
#NOTES:
     dance-single:
     :
     Easy:
     4:
     :
0000
0000
0000
0000
,
0000
0000
0000
0000
,
0000
0000
0000
0000
,
0000
0000
0000
0000
,
0000
0000
0000
0000
,
0001
0000
0010
0000
,
1000
0000
0100
0000
,
1000
0000
0001
0000
,
0001
0000
1001
0000
,
1000
0000
0100
0000
,
1000
0000
0000
0000
,
0001
0000
0100
0000
,
0001
0000
1001
0000
,
0001
0000
0100
0000
,
0001
0000
0000
0000
,
1000
0000
0100
0000
,
2000
0000
3001
0000
,
1000
0000
0100
0000
,
1000
0000
0000
0000
,
0001
0000
0100
0000
,
0001
1000
1001
0000
,
0001
0000
0100
0000
,
0001
0000
0000
0000
,
1000
0000
0100
0000
,
1000
0000
0001
0000
,
2000
0000
3000
0000
,
0200
0000
0300
0000
,
0002
0000
0003
0000
,
0200
0000
0300
0000
,
1001
0000
0000
0000
,
1000
0001
1000
0000
,
1001
0000
0000
0000
,
0001
0000
1000
0001
,
1000
0000
0000
0000
,
0001
0000
0001
0000
,
1000
0001
1000
0000
,
0001
0000
0100
0000
,
1000
0100
0100
0000
,
1000
0000
1000
0000
,
0001
1000
0001
0000
,
0100
0000
0000
0000
,
1001
0000
0110
0000
,
1000
0000
0001
0000
,
1000
0000
0001
0000
,
0100
0000
0010
0000
,
1000
0000
0001
0000
,
0000
0000
0000
0000
,
1000
0000
0100
0000
,
1000
0000
0001
0000
,
0001
0000
0100
0000
,
0001
1000
1001
0000
,
0001
0000
0100
0000
,
0001
0000
1000
0000
,
1000
0000
0100
0000
,
2000
0000
3000
0000
,
0100
0100
0100
0000
,
1000
0000
0100
0000
,
0010
0010
0010
0000
,
0100
0000
0001
0000
,
0001
0001
0001
0000
,
0001
0000
0100
0000
,
0100
0100
0100
0000
,
0100
0000
1000
0000
,
1001
0000
0000
0000
,
1001
0000
0000
0000
;

//---------------dance-single - ----------------
#NOTES:
     dance-single:
     :
     Medium:
     8:
     :
0000
0000
0000
0000
,
0000
0000
0000
0000
,
0000
0000
0000
0000
,
0000
0000
0000
0000
,
0000
0000
0000
0000
,
0001
0100
0010
0100
,
1000
1000
0100
1000
,
1000
0100
1000
0000
0001
0010
0001
0000
,
0001
1000
0100
0000
0010
0000
1001
0000
,
1000
0100
0010
0000
1000
0100
0010
0000
,
1000
1000
0001
0001
,
0001
0100
0010
0000
0001
0100
0010
0000
,
0001
1000
1001
0000
,
0001
0010
0100
0000
0001
0010
0100
0000
,
0001
0001
1000
1000
,
1000
0010
0100
0000
1000
0010
0100
0000
,
2000
0000
3100
0010
,
1000
0100
0010
0000
1000
0100
0010
0000
,
1000
1000
0001
0001
,
0001
0100
0010
0000
0001
0100
0010
0000
,
0001
1000
1001
0000
,
0001
0010
0100
0000
0001
0010
0100
0000
,
0001
0001
1000
1000
,
1000
0010
0100
0000
1000
0010
0100
0000
,
1000
0000
0100
0010
0100
1000
0001
0000
,
1000
0100
1000
0000
1000
0010
0100
0000
,
0100
0001
0010
0000
0001
0000
1000
0000
,
0001
0100
0001
0000
0001
0010
0100
0000
,
0100
1000
0010
0000
1000
0000
0001
0000
,
0101
0000
1100
0000
,
1000
0001
0100
0000
1000
0001
0100
0000
,
1100
0000
0101
0000
,
0001
0001
0000
1000
1000
0000
0001
0000
,
1001
0000
0000
0000
,
0001
1000
0001
0000
0100
0000
0100
0000
,
1000
0100
1000
0000
0010
0000
0010
0000
,
0001
0100
0010
0000
1000
0000
1000
0000
,
1000
0001
0100
0000
0001
0000
0001
0000
,
1000
0001
1000
0000
0100
0000
0100
0000
,
0001
0100
0001
0000
0010
0000
0010
0000
,
0000
0001
0000
0001
0000
1000
0000
1000
,
1100
0001
1100
0001
,
1000
1000
0010
0010
,
0001
0001
0010
0010
,
1000
0001
1000
0000
0001
1000
0001
0000
,
0100
0010
0100
0000
0010
0100
0010
0100
,
0000
0000
0000
0000
,
1000
0100
0010
0000
1000
0100
0010
0000
,
1000
1000
0001
0001
,
0001
0100
0010
0000
0001
0100
0010
0000
,
0001
1000
1001
0000
,
0001
0010
0100
0000
0001
0010
0100
0000
,
0001
0001
1000
1000
,
1000
0010
0100
0000
1000
0010
0100
0000
,
1000
0100
0100
0000
1000
0000
0001
0000
,
1000
0010
1000
0010
1000
0001
0100
0000
,
0001
1000
0001
0000
0010
0000
1000
0000
,
1000
0100
0010
0100
0010
0001
0010
0000
,
0001
0100
1000
0000
0001
1000
0100
0000
,
0001
0010
0001
0010
0001
1000
0100
0000
,
1000
0001
1000
0000
0010
0000
0001
0000
,
0001
0100
0010
0100
0010
1000
0010
0000
,
1000
0000
0001
0000
1000
0001
0100
0000
,
1001
0000
0000
0000
0000
1001
0000
1000
,
0001
0000
0000
0000
;

//---------------dance-single - ----------------
#NOTES:
     dance-single:
     :
     Hard:
     13:
     :
0000
0000
0000
0000
,
0000
0000
0000
0000
,
0000
0000
0000
0000
,
0000
0000
0000
0000
,
0000
0000
0000
0000
,
1000
0000
0001
0000
1000
0010
0100
0000
,
0001
0010
0001
0010
0100
0000
1000
0000
,
1000
0001
0100
0001
1000
0100
0010
0000
,
0001
1000
0100
0010
0100
0000
1001
0000
,
1000
0100
0001
0000
0001
0100
1000
0000
,
1000
0010
1000
0100
1000
0010
1000
0000
,
0001
0100
0001
0000
1000
0100
1000
0000
,
0001
0100
0001
1000
0100
1000
0001
0000
,
0001
0100
1000
0000
1000
0100
0001
0000
,
0001
0010
0001
0100
0001
0010
0001
0000
,
1000
0100
1000
0000
0001
0100
0001
0000
,
1000
0000
1000
0000
0100
0001
1000
0000
,
1000
0100
0001
0000
0001
0100
1000
0000
,
1000
0010
1000
0100
1000
0010
1000
0000
,
0001
0100
0001
0000
1000
0100
1000
0000
,
0001
0100
0001
1000
0100
1000
0001
0000
,
0001
0100
1000
0000
1000
0100
0001
0000
,
0001
0010
0001
0100
0001
0010
0001
0000
,
1000
0100
1000
0000
0001
0100
0001
0000
,
1000
1000
1000
0100
0100
0001
1000
0000
,
1000
0100
1000
0001
1000
0010
0100
0001
,
0010
0001
0100
0010
1000
0100
0001
0000
,
0001
0100
0001
1000
0001
0010
0100
1000
,
0010
1000
0100
0010
0001
0100
1000
0000
,
0101
0101
1100
1100
,
1000
0100
0010
0100
1000
0100
0010
0000
,
1100
1100
0101
0101
,
0001
0100
0000
0001
0100
0000
0001
0000
,
1001
0000
0000
0000
,
0001
0000
0100
0000
0010
1000
0000
0000
0001
0000
0000
0010
0000
0000
0001
0000
,
1000
0000
0100
0000
0001
0100
0000
0000
0010
0000
0000
0010
0000
0000
0010
0000
,
1000
0000
0100
0000
1000
0001
0000
0000
0100
0000
0000
0010
0000
0000
0100
0000
,
0001
0000
0010
0000
0100
0010
0000
0000
0100
0000
0000
1000
0000
0000
0100
0000
,
1000
0000
0100
0000
0010
0001
0000
0000
1000
0000
0000
0010
0000
0000
1000
0000
,
0001
0000
0100
0000
1000
0100
0000
0000
0010
0000
0000
0010
0000
0000
0010
0000
,
0000
0011
0000
0011
0000
1100
0000
1100
,
1100
0101
1100
0101
,
1000
0100
1000
0000
0010
0001
0010
0000
,
0001
0100
0001
0000
0010
1000
0010
0000
,
1000
1000
0001
0001
1000
1000
0010
0010
,
0100
0100
0100
0100
0010
0100
0100
0100
,
0000
0000
0000
0000
,
1000
0100
0001
0000
0001
0100
1000
0000
,
1000
0010
1000
0100
1000
0010
1000
0000
,
0001
0100
0001
0000
1000
0100
1000
0000
,
0001
0100
0001
1000
0100
1000
0001
0000
,
0001
0100
1000
0000
1000
0100
0001
0000
,
0001
0010
0001
0100
0001
0010
0001
0000
,
1000
0100
1000
0000
0001
0100
0001
0000
,
1000
1000
0001
0001
0100
0010
0100
0000
,
1000
0000
0010
0000
1000
0100
1000
0100
1000
0000
0001
0000
0100
0000
0000
0000
,
0001
1000
0001
0000
0010
0100
1000
0001
,
1000
0000
0100
0010
0100
0010
0100
0010
0100
0000
0001
0000
0010
0000
0000
0000
,
0001
0000
0100
0010
1000
0000
0100
0010
0001
0000
1000
0000
0100
0000
0100
0000
,
0001
0000
0010
0000
0001
0100
0001
0100
0001
0000
1000
0000
0100
0000
0000
0000
,
1000
0001
1000
0000
0010
0100
0001
1000
,
0001
0000
0100
0010
0100
0010
0100
0010
0100
0000
1000
0000
0010
0000
0000
0000
,
1000
0000
0100
0010
0001
0000
0100
0010
1000
0000
0001
0000
0100
0000
0100
0000
,
1001
0000
0000
0000
0000
1001
0000
1000
,
0100
0000
0000
0000
;

//---------------dance-single - ----------------
#NOTES:
     dance-single:
     :
     Challenge:
     17:
     :
0000
0000
0000
0000
,
0000
0000
0000
0000
,
0000
0000
0000
0000
,
0000
0000
0000
0000
,
0000
0000
0000
0000
,
1001
0000
0010
1000
0010
1000
0010
1000
0100
0000
0010
0001
0010
0001
0010
0001
,
0100
0000
0001
0010
0100
1000
0010
1000
0200
0000
0000
0000
0300
0000
0000
0000
,
0010
0000
0001
1000
0001
1000
0001
1000
0100
0000
1000
0001
1000
0001
1000
0001
,
0010
0000
0001
0100
0001
0000
1000
0100
2000
0000
0000
0000
3001
0000
0000
0000
,
1001
0000
0010
0100
0010
0100
0010
0100
0001
0000
0010
0100
0010
0100
0010
0100
,
1000
0000
0001
0100
0001
1000
0100
0010
0002
0000
0000
0000
0003
0000
0000
0000
,
0101
0000
0001
0010
0001
0010
0001
0010
0100
0000
1000
0001
1000
0001
1000
0001
,
0100
0000
0010
1000
0001
0000
0010
0100
1000
0001
0000
1000
0001
0000
0100
0000
,
0110
0000
0010
1000
0010
1000
0010
1000
0001
0000
1000
0100
1000
0100
1000
0100
,
0010
0000
0001
1000
0010
1000
0100
0010
0002
0000
0000
0000
0003
0000
0000
0000
,
1000
0000
0001
0100
0001
0100
0001
0100
0010
0000
1000
0100
1000
0100
1000
0100
,
0010
0000
0001
1000
0001
0000
1000
0001
1000
0000
0010
0100
0010
0000
1000
0000
,
1100
0000
0010
0001
0010
0100
1000
0010
0100
0000
0001
1000
0001
0010
0100
1000
,
0001
0000
1000
0010
1000
0100
0010
0001
1000
0010
0000
1000
0010
0000
0100
0000
,
0101
0000
0001
0010
0001
1000
0010
0100
0001
0000
1000
0100
0010
0100
0010
0001
,
0100
0000
0010
1000
0100
0000
0010
0001
0100
0010
0000
1000
0001
0000
0100
0000
,
0110
0000
0010
1000
0001
1000
0100
0010
0100
0000
1000
0001
0010
0100
0010
0001
,
1000
0000
0010
0100
0001
1000
0100
0010
0001
1000
0010
1000
0000
0001
0100
0000
,
0101
0000
0001
0010
0100
0010
0100
0010
0001
0000
1000
0010
0100
0010
0100
0010
,
1000
0000
0001
0010
0100
0000
1000
0010
0100
0001
0100
0001
0100
0001
0100
0001
,
2000
0000
3020
0000
0230
0000
0302
0000
0023
0000
0130
1000
0001
0000
0100
0000
,
0002
0000
0023
0000
0230
0000
2300
0000
3020
0000
1030
0001
0100
0000
0000
0000
,
1001
0000
0002
0000
0023
0000
0230
0000
2300
0000
3010
1000
0100
0000
0001
0000
,
0020
0000
0230
0000
0320
0000
0032
0000
2003
0000
3001
0100
0010
0000
1000
0000
,
0101
1100
0101
1100
,
0011
0000
1001
0000
1010
0000
1100
0000
0110
0000
0011
0000
0101
0000
0010
1000
,
0001
0000
0010
0001
0100
0000
0010
1000
0100
0000
1000
0001
0100
0000
0010
1000
,
0002
0000
0100
0000
0000
0000
1000
0000
1003
0000
0001
0010
0100
0000
1000
0000
,
0010
0000
0100
0001
0000
0100
0001
0000
0100
0000
0001
1000
0000
0001
1000
0000
,
1001
0000
0010
0000
1000
0100
0000
0100
0001
0000
1000
0010
0000
0010
0001
0000
,
0100
0000
0010
0000
1000
0001
0000
0001
0010
0000
0010
0100
0000
0100
1000
0000
,
0100
0000
1000
0000
0010
0100
0000
0100
0001
0000
0001
0010
0000
0010
0100
0000
,
1000
0000
0001
0000
1000
0010
0000
0010
0100
0000
0100
0001
0000
0001
0010
0100
,
1000
0000
0001
0000
1000
0010
0000
0010
0001
0000
1000
0100
0000
0100
0001
0000
,
0010
0000
0100
0000
0010
0001
0000
0001
1000
0000
0010
1000
0000
1000
0001
0000
,
0100
0000
0001
0010
0100
0010
0001
0010
0100
1000
0100
0010
0100
1000
0100
0010
,
0001
1000
0001
1000
,
1001
0000
0010
1000
0100
0010
0001
0100
0001
0000
1000
0001
1000
0010
0100
0001
,
0010
0000
0100
1000
0010
1000
0010
0100
0001
0000
1000
0001
0010
0001
0100
0010
,
1000
0000
0100
0010
0001
0000
0100
0010
1000
0000
0001
1000
0001
0000
0010
0100
,
1000
0000
1000
0000
1000
0000
1000
0000
1000
0100
0001
0000
1000
0100
0001
0000
,
0010
0000
0000
0000
0010
0000
0000
0000
0010
0000
0001
1000
0100
0000
0000
0000
,
0110
0000
0001
0010
1000
0010
0001
0010
0100
0000
1000
0010
0001
0010
1000
0001
,
0100
0000
0010
1000
0010
0001
0010
1000
0010
0100
0001
1000
0000
0001
0010
0000
,
1000
0000
0100
0001
0100
0010
0100
1000
0010
0000
0100
1000
0100
0010
0100
0001
,
0100
0000
0010
1000
0001
0000
0010
0100
1000
0000
0000
0001
0100
0000
0010
0000
,
1010
0000
0100
1000
0100
0001
0010
0100
1000
0000
0001
0100
1000
0100
0001
0100
,
0010
0000
1000
0001
0010
1000
0010
0001
0100
0010
1000
0001
0000
0010
0100
0000
,
1000
0000
0001
0010
0001
0100
0010
1000
0001
0000
0100
0010
0100
0001
0010
0100
,
2000
3020
0230
0302
0023
0230
2300
3002
,
0103
0000
0010
0001
0010
0100
0010
1000
0010
0000
1000
0100
0001
0100
0010
0100
,
1000
0000
0010
0001
0010
0100
1000
0100
0002
0000
0023
0000
0230
0000
2300
0000
,
3001
0000
1000
0010
0001
0010
0100
1000
0100
0000
0001
0010
1000
0010
0100
0010
,
0001
0000
1000
0100
0001
0000
1000
0010
0002
0000
0203
0000
0320
0000
2030
0000
,
3001
0000
0010
1000
0010
0100
0010
0100
1000
0000
0001
0010
1000
0010
0001
0100
,
0010
0000
1000
0001
0010
0100
0010
0001
1000
0100
2000
0000
3002
0000
0023
0000
,
0130
0000
0010
0001
0010
1000
0010
0001
0100
0000
0010
0001
0010
1000
0100
0010
,
0002
0000
0203
0000
0320
0000
1030
0001
1000
0100
0010
0001
0100
0010
1000
0000
,
1001
0010
0100
0010
0100
0101
1100
0000
,
1001
0000
0000
0000
;
