#TITLE:Burst The Gravity;
#ARTIST:ALTIMA;
#BANNER:Burst The Gravity.png;
#BACKGROUND:Burst The Gravity-bg.png;
#JACKET:Burst The Gravity-jacket.png;
#MUSIC:Burst The Gravity.ogg;
#SAMPLESTART:63.235;
#SAMPLELENGTH:20;
#DISPLAYBPM:148;
#BPMS:0=148.148,4=147.999;
#BGCHANGES:;

//---------------dance-single - ----------------
#NOTES:
     dance-single:
     :
     Beginner:
     2:
     :
0000
0000
0000
0000
,
0000
0000
0000
0000
,
0000
0000
0000
0000
,
0000
0000
0000
0000
,
0000
0000
0000
0000
,
1000
0000
0000
0000
,
0001
0000
0000
0000
,
1000
0000
0001
0000
,
1001
0000
0000
0000
,
0000
0000
0000
0000
,
0010
0000
0000
0000
,
0010
0000
0010
0000
,
0100
0000
0000
0000
,
0100
0000
0100
0000
,
0001
0000
0000
0000
,
0010
0000
0000
0000
,
1000
0000
0000
0000
,
0100
0000
0000
0000
,
0001
0000
0001
0000
,
1000
0000
1000
0000
,
0010
0000
0000
0000
,
0100
0000
0000
0000
,
0001
0000
0000
0000
,
1000
0000
0000
0000
,
0100
0000
0000
0000
,
0010
0000
0000
0000
,
0001
0000
0001
0000
,
1000
0000
1000
0000
,
0010
0000
0100
0000
,
0001
0000
0000
0000
,
2000
0000
3000
0000
,
0002
0000
0003
0000
,
2002
0000
3003
0000
,
0000
0000
0000
0000
,
0001
0001
0001
0000
,
0010
0010
0010
0000
,
1000
1000
1000
0000
,
0100
0100
0100
0000
,
0000
0000
0000
0000
,
0001
0000
0010
0000
,
1000
0000
0010
0000
,
0001
0000
1000
0000
,
1001
0000
0000
0000
,
0010
0010
0010
0000
,
1000
1000
1000
0000
,
0001
0000
1000
0000
,
0001
0000
1001
0000
,
1000
0000
0010
0000
,
0001
0000
0010
0000
,
1000
0000
0001
0000
,
1001
0000
0000
0000
,
0010
0010
0010
0000
,
0001
0001
0001
0000
,
1000
0000
0001
0000
,
2002
0000
3003
0000
,
2002
0000
0000
0000
,
3003
0000
0000
0000
,
0000
0000
0000
0000
;

//---------------dance-single - ----------------
#NOTES:
     dance-single:
     :
     Easy:
     5:
     :
0000
0000
0000
0000
,
0000
0000
0000
0000
,
0000
0000
0000
0000
,
0000
0000
0000
0000
,
0000
0000
0000
0000
,
0001
0000
0100
0000
,
1000
0010
0001
0000
,
0010
0000
0100
0000
,
2000
0000
0000
0000
,
0002
0000
0000
3003
,
0010
1000
0100
0001
,
1000
0000
0000
1000
0000
0000
0000
0000
,
1000
0100
0001
0010
,
0001
0000
0000
0001
0000
0000
0000
0000
,
0010
0010
0001
0000
,
1000
1000
0001
0000
,
0100
0100
0001
0000
,
0010
0010
0001
0000
,
0100
0001
0010
0000
,
0100
1000
0010
0000
,
1000
0001
0100
0001
,
0010
1000
1001
0000
,
0010
0010
1000
0100
,
0001
0001
1000
0000
,
0100
0100
1000
0100
,
0010
0010
0001
0000
,
0100
1000
0010
0000
,
1000
1000
0001
0001
,
0010
0000
0100
0000
,
0001
0010
0100
1000
,
0002
0000
0000
0003
,
0200
0000
0000
0300
,
1000
0000
0010
0000
,
0001
1000
0010
0001
,
0100
0100
0010
0000
,
1000
1000
0100
0000
,
0001
0100
1000
0010
,
0001
1000
1001
0000
,
0000
0000
0000
0000
,
0001
1000
1000
0001
,
1000
1000
0001
1000
,
0001
0010
1000
0100
,
0110
0000
0001
0000
,
0010
1000
0100
0000
,
0010
0001
0100
0000
,
0010
0001
0010
1000
,
0010
0001
1001
0000
,
1000
0001
0001
1000
,
0001
0001
1000
0001
,
1000
0010
0001
0100
,
0110
0000
1000
0000
,
0010
0001
0100
0000
,
0010
1000
0100
0000
,
0001
0000
1000
0000
,
0001
0010
0100
1000
,
2002
0000
0000
0000
,
3003
0000
0000
0000
,
0000
0000
0000
0000
;

//---------------dance-single - ----------------
#NOTES:
     dance-single:
     :
     Medium:
     8:
     :
0000
0000
0000
0000
,
0000
0000
0000
0000
,
0000
0000
0000
0000
,
0000
0000
0000
0000
,
0000
0000
0000
0000
,
1000
0010
0100
0000
,
0001
1000
0100
0000
1000
0000
0000
0000
,
0010
1000
0001
1000
,
0020
0000
0200
0330
,
2002
0000
0000
3003
,
0010
1000
0001
0000
0100
0000
1000
0000
,
1001
0000
0000
1001
0000
0000
0010
0000
,
0001
1000
0100
0000
1000
0000
0001
0000
,
0010
0000
0000
0100
0000
0000
2002
0000
0000
0000
0000
0000
3003
0000
0000
0000
,
0010
0000
0010
0000
1000
0010
0100
0000
,
0001
0000
0001
0000
1000
0100
0010
0000
,
0100
0000
0100
0000
1000
0001
0100
0000
,
0010
0000
0010
0000
1000
0001
0010
0000
,
0100
1000
0100
0000
0010
0000
0001
0000
,
1000
0010
0100
0000
0001
0000
0100
0000
,
0010
1000
0100
0000
0010
0001
0100
0000
,
0010
0100
0110
1001
,
0010
0000
0010
0000
0001
0010
0100
0000
,
1000
0000
1000
0000
0001
0100
0010
0000
,
0100
0000
0100
0000
0001
1000
0100
0000
,
0010
0000
0010
0000
0001
1000
0010
0000
,
0100
0001
0100
0000
0010
0000
1000
0000
,
0001
0010
0100
0000
1000
0010
0100
0000
,
0010
1000
0100
0001
,
0010
0001
1000
0001
0010
0000
0100
0000
,
2000
0000
0000
0000
0000
0000
3000
0010
,
0200
0000
0000
0000
0000
0000
0300
0001
,
1000
0000
0000
0100
0010
0000
0000
0001
,
1000
0000
0001
0000
0010
0100
1000
0001
,
0100
0000
0100
0000
0010
1000
0001
0000
,
0010
0000
0010
0000
0100
0010
0001
0000
,
1000
0100
0001
0010
,
1000
0010
0100
0010
1000
0000
0001
0000
,
2002
0000
0000
3003
,
1000
0100
0001
0000
0100
0000
1000
0100
,
0001
0000
0100
0000
1000
0100
0001
0000
,
1000
0000
0001
0000
0010
0100
1000
0000
,
0101
0000
0000
0000
1000
0100
0010
0000
,
0011
0110
1100
0001
,
0100
0010
1000
0000
0010
0000
0100
0000
,
0010
1000
0010
0001
,
0010
0100
1000
0010
0100
0000
1001
0000
,
0001
0100
1000
0000
0100
0000
0001
0100
,
1000
0000
0100
0000
0001
0100
1000
0000
,
0001
0000
1000
0000
0010
0100
0001
0000
,
1100
0000
0000
0000
0001
0100
0010
0000
,
1010
0110
0101
1000
,
0100
0010
0001
0000
0010
0000
0100
0000
,
0010
0000
0000
0001
1000
0000
0000
0010
,
0100
0001
0010
0001
1000
0000
0110
0000
,
2002
0000
0000
0000
,
3003
0000
0000
0000
,
0000
0000
0000
0000
;

//---------------dance-single - ----------------
#NOTES:
     dance-single:
     :
     Hard:
     11:
     :
0000
0000
0000
0000
,
0000
0000
0000
0000
,
0000
0000
0000
0000
,
0000
0000
0000
0000
,
0000
0000
0000
0000
,
0001
0010
0100
0000
,
1000
0001
0100
0001
1000
0000
0100
0000
,
0010
0001
1000
0001
,
0200
0000
0020
0330
,
2002
0000
0000
3003
,
0010
0000
0000
1000
0000
0000
0100
0000
0000
0010
0000
0000
0001
0000
0000
0000
,
1001
0000
0000
0100
0000
0000
1001
0000
0000
0100
0000
0000
0010
0000
1000
0000
,
0001
0000
0000
0010
0000
0000
0100
0000
0000
1000
0000
0000
0001
0000
0000
0000
,
1010
0000
0000
0101
0000
0000
2200
0000
0000
0000
0000
0000
3300
0000
0000
0000
,
0010
0000
0010
0000
0001
0010
0100
0010
,
0001
0000
0001
0000
1000
0001
0100
0010
,
1000
0000
1000
0000
0001
0010
0100
1000
,
0010
0000
0010
0000
0100
0010
1000
0010
,
0100
0000
0000
0001
0000
0000
0100
0000
0010
0000
0000
0000
1000
0000
0000
0000
,
0001
0010
0100
1000
0001
0000
0100
0000
,
0010
1000
0100
0000
0010
0001
0100
0000
,
0010
0000
0100
0000
0010
0100
1001
0000
,
0010
0000
0010
0000
1000
0010
0100
0010
,
1000
0000
1000
0000
0001
1000
0100
0010
,
0001
0000
0001
0000
1000
0010
0100
0001
,
0010
0000
0010
0000
0100
0010
0001
0010
,
0100
0000
0000
1000
0000
0000
0100
0000
0010
0000
0000
0000
0001
0000
0000
0000
,
1000
0010
0100
0001
1000
0100
0001
0100
,
1000
0000
0100
0000
0001
0010
0100
0000
,
0010
0001
1000
0001
0010
0100
1000
0010
,
0200
0000
0000
0000
0000
0000
0300
0001
,
2000
0000
0000
0000
0000
0000
3000
0010
,
0100
0000
0000
0001
1000
0000
0000
0100
,
0010
0000
0000
0001
0000
0000
1000
0000
0010
0000
0100
0000
0001
0000
0010
0000
,
0100
0000
1100
0000
0010
0001
1000
0010
,
0100
0000
0101
0000
1000
0100
0010
0001
,
1000
0000
0000
0001
0000
0000
0010
0000
0001
0000
0000
1000
0000
0000
0010
0000
,
0100
0000
0000
0001
0000
0000
0010
0000
0100
0000
1000
0000
0001
0000
0100
0000
,
2002
0000
0000
3003
,
0001
0100
1000
0100
0001
0000
1000
0010
,
0001
0010
1000
0000
0001
0010
1000
0010
,
0001
0000
1000
0010
0100
0001
0010
0100
,
1000
0000
0100
0000
0001
0100
0010
1000
,
1010
0000
0101
0000
1100
0000
1000
0100
,
0010
0100
0001
0100
0010
0000
0100
1000
,
0010
0000
0000
0100
0000
0000
0001
0000
0010
0000
0000
0100
0000
0000
1000
0000
,
0010
0000
0000
0100
0000
0000
0010
0000
0110
0000
0001
0000
1000
0000
0000
0000
,
1000
0100
0001
0100
1000
0000
0001
0010
,
1000
0010
0001
0000
1000
0010
0001
0010
,
1000
0000
0001
0010
0100
1000
0010
0100
,
0001
0000
0100
0000
1000
0100
0010
0001
,
0011
0000
1100
0000
0101
0000
0001
0100
,
0010
0100
1000
0100
0010
0000
0100
0001
,
0010
0000
0000
0100
0000
0000
1000
0000
0010
0000
0000
0100
0000
0000
0001
0000
,
0010
0100
1000
0001
0100
0010
1000
0001
,
2002
0000
0000
0000
,
3003
0000
0000
0000
,
0000
0000
0000
0000
;

//---------------dance-single - ----------------
#NOTES:
     dance-single:
     :
     Challenge:
     13:
     :
0000
0000
0000
0000
,
0000
0000
0000
0000
,
0000
0000
0000
0000
,
0000
0000
0000
0000
,
0000
0000
0000
0000
,
2000
0000
0000
0000
3200
0000
0000
0000
0302
0000
0000
0000
0003
0000
0010
0100
,
0010
0001
0100
0010
1000
0000
0100
1000
,
0001
0000
0000
0000
0010
0000
0001
0000
1000
0000
0000
0010
0000
0000
1000
0000
,
0002
0000
0013
0100
1000
0001
0100
0000
,
0100
0000
0110
0000
0110
0000
0000
1000
0000
0001
0100
0000
1001
0000
0000
0000
,
0010
1000
0000
0010
1000
0000
0101
0000
0000
0001
0010
0000
0001
0000
1000
0000
,
1020
0000
0000
0130
0000
0000
0021
0000
0000
0130
0000
0000
1000
0001
1000
0000
,
0001
0100
0000
0001
0100
0000
1010
0000
0000
1000
0100
0000
1000
0000
0001
0000
,
0011
0000
0000
1100
0000
0000
0011
0000
0000
0001
1000
0000
0001
0100
0001
0100
,
0001
0010
1000
0010
1000
0100
1000
0001
,
0010
0100
1000
0001
0000
0100
0001
1000
,
0010
1000
0000
1000
0010
0000
0000
0000
0100
0000
0001
0000
1000
0000
0001
0000
,
0010
0000
0100
0000
1000
0000
0001
0000
0000
0000
1000
0010
1000
0000
0001
0000
,
0010
0001
0000
0001
0010
0000
0100
0000
1000
0000
0010
0000
1000
0000
0001
0000
,
0100
0000
1000
0000
0100
0000
0001
0000
0100
0010
0000
0000
1010
0000
0001
0000
,
0100
0000
0010
0000
1000
0000
0001
0000
0001
0000
1000
0000
0100
0010
0000
0000
,
0001
1000
0000
1000
0010
0000
0100
0000
0001
1000
0001
0000
0010
0000
0001
1000
,
0001
0000
0000
0100
0010
0000
0000
0010
1000
0000
0100
0000
1000
0000
0001
0000
,
0010
0100
0001
0100
1000
0010
1000
0001
,
0100
1000
0100
0010
1000
0100
1000
0001
,
0010
0000
1000
0000
1000
0000
0100
0000
0000
0000
1000
0001
1000
0000
0100
0000
,
0010
0001
0000
0001
1000
0000
0010
0000
0100
0000
0001
0000
1000
0100
1000
0000
,
0001
0001
0100
0100
1000
1000
0010
0010
,
0100
0000
0001
1000
0001
0000
0000
0000
0011
0000
0001
0000
0100
0000
1000
0000
,
0010
0000
1000
0000
1000
0000
0001
0000
0100
0010
0100
0010
0100
0000
0001
1000
,
0001
0000
0000
1000
0100
0000
0000
1000
0001
0000
0100
0000
0010
0000
1000
0000
,
0000
0100
0100
1000
0000
0001
1000
0010
,
0100
0000
0001
0010
0001
0000
1000
0000
0100
0000
0001
0000
0100
0000
1000
0000
,
0100
0000
0001
0000
0100
0000
0010
0001
0010
0000
0100
0000
1000
0000
0001
0000
,
0100
0000
0000
0010
1000
0000
0000
0010
1000
0000
0001
0000
0010
0000
0100
0000
,
0000
0000
1000
0100
1000
0000
0001
0000
0000
0000
0010
0000
0001
0000
0100
0000
,
0010
1000
0000
1000
0010
0000
0100
0000
0001
0010
0000
0010
0001
0000
1000
0000
,
0100
0000
0000
1000
0000
0000
0001
0000
0100
0010
0100
0010
0100
0000
0001
0000
,
0010
0010
0001
0100
0110
0000
1001
0000
,
1000
0010
0100
0001
0010
1000
0010
0001
,
0100
0010
0100
1000
0100
0001
0100
0010
,
1000
0010
0000
0100
0001
0000
0010
0000
1000
0000
0010
0000
0100
0000
0001
0000
,
0100
0000
1000
0000
0010
0000
1000
0000
0001
0000
1000
0100
0010
0000
0001
0000
,
0100
0010
0000
0000
0010
1000
0000
0000
1000
0001
0000
0000
0011
0000
0001
0100
,
0010
1000
0100
1000
0001
0000
0001
0100
,
0010
1000
0000
0001
0100
0000
0010
0000
1000
0100
0000
0010
0001
0000
1000
0000
,
0010
0100
0000
0001
1000
0000
0100
0000
0010
0000
0001
0100
0001
0000
0000
0000
,
0010
0100
0001
0100
1000
0100
0001
0100
,
0010
1000
0010
0001
0100
1000
0100
0001
,
0010
0100
0000
1000
0001
0000
0100
0000
0010
0000
0001
0000
0010
0000
1000
0000
,
0100
1000
0010
1000
0001
0100
0100
0010
,
1000
0001
0000
0000
0001
0010
0000
0000
0010
0100
0000
0000
1100
0000
0001
0100
,
0001
0000
1000
0000
1000
0000
0010
0000
0100
0000
0001
1000
0010
0000
0100
0000
,
0001
0010
0000
0001
0010
0000
0100
0000
1000
0010
0000
1000
0010
0000
0100
0000
,
0001
0000
0001
1000
0010
0000
0100
0000
0000
0000
0001
1000
0100
0000
0110
0000
,
2002
0000
0000
0000
,
3003
0000
0000
0000
;

//---------------dance-double - ----------------
#NOTES:
     dance-double:
     :
     Easy:
     5:
     :
00000000
00000000
00000000
00000000
,
00000000
00000000
00000000
00000000
,
00000000
00000000
00000000
00000000
,
00000000
00000000
00000000
00000000
,
00000000
00000000
00000000
00000000
,
00001000
00000000
00000100
00000000
,
00000001
00000010
00001000
00000000
,
00000010
00000000
00000100
00000000
,
00002000
00000000
00000000
00000000
,
00020000
00000000
00000000
00033000
,
00100000
10000000
01000000
00100000
,
00010000
00000000
00000000
00010000
00000000
00000000
00000000
00000000
,
10000000
01000000
00010000
00001000
,
00010000
00000000
00000000
00010000
00000000
00000000
00000000
00000000
,
00000010
00001000
00000010
00000000
,
00001000
00000001
00000100
00000000
,
00000010
00010000
00001000
00000000
,
00010000
00001000
01000000
00000000
,
00100000
10000000
01000000
00000000
,
00100000
00010000
01000000
00000000
,
00001000
00010000
00000100
00001000
,
00000001
00000100
00001001
00000000
,
00000010
00000010
00000001
00000100
,
00001000
00001000
00010000
00000000
,
00100000
00100000
10000000
01000000
,
00010000
00010000
00001000
00000000
,
00000010
00000001
00000100
00000000
,
00000010
00000010
00001000
00001000
,
00000100
00000000
00010000
00000000
,
00001000
00100000
01000000
10000000
,
00020000
00000000
00000000
00030000
,
02000000
00000000
00000000
03000000
,
00100000
00000000
10000000
00000000
,
01000000
00010000
00001000
00000100
,
00000010
00000010
00000100
00000000
,
00001000
00001000
00000100
00000000
,
00000010
00000001
00000100
00001000
,
00010000
00001000
00011000
00000000
,
00000000
00000000
00000000
00000000
,
00100000
00001000
00001000
01000000
,
00001000
00001000
00100000
00001000
,
00010000
00100000
10000000
00010000
,
10010000
00000000
10000000
00000000
,
01000000
00100000
01000000
00000000
,
00100000
00001000
00010000
00000000
,
00000010
00001000
00000010
00000100
,
00001000
00010000
00011000
00000000
,
00000010
00010000
00010000
00000100
,
00010000
00010000
00000010
00010000
,
00001000
00000010
00000001
00001000
,
00001001
00000000
00000001
00000000
,
00000100
00000010
00000100
00000000
,
00000010
00010000
00001000
00000000
,
00100000
00000000
00010000
00000000
,
10000000
00100000
01000000
00010000
,
00022000
00000000
00000000
00000000
,
00033000
00000000
00000000
00000000
,
00000000
00000000
00000000
00000000
;

//---------------dance-double - ----------------
#NOTES:
     dance-double:
     :
     Medium:
     8:
     :
00000000
00000000
00000000
00000000
,
00000000
00000000
00000000
00000000
,
00000000
00000000
00000000
00000000
,
00000000
00000000
00000000
00000000
,
00000000
00000000
00000000
00000000
,
10000000
01000000
00100000
00000000
,
00001000
00010000
00001000
00000000
00000100
00000000
00000000
00000000
,
00000001
00000010
00001000
00010000
,
00002000
00000000
00020000
00033000
,
00022000
00000000
00000000
00033000
,
01000000
00000000
01000000
00000000
00100000
00010000
01000000
00000000
,
10010000
00000000
00000000
10010000
00000000
00000000
01000000
00000000
,
00100000
00000000
00100000
00000000
00010000
00001000
00010000
00000000
,
00000010
00000000
00000000
00000100
00000000
00000000
00002002
00000000
00000000
00000000
00000000
00000000
00003003
00000000
00000000
00000000
,
00000010
00000000
00000001
00000000
00000100
00000010
00000100
00000000
,
00001000
00000000
00010000
00000000
00100000
10000000
00010000
00000000
,
00100000
00000000
00010000
00000000
10000000
00010000
01000000
00000000
,
00010000
00000000
10000000
00000000
01000000
00010000
00001000
00000000
,
00000010
00000000
00000001
00000000
00001000
00000010
00000100
00000000
,
00000010
00000000
00010000
00000000
00001000
00000010
00000100
00000000
,
00001000
00000010
00000100
00000000
00001000
00010000
00001000
00000000
,
01000000
00100000
01100000
10010000
,
00100000
00000000
10000000
00000000
01000000
00100000
01000000
00000000
,
00010000
00000000
00001000
00000000
00000010
00000001
00001000
00000000
,
00000010
00000000
00001000
00000000
00000001
00001000
00000100
00000000
,
00001000
00000000
00000001
00000000
00000100
00001000
00010000
00000000
,
00100000
00000000
10000000
00000000
00010000
00100000
01000000
00000000
,
00100000
00000000
00001000
00000000
00010000
00100000
01000000
00000000
,
00010000
00100000
01000000
00000000
00010000
00001000
00010000
00000000
,
00000100
00000010
00000110
00001001
,
00000200
00000000
00000000
00000000
00000000
00000000
00000300
00000010
,
00000200
00000000
00000000
00000000
00000000
00000000
00000300
00001000
,
00000001
00000000
00000000
00000100
00000010
00000000
00000000
00001000
,
00010000
00000000
01000000
00000000
00100000
10000000
00010000
00100000
,
01000000
00000000
01000000
00000000
10000000
00010000
01000000
00000000
,
00100000
00000000
00100000
00000000
00010000
00001000
00010000
00000000
,
00001000
00000010
00000001
00000100
,
00000010
00000100
00000001
00000100
00000010
00000000
00001000
00000000
,
00022000
00000000
00000000
00033000
,
00010000
02000000
10000000
00000000
03010000
00000000
00001000
00000200
,
00000001
00000000
00001300
00000000
00010000
02000000
10000000
00000000
,
03010000
00000000
00100000
00000000
01000000
10000000
00100000
00000000
,
01010000
00000000
00000000
00000000
10000000
00010000
01000000
00000000
,
00001000
00010000
00011000
00000100
,
00000001
00000010
00000100
00000000
00000010
00000000
00000001
00000000
,
00000100
00001000
00010000
00100000
,
01000000
00010000
00100000
01000000
00100000
00000000
00011000
00000000
,
00001000
00000200
00000001
00000000
00001300
00000000
00010000
02000000
,
10000000
00000000
03010000
00000000
00001000
00000200
00000001
00000000
,
00001300
00000000
00000010
00000000
00000100
00000001
00000010
00000000
,
00001100
00000000
00000000
00000000
00000001
00001000
00000100
00000000
,
00010000
00001000
00011000
01000000
,
10000000
00100000
01000000
00000000
00100000
00000000
10000000
00000000
,
01000000
00000000
00000000
00010000
00001000
00000000
00000000
00000010
,
00000001
00001000
00000010
00000100
00000010
00000000
00000100
00000000
,
00002002
00000000
00000000
00000000
,
00003003
00000000
00000000
00000000
,
00000000
00000000
00000000
00000000
;

//---------------dance-double - ----------------
#NOTES:
     dance-double:
     :
     Hard:
     11:
     :
00000000
00000000
00000000
00000000
,
00000000
00000000
00000000
00000000
,
00000000
00000000
00000000
00000000
,
00000000
00000000
00000000
00000000
,
00000000
00000000
00000000
00000000
,
00001000
00000001
00000100
00000000
,
00000010
00010000
00001000
00100000
00010000
00000000
01000000
00000000
,
00100000
10000000
01000000
00010000
,
00002000
00000000
00020000
00033000
,
00022000
00000000
00000000
00033000
,
00000010
00000000
00000000
00000001
00000000
00000000
00000100
00000000
00000000
00000010
00000000
00000000
00001000
00000000
00000000
00000000
,
00010010
00000000
00000000
00001000
00000000
00000000
00010010
00000000
00000000
00001000
00000000
00000000
00010000
00000000
01000000
00000000
,
10000000
00000000
00000000
00100000
00000000
00000000
01000000
00000000
00000000
00010000
00000000
00000000
10000000
00000000
00000000
00000000
,
11000000
00000000
00000000
01010000
00000000
00000000
00022000
00000000
00000000
00000000
00000000
00000000
00033000
00000000
00000000
00000000
,
00000010
00000000
00000010
00000000
00001000
00000010
00000100
00000001
,
00000010
00000000
00000010
00000000
00000100
00010000
00001000
01000000
,
00010000
00000000
00010000
00000000
10000000
01000000
00100000
00010000
,
01000000
00000000
01000000
00000000
00100000
00010000
00001000
00000100
,
00000001
00000000
00000000
00001000
00000000
00000000
00000100
00000000
00000010
00000000
00000000
00000000
00000001
00000000
00000000
00000000
,
00000100
00001000
00010000
01000000
10000000
00000000
00010000
01000000
,
00100000
00000000
00100000
01000000
00010000
00000000
10000000
00000000
,
01000000
00000000
00000000
00010000
00000000
00000000
00001000
00000000
00010000
00000000
00001000
00000000
00011000
00000000
00000000
00000000
,
00000100
00000000
00000100
00000000
00000001
00001000
00000100
00001000
,
00000001
00000000
00000001
00000000
00000010
00001000
00010000
00001000
,
00100000
00000000
00100000
00000000
00010000
10000000
01000000
00100000
,
00010000
00000000
00010000
00000000
01000000
00100000
10000000
01000000
,
00100000
00000000
00000000
00001000
00000000
00000000
01000000
00000000
00100000
00000000
00000000
00000000
00010000
00000000
00000000
00000000
,
00001000
00000010
00000001
00001000
00000001
00000100
00000010
00001000
,
00010000
00000000
01000000
00000000
00100000
10000000
01000000
00000000
,
10000000
01000000
00100000
01000000
00010000
00001000
00000010
00000001
,
00002000
00000000
00000000
00000000
00000000
00000000
00003000
00000010
,
00000200
00000000
00000000
00000000
00000000
00000000
00000300
00000001
,
00001000
00000000
00000000
00000100
00010000
00000000
00000000
00001000
,
00100000
00000000
00000000
10000000
00000000
00000000
00010000
00000000
01000000
00000000
10000000
00000000
00100000
00000000
01000000
00000000
,
00010000
00000000
00010000
00000000
00100000
00010000
00001000
00000100
,
00000010
00000000
00000010
00000000
00000001
00000100
00000010
00001000
,
00000001
00000000
00000000
00000100
00000000
00000000
00001000
00000000
00010000
00000000
00000000
00100000
00000000
00000000
10000000
00000000
,
00010000
00000000
00000000
00100000
00000000
00000000
01000000
00000000
10000000
00000000
00010000
00000000
01000000
00000000
00100000
00000000
,
20020000
00000000
00000000
30030000
,
00010000
00001000
00000100
00001000
00010000
00000000
00001000
00010000
,
01000000
00010000
00001000
00000000
00010000
00001000
00000010
00001000
,
00010000
00000000
00000010
00000100
00000001
00001000
00000100
00000010
,
00000001
00000000
00000100
00000000
00001000
00010000
00100000
01000000
,
01010000
00000000
11000000
00000000
01100000
00000000
00010000
00100000
,
00001000
00010000
00001000
00000010
00000100
00000000
00000010
00000001
,
00000100
00000000
00000000
00000010
00000000
00000000
00010000
00000000
00001000
00000000
00000000
00000100
00000000
00000000
00000001
00000000
,
00000010
00000000
00000000
00001000
00000000
00000000
00010000
00000000
01000000
00000000
10000000
00000000
00010000
00000000
00000000
00000000
,
00001000
00010000
01000000
00010000
00001000
00000000
00010000
00001000
,
00000100
00001000
00010000
00000000
00001000
00010000
00100000
00010000
,
00001000
00000000
00100000
01000000
10000000
00010000
01000000
00100000
,
10000000
00000000
01000000
00000000
00010000
00001000
00000010
00000100
,
00001100
00000000
00000101
00000000
00000110
00000000
00001000
00000010
,
00010000
00001000
00010000
00100000
01000000
00000000
00100000
10000000
,
01000000
00000000
00000000
00100000
00000000
00000000
00001000
00000000
00010000
00000000
00000000
01000000
00000000
00000000
10000000
00000000
,
00100000
00010000
00001000
00000100
00000001
00001000
00000100
00000010
,
00002002
00000000
00000000
00000000
,
00003003
00000000
00000000
00000000
,
00000000
00000000
00000000
00000000
;
