#TITLE:Burnin' for You;
#SUBTITLE:;
#ARTIST:Blue Öyster Cult;
#TITLETRANSLIT:;
#SUBTITLETRANSLIT:;
#ARTISTTRANSLIT:Blue Oyster Cult;
#GENRE:;
#CREDIT:;
#BANNER:Burnin' for You-bn.png;
#BACKGROUND:Burnin' for You-bg.png;
#LYRICSPATH:;
#CDTITLE:;
#MUSIC:Burnin' for You.ogg;
#OFFSET:1.333333;
#SAMPLESTART:53.437439;
#SAMPLELENGTH:20.000000;
#LASTBEATHINT:0.721155;
#SELECTABLE:YES;
#DISPLAYBPM:95.000000:145.000000;
#BPMS:0.000000=133.000000
,6.000000=135.500000
,8.000000=138.000000
,12.000000=136.000000
,20.000000=139.000000
,28.000000=140.000000
,32.000000=137.500000
,36.000000=138.000000
,38.000000=137.300003
,40.000000=136.500000
,48.000000=142.000000
,50.000000=136.485001
,51.000000=138.384995
,56.000000=136.384003
,60.000000=134.000000
,68.000000=136.875000
,70.000000=135.572998
,76.000000=135.000000
,78.000000=134.134140
,92.000000=135.718002
,102.000000=134.800003
,104.000000=133.925003
,108.000000=134.740005
,110.000000=134.121445
,123.000000=136.100006
,128.000000=135.141403
,132.000000=133.500000
,134.000000=132.130005
,139.000000=135.675003
,142.000000=134.500000
,143.000000=133.485001
,152.000000=134.125000
,156.000000=136.100006
,164.000000=132.819000
,169.000000=135.010300
,180.000000=134.309998
,182.000000=133.333328
,186.000000=137.000000
,188.000000=135.300003
,197.000000=133.649994
,198.000000=136.500000
,200.000000=145.000000
,203.000000=138.899994
,204.000000=133.649994
,206.000000=135.500000
,208.000000=137.136993
,216.000000=124.999992
,218.000000=122.000000
,219.500000=95.000000
;
#STOPS:
;
#BGCHANGES:;
#KEYSOUNDS:;
#ATTACKS:;

//---------------dance-single - ----------------
#NOTES:
     dance-single:
     :
     Hard:
     13:
     0.581881,0.693203,0.917896,0.114737,0.148202,426.000000,330.000000,96.000000,12.000000,0.000000,0.000000,0.581881,0.693203,0.917896,0.114737,0.148202,426.000000,330.000000,96.000000,12.000000,0.000000,0.000000:
// measure 0
0000
0000
0000
0000
,  // measure 1
0000
0000
0000
0000
,  // measure 2
0000
0000
0000
0000
,  // measure 3
0000
0000
0000
0000
,  // measure 4
0000
0000
0000
0000
,  // measure 5
0000
0000
0000
0000
,  // measure 6
0000
0000
0000
0000
,  // measure 7
1000
0100
1000
0100
1000
0000
0001
0000
0010
0000
0010
0000
0001
0100
0001
0100
,  // measure 8
0001
0000
0101
0000
0000
1100
0000
0000
1010
0000
0001
0000
1000
0000
0010
0000
,  // measure 9
1000
0000
0001
0010
0001
0000
0000
0000
1000
0000
0100
0000
0010
0000
0001
0000
,  // measure 10
0100
0000
0010
1000
0010
0000
0000
0000
0100
0000
1010
0000
0000
1001
0000
0000
,  // measure 11
0101
0000
1000
0010
1000
0000
0000
0000
0001
0000
0011
0000
0000
0110
0000
0000
,  // measure 12
1100
0000
0010
0100
0010
0000
0000
0000
1000
0000
0001
0000
0000
0100
0000
0000
,  // measure 13
0002
0000
0000
0023
0000
0000
0130
0000
2000
0000
0000
3200
0000
0000
0310
0000
,  // measure 14
0011
0011
0101
0101
1001
1001
1010
1010
,  // measure 15
1100
0000
1001
0000
0001
0010
0100
1000
,  // measure 16
0010
0100
0101
0000
0001
1000
1010
0000
,  // measure 17
0001
0000
0110
0000
0100
0010
1000
0001
,  // measure 18
0010
0001
1100
0000
1000
0100
1010
0000
,  // measure 19
0101
0000
1001
0000
0010
1000
0100
0001
,  // measure 20
1000
0010
1100
0000
0001
0100
0110
0000
,  // measure 21
0001
0000
0100
0100
0010
1000
0001
0010
,  // measure 22
0001
0100
1000
0010
0100
0100
0110
0000
,  // measure 23
1010
0000
0110
0000
0001
0100
1000
0010
,  // measure 24
0001
1000
0011
0000
0100
0010
1100
0000
,  // measure 25
0010
0000
0101
0000
0010
0001
1000
0100
,  // measure 26
0001
0100
1001
0000
1000
0010
0011
0000
,  // measure 27
1100
0000
0110
0000
0100
0001
0010
1000
,  // measure 28
0100
1000
0110
0000
0010
0001
1100
0000
,  // measure 29
0001
0000
1000
1000
0100
0010
0001
0010
,  // measure 30
0100
0000
0000
0000
1000
0010
1000
0000
0001
0000
0100
0010
0100
0000
0001
0000
,  // measure 31
1001
0001
0101
0000
1000
0100
0010
0001
,  // measure 32
0100
1000
1010
0000
0001
0101
0110
0000
,  // measure 33
1010
0100
0110
0000
0001
0010
0100
1000
,  // measure 34
0100
0000
0001
0000
0011
0000
0000
0000
0100
0000
0110
0000
1001
0000
1000
0001
,  // measure 35
1000
1000
0100
0100
0010
0010
0001
0001
,  // measure 36
0100
0100
0010
0010
1000
1000
0001
0001
,  // measure 37
0011
0100
1010
0000
1000
0001
0100
0010
,  // measure 38
1000
0000
0100
0000
0011
0000
0000
0000
0001
0000
0011
0000
0101
0000
0100
0010
,  // measure 39
0100
0000
1100
0001
0100
0010
1000
0000
,  // measure 40
0011
1000
0110
0000
1001
0100
1010
0000
,  // measure 41
1001
0000
0100
0000
0001
1000
0010
0110
,  // measure 42
0000
0000
0001
0010
0001
0000
1000
0010
1000
0000
0001
0100
0001
0000
1000
0100
,  // measure 43
1000
1000
1001
0000
0011
1000
1100
0000
,  // measure 44
0110
0010
1010
0000
0011
0001
0100
0010
,  // measure 45
1010
1000
0011
0000
0100
0010
1000
0001
,  // measure 46
0010
0000
0100
0000
1010
0000
0000
0000
0001
1000
0001
1000
0001
0000
0100
0000
,  // measure 47
0010
0010
0110
0000
1010
0001
0101
0000
,  // measure 48
1001
0100
0011
0000
1010
1000
0001
0202
,  // measure 49
0000
0000
0303
0000
1001
0000
0000
0000
0001
0000
0100
0010
1000
0000
2200
0000
,  // measure 50
0000
0000
3300
0000
1010
0000
0000
0000
0011
0000
0001
1000
0010
0000
0000
0000
,  // measure 51
0110
0000
0000
0000
1001
0000
0000
0000
1000
0000
0100
0010
0001
0000
0022
0000
,  // measure 52
0000
0000
0033
0000
0101
0000
0000
0000
1100
0000
0100
1000
0001
0000
0000
0000
,  // measure 53
0110
0000
0000
0000
1001
0000
0000
0000
0100
0000
0001
1000
0010
0000
0101
0000
,  // measure 54
0000
0000
0110
0000
0000
1010
0000
0000
1100
0000
0000
0011
0000
0000
0101
0000
,  // measure 55
2002
0000
0000
0000
,  // measure 56
0000
0000
0000
0000
,  // measure 57
0000
0000
0000
0000
,  // measure 58
3003
0000
0000
0000
;

//---------------dance-single - old scale 8----------------
#NOTES:
     dance-single:
     :
     Medium:
     11:
     0.468509,0.542610,0.592808,0.019123,0.157763,343.000000,281.000000,62.000000,2.000000,0.000000,0.000000,0.468509,0.542610,0.592808,0.019123,0.157763,343.000000,281.000000,62.000000,2.000000,0.000000,0.000000:
0000
0000
0000
0000
,
0000
0000
0000
0000
,
0000
0000
0000
0000
,
0000
0000
0000
0000
,
0000
0000
0000
0000
,
0000
0000
0000
0000
,
0000
0000
0000
0000
,
1000
0100
1000
0100
1000
0000
0000
0000
0000
0000
0000
0000
0001
0100
0001
0100
,
0001
0000
0010
0100
0010
0000
0000
0000
0000
0000
0000
0000
1000
0001
1000
0001
,
1000
0000
0001
0010
0001
0000
0000
0000
0000
0000
0000
0000
0100
0010
0100
0010
,
0100
0000
0010
1000
0010
0000
0000
0000
0000
0000
0000
0000
0001
0010
0001
0010
,
0001
0000
1000
0010
1000
0000
0000
0000
0000
0000
0000
0000
0100
1000
0100
1000
,
0100
0000
1000
0001
1000
0000
0000
0000
0000
0000
0010
0000
0000
0010
0000
0000
,
0001
0000
0000
0010
0000
0000
0100
0000
1000
0000
0000
0100
0000
0000
0010
0000
,
0001
0001
0100
0100
1000
1000
0010
0010
,
0110
0000
1001
0000
1000
0100
0010
0001
,
0100
0101
0100
1100
,
0100
0000
1001
0000
0001
0010
0100
1000
,
0010
1010
0010
0011
,
0010
0000
1001
0000
0100
0010
1000
0001
,
1000
1100
0001
0101
,
0110
0000
1000
0001
0100
0000
0001
1000
,
0010
0000
1100
0000
0100
1000
0001
0000
,
0011
0000
1100
0000
0010
1000
0001
0100
,
0010
1100
0010
0101
,
0010
0000
1001
0000
1000
0010
0100
0001
,
1000
1010
0001
0011
,
0100
0000
1010
0000
0001
1000
0010
0100
,
0001
0110
1000
0110
,
1001
0000
0010
0001
0100
0001
1000
0100
,
1000
0000
0000
0000
0001
0100
0001
0000
0000
0000
0010
0100
0010
0000
1000
0000
,
0001
1000
1001
0000
0000
1100
0000
0101
,
0000
0100
0110
0000
0000
1000
1000
0000
,
0010
0100
0110
0000
0000
1010
0000
0011
,
0000
0000
0001
0000
1001
0000
0000
0000
0000
0000
0100
0000
0100
0000
0001
1000
,
0001
0010
0100
0010
0001
1000
0100
0000
,
1000
1000
1000
0000
0010
0100
0010
0100
,
0001
0000
0101
0000
0000
0100
0010
1000
,
0000
0000
1000
0000
1100
0000
0000
0000
0000
0000
0001
0000
0001
0000
0100
0010
,
0100
0000
0011
0000
0001
1000
0010
0000
,
1000
0100
0001
0000
1000
0010
0001
0000
,
1001
0000
0001
0000
0000
1000
0100
0010
,
0000
0001
0001
1000
1000
0001
0001
1000
,
1000
0010
1010
0000
0101
0000
1100
0000
,
1001
0000
0011
0000
0100
0100
0001
1000
,
0001
0010
0011
0000
0000
0101
0000
1001
,
0000
0000
0100
0000
1100
0000
0000
0000
0001
1000
0001
1000
0001
0000
0100
0000
,
0010
0100
0110
0000
1010
0000
0101
0000
,
1001
0000
0011
0000
1000
1000
0001
0010
,
0000
0000
0000
0000
1001
0000
0000
0000
0100
0000
0000
0010
1000
0000
1100
0000
,
0000
0000
0000
0000
1001
0000
0000
0000
0100
0000
0000
0001
1000
0000
0000
0000
,
0100
0000
0000
0000
1001
0000
0000
0000
0010
0000
0000
1000
0001
0000
0101
0000
,
0000
0000
0000
0000
0110
0000
0000
0000
0010
0000
0000
0100
0001
0000
0000
0000
,
0010
0000
0000
0000
1001
0000
0000
0000
1000
0000
0000
0001
0100
0000
0110
0000
,
0000
0000
1010
0000
0000
0010
0000
0000
0110
0000
0000
0101
0000
0000
1100
0000
,
2002
0000
0000
0000
,
0000
0000
0000
3003
;

//---------------dance-single - old scale 6----------------
#NOTES:
     dance-single:
     :
     Easy:
     8:
     0.351041,0.434088,0.468509,0.516317,0.043026,257.000000,208.000000,49.000000,54.000000,0.000000,0.000000,0.351041,0.434088,0.468509,0.516317,0.043026,257.000000,208.000000,49.000000,54.000000,0.000000,0.000000:
0000
0000
0000
0000
,
0000
0000
0000
0000
,
0000
0000
0000
0000
,
0000
0000
0000
0000
,
0000
0000
0000
0000
,
0000
0000
0000
0000
,
0000
0000
0000
0000
,
1000
0100
1000
0100
1000
0000
0000
0000
0000
0000
0000
0000
0000
0000
0000
0000
,
0000
0000
0002
0000
0000
0203
0000
0000
0320
0000
0000
2030
0000
0000
3002
0000
,
2000
0000
3003
0000
1001
0020
0000
0200
,
0000
0000
0000
0000
0000
0000
0330
0000
0000
0000
0020
0000
0000
2030
0000
0000
,
0002
0000
0000
0000
0000
0000
3003
0000
0000
0000
0200
0000
0000
0320
0000
0000
,
0200
0000
0000
0000
0000
0000
0330
0000
0000
0000
0002
0000
0000
2003
0000
0000
,
3002
0000
0000
0023
0000
0000
0130
0000
2000
0000
0000
3200
0000
0000
0310
0000
,
0002
0203
2300
3020
,
0031
0101
1000
1100
,
0010
1100
0010
0101
,
0100
0101
0100
1100
,
0001
1010
1000
0011
,
0100
0110
1000
0011
,
0100
1010
0001
1001
,
0010
0101
0010
1010
,
1000
0000
1001
0000
0001
0001
0001
0000
,
0100
1010
0010
0101
,
0001
1001
1000
1001
,
0100
0011
0100
1010
,
0001
0110
0001
1100
,
1000
0101
1000
0011
,
0010
1001
0010
1001
,
0100
0011
0001
1001
,
0100
0000
0001
0101
0000
1000
1100
0000
,
0010
0010
0020
0000
0230
0000
0301
2000
,
0000
0001
3002
0000
0000
0100
0103
0000
,
1000
1000
2000
0000
3200
0000
0310
0002
,
0000
0010
0023
0000
0000
0100
0130
0000
,
0001
0100
1000
0100
0001
0000
1000
1010
,
0000
0001
0011
0000
0100
0010
0100
0010
,
1000
0000
1100
0000
0000
0011
0000
0101
,
0000
1000
1100
0000
0000
0010
0010
0000
,
0001
0000
1100
0000
1000
0010
0100
0000
,
0010
0000
0101
0000
0001
0100
1000
0000
,
1001
0000
0100
0000
0000
0010
1000
0120
,
0000
2030
3002
0203
,
0301
0101
1000
1100
,
0010
0000
1001
0000
1000
0000
0001
0100
,
0001
0001
0002
0000
0000
0023
0000
0230
,
0000
1300
2000
0000
0000
0010
3010
0000
,
0100
0011
0100
1010
,
0001
0000
0110
0000
0100
0000
0010
2000
,
0000
0000
3002
0000
0203
0000
0010
0320
,
0000
1000
0001
0130
,
0002
0000
0023
0000
0230
0000
1000
2300
,
0000
0100
0010
3001
,
0020
0000
2030
0000
3200
0000
0001
0302
,
0000
0100
0010
1003
,
2002
0000
0000
0000
,
0000
0000
0000
3003
;

//---------------dance-single - old scale 1----------------
#NOTES:
     dance-single:
     :
     Beginner:
     3:
     0.125664,0.162783,0.066930,0.095614,0.000000,92.000000,85.000000,7.000000,10.000000,0.000000,0.000000,0.125664,0.162783,0.066930,0.095614,0.000000,92.000000,85.000000,7.000000,10.000000,0.000000,0.000000:
0000
0000
0000
0000
,
0000
0000
0000
0000
,
0000
0000
0000
0000
,
0000
0000
0000
0000
,
0000
0000
0000
0000
,
0000
0000
0000
0000
,
0000
0000
0000
0000
,
2000
0000
3000
0000
,
0002
0000
0003
0000
,
0200
0000
0300
0000
,
0020
0000
0030
0000
,
0002
0000
0003
0000
,
2000
0000
3000
0000
,
0020
0000
0030
0000
,
0200
0000
0300
0000
,
1001
0000
0000
0000
,
0000
0001
0000
0001
,
0000
1000
0000
1000
,
0000
0010
0000
0010
,
0000
0100
0000
0100
,
0000
0001
0000
0010
,
0000
0100
0000
1000
,
0000
1001
0000
0000
,
0110
0000
0000
0000
,
0000
0100
0000
0100
,
0000
0001
0000
0001
,
0000
0010
0000
0010
,
0000
1000
0000
1000
,
0000
0100
0000
0010
,
0000
1000
0000
0001
,
0000
0110
0000
0000
,
1000
1000
0000
0000
,
0001
0001
0000
0000
,
0100
0100
0000
0000
,
0010
0010
0000
0000
,
0100
0000
0010
0000
,
0001
0000
1000
0000
,
0010
0010
0000
0000
,
0100
0100
0000
0000
,
1000
0000
0100
0000
,
0010
0000
0001
0000
,
1001
0000
0000
0000
,
0110
0000
0000
0000
,
1000
1000
0000
0010
,
0000
0100
0000
0001
,
0001
0001
0000
0000
,
1000
1000
0000
0000
,
0010
0010
0000
0100
,
0000
0001
0000
1000
,
0000
0010
0010
0000
,
0100
0000
0001
0000
,
0000
1000
1000
0000
,
0100
0000
0010
0000
,
0000
0100
0100
0000
,
1000
0000
0001
0000
,
2002
0000
0000
0000
,
0000
0000
0000
3003
;
