#VERSION:0.83;
#TITLE:Bunmei kaika;
#SUBTITLE:;
#ARTIST:Sebastian Chinosuke;
#TITLETRANSLIT:;
#SUBTITLETRANSLIT:;
#ARTISTTRANSLIT:;
#GENRE:;
#ORIGIN:;
#CREDIT:;
#BANNER:Bunmei kaika.png;
#BACKGROUND:Bunmei kaika-bg.png;
#PREVIEWVID:;
#JACKET:Bunmei kaika-jacket.png;
#CDIMAGE:;
#DISCIMAGE:;
#LYRICSPATH:;
#CDTITLE:;
#MUSIC:Bunmei kaika.ogg;
#OFFSET:0.000000;
#SAMPLESTART:25.709999;
#SAMPLELENGTH:20.000000;
#SELECTABLE:YES;
#DISPLAYBPM:115.000000:230.000000;
#BPMS:0.000=115.000,
32.000=213.000,
272.000=218.000,
276.000=221.000,
280.000=223.000,
284.000=225.000,
288.000=227.000,
296.000=230.000;
#STOPS:;
#DELAYS:;
#WARPS:;
#TIMESIGNATURES:0.000=4=4;
#TICKCOUNTS:0.000=4;
#COMBOS:0.000=1;
#SPEEDS:0.000=1.000=0.000=0;
#SCROLLS:0.000=1.000;
#FAKES:;
#LABELS:0.000=Song Start;
#BGCHANGES:;
#KEYSOUNDS:;
#ATTACKS:
;

//---------------dance-single - ----------------
#NOTEDATA:;
#CHARTNAME:;
#STEPSTYPE:dance-single;
#DESCRIPTION:;
#CHARTSTYLE:;
#DIFFICULTY:Beginner;
#METER:5;
#RADARVALUES:0.226427,0.370265,0.199207,0.121256,0.000000,183.000000,160.000000,23.000000,14.000000,0.000000,0.000000,0.000000,0.000000,0.000000,0.226427,0.370265,0.199207,0.121256,0.000000,183.000000,160.000000,23.000000,14.000000,0.000000,0.000000,0.000000,0.000000,0.000000;
#CREDIT:;
#DISPLAYBPM:115.000000:230.000000;
#NOTES:
0000
0000
0000
0000
,
0000
0000
0000
0000
,
0000
0000
0000
0000
,
0000
0000
0000
0000
,
0100
0000
0100
0000
,
0100
0000
0100
0000
,
1000
0000
0010
0000
,
1000
0000
0001
0000
,
0010
0000
0000
0000
,
0001
0000
0000
0000
,
0100
0000
0000
0000
,
1000
0000
0000
0000
,
0001
0000
0000
0000
,
1000
0000
0000
0000
,
0010
0000
1000
0000
,
1001
0000
0000
0000
,
0000
0001
0000
0001
,
0000
1000
0000
0000
,
0000
0100
0000
0010
,
0010
0000
0001
0000
,
0200
0000
0300
0000
,
0020
0000
0030
0000
,
1000
1000
1000
0000
,
0001
0000
1000
0000
,
0000
0010
0000
0010
,
0000
0100
0000
0000
,
0000
0010
0000
1000
,
1000
0000
0100
0000
,
2000
0000
3000
0000
,
0002
0000
0003
0000
,
0100
0100
0100
0000
,
0001
0001
0001
0000
,
1001
0000
1001
0000
,
1001
0000
1001
0000
,
0010
0010
0010
0000
,
1000
0000
0000
0000
,
0110
0000
0110
0000
,
0110
0000
0000
0000
,
0000
0001
0001
0000
,
1000
1000
0000
0000
,
1001
0000
1001
0000
,
0001
0001
0001
0000
,
0100
0000
0010
0000
,
0100
0000
0000
0000
,
0110
0000
0110
0000
,
1000
1000
1000
0000
,
0100
0000
0010
0000
,
0010
0000
0000
0000
,
0001
0001
0001
0000
,
0100
0000
0001
0000
,
1000
0000
0001
0000
,
1000
0000
0100
0000
,
0010
0010
0010
0000
,
0001
0000
1000
0000
,
0000
1001
0000
0000
,
0100
0100
0000
0000
,
0000
1000
0000
1000
,
0000
0010
0000
0000
,
0000
0100
0000
0001
,
0001
0000
0010
0000
,
0200
0000
0300
0000
,
2000
0000
3000
0000
,
1001
0000
0110
0000
,
1000
1000
1000
0000
,
0002
0000
0003
0000
,
0020
0000
0030
0000
,
0001
0000
0100
0000
,
1000
0000
0000
0000
,
0020
0000
0030
0000
,
2000
0000
3000
0000
,
0100
0000
0010
0000
,
0001
0000
0000
0000
,
2000
0000
3000
0000
,
0002
0000
0003
0000
,
0010
0000
0001
0000
,
0100
0000
0000
0000
,
0020
0000
0030
0000
,
0200
0000
0300
0000
,
0001
0000
0010
0000
,
1000
0000
0000
0000
,
1001
0000
1001
0000
,
0100
0100
0100
0000
,
0010
0000
1000
0000
,
0001
0000
0000
0000
,
0110
0000
0110
0000
,
0010
0010
0010
0000
,
0100
0000
0001
0000
,
1000
0000
0000
0000
,
1001
0000
1001
0000
,
1000
1000
1000
0000
,
0100
0000
1000
0000
,
0001
0000
0000
0000
,
0110
0000
0110
0000
,
0001
0001
0001
0000
,
1000
0000
0010
0000
,
0100
0000
0000
0000
;

//---------------dance-single - ----------------
#NOTEDATA:;
#CHARTNAME:;
#STEPSTYPE:dance-single;
#DESCRIPTION:;
#CHARTSTYLE:;
#DIFFICULTY:Easy;
#METER:8;
#RADARVALUES:0.407074,0.452149,0.415736,0.086612,0.095273,329.000000,281.000000,48.000000,10.000000,0.000000,0.000000,0.000000,0.000000,0.000000,0.407074,0.452149,0.415736,0.086612,0.095273,329.000000,281.000000,48.000000,10.000000,0.000000,0.000000,0.000000,0.000000,0.000000;
#CREDIT:;
#DISPLAYBPM:115.000000:230.000000;
#NOTES:
0000
0000
0000
0000
,
0000
0000
0000
0000
,
0000
0000
0000
0000
,
0000
0000
0000
0000
,
0100
1000
0001
0000
,
0100
0001
1000
0000
,
0010
0010
1000
0001
,
1000
0100
0100
0000
,
0020
0000
0000
0000
0000
0000
0000
0000
0000
0030
0000
0001
,
0200
0000
0000
0000
0000
0000
0000
0000
0000
0300
0000
0010
,
2000
0000
0000
0000
0000
0000
0000
0000
0000
3000
0000
0001
,
0020
0000
0000
0000
0000
0000
0000
0000
0000
0030
0000
0100
,
2000
0000
0000
0000
0000
0000
0000
0000
0000
3000
0000
0010
,
0200
0000
0000
0300
,
0001
0001
1000
1000
,
1001
0000
0000
0000
0000
0000
0000
0000
0020
0000
0000
0000
,
0130
0010
0100
0001
,
1000
0100
0001
0000
,
0000
0010
0001
0100
,
1000
0001
0001
0100
,
0010
0000
0000
1000
0000
0000
0001
0000
0000
0000
0000
1000
,
0100
0010
0001
0000
,
0101
0101
0101
0000
,
1000
0001
1000
0000
,
0010
1000
0100
0010
,
0001
0100
1000
0000
,
0001
0010
1000
0100
,
0010
0001
0001
0100
,
1000
0010
0100
0100
,
0001
0010
0100
0000
,
1100
1100
1100
0000
,
0010
1000
0001
0100
,
0001
0010
1000
0010
,
0001
0010
1000
0010
,
0001
0100
0010
1000
,
0100
1000
0001
0100
,
0001
0010
1000
0010
,
0001
0100
0010
0000
,
0000
1000
0100
0000
,
1000
0001
1000
0010
,
0101
0000
0000
0000
0000
1100
0000
0000
0000
0101
0000
0000
,
1000
0010
1000
0001
,
1000
0000
0100
0010
,
0001
0100
1000
0010
,
1010
0000
0000
0000
0000
0011
0000
0000
0000
1010
0000
0000
,
0100
0001
1000
0100
,
0010
0000
0001
0100
,
1000
0000
0000
0000
0000
0000
0000
0000
0110
0000
0000
0000
,
1000
0100
0001
0000
,
0010
0001
0100
0010
,
1000
0100
1000
0010
,
1000
0100
0001
0010
,
0001
0100
1000
0010
,
0010
1000
0001
0000
,
0000
0000
1001
0000
0000
0000
0010
0000
0000
0100
0000
0000
,
0001
0010
0002
0000
,
1003
0010
1000
0010
,
1000
0100
0001
0000
,
0000
0100
0010
1000
,
0001
1000
1000
0001
,
0100
0000
0000
0010
0000
0000
1000
0000
0000
0000
0000
0001
,
1000
0010
0100
0000
,
0202
0300
1000
0100
,
1000
0010
0103
0000
,
0000
0101
0000
1100
,
0000
0101
0000
1100
,
0000
0101
0000
1100
,
0000
0000
0000
0101
0000
0000
0000
0000
1000
0001
0000
0000
,
0000
1100
0000
0011
,
0000
1100
0000
0011
,
0000
1100
0000
0011
,
0000
0000
0000
0000
0000
0000
0000
0000
1000
0001
0000
0000
,
0000
1010
0000
0101
,
0000
1010
0000
0101
,
0000
1010
0000
0101
,
0000
0000
0000
1010
0000
0000
0000
0000
0001
1000
0000
0000
,
0000
0011
0000
1010
,
0000
0011
0000
1010
,
0000
0011
0000
1010
,
0000
0000
0000
0000
0000
0000
0000
0000
1000
0001
0000
1000
,
0001
0000
0000
0000
0000
0110
0000
0000
0000
1000
0000
0000
,
0010
0100
0001
0001
,
1000
0000
0001
1000
,
0100
0000
0000
0000
0000
0000
0000
0000
0010
0001
0000
0000
,
1001
0000
0000
0000
0000
0110
0000
0000
0000
1001
0000
0000
,
0010
1000
0100
0010
,
0001
0000
0100
0010
,
1000
0000
0000
0000
0000
0000
0000
0000
0101
0000
0000
0000
,
1100
0000
1000
0010
,
0001
0100
0001
1000
,
0100
0000
0010
0001
,
1000
0000
0000
0010
,
1000
0100
1000
0010
,
0001
0100
0001
0010
,
0100
0000
0000
1000
0000
0000
0010
0000
0000
1000
0000
0100
;

//---------------dance-single - ----------------
#NOTEDATA:;
#CHARTNAME:;
#STEPSTYPE:dance-single;
#DESCRIPTION:;
#CHARTSTYLE:;
#DIFFICULTY:Medium;
#METER:11;
#RADARVALUES:0.539466,0.657671,0.346446,0.311802,0.575967,436.000000,396.000000,40.000000,36.000000,0.000000,0.000000,0.000000,0.000000,0.000000,0.539466,0.657671,0.346446,0.311802,0.575967,436.000000,396.000000,40.000000,36.000000,0.000000,0.000000,0.000000,0.000000,0.000000;
#CREDIT:;
#DISPLAYBPM:115.000000:230.000000;
#NOTES:
0000
0000
0000
0000
,
0000
0000
0000
0000
,
0000
0000
0000
0000
,
0000
0000
0000
0000
,
0100
0000
0000
1000
0010
0000
0000
0001
0010
0000
0000
0000
0000
0000
0000
0000
,
0100
0000
0000
1000
0010
0000
0000
0001
0010
0000
0000
0000
0000
0000
0000
0000
,
1000
0000
0000
0001
0100
0000
0000
0000
0001
0000
0000
0000
1000
0000
0000
0000
,
0010
0100
0001
0000
,
0010
0010
0010
0010
,
0001
0001
0001
0001
,
0100
0100
0100
0100
,
1000
1000
1000
1000
,
0001
0001
1000
1000
,
0010
0010
0100
0100
,
0001
0000
1000
0000
0000
0001
1000
0000
0000
1001
0000
0000
,
0110
0000
0000
0000
0000
0000
0000
0000
0002
0000
0000
0000
,
0013
0000
0000
0100
0000
0000
1000
0000
0001
0100
0000
0000
,
0001
0000
0000
1000
0000
0010
0000
0000
1000
0010
0000
0000
,
0100
0000
0000
0001
0000
0000
1000
0000
0010
0100
0000
0000
,
0010
0000
0000
1000
0000
0100
1000
0000
0000
0001
0000
0100
,
0001
0000
0000
0010
0000
0000
0001
0000
1000
0000
0000
0010
,
1000
0000
0000
0100
0000
0000
0010
0000
0001
0000
0000
0000
,
1001
1010
1100
0000
,
0001
0000
0001
1000
0000
1000
0010
0000
0100
0000
0000
0000
,
0001
0000
0000
0010
0000
0000
0001
0000
1000
0100
0000
0000
,
1000
0000
0000
0010
0000
0100
0000
0000
0010
0100
0000
0000
,
0000
0000
0001
0000
0000
1000
0001
0000
0000
0100
0000
0000
,
0110
0000
0000
1000
0000
0010
1000
0000
0000
0001
0000
0010
,
0001
0000
0000
1000
0000
0000
0001
0000
0100
0000
0000
0010
,
0100
0000
0000
0001
0000
0000
1000
0000
0100
0000
0000
0000
,
1100
0101
1100
0101
,
1000
0000
0010
1000
0000
0001
0000
0000
0100
0010
0000
0100
,
0010
1001
0010
1001
,
0010
0000
0000
1000
0000
0100
0000
0000
1000
0000
0000
0001
,
0000
0000
0010
0000
0000
0001
0000
0000
0100
0000
0000
0000
,
0010
0000
1000
0000
0000
0001
0000
0000
1000
0100
0000
0100
,
0010
0011
0010
0011
,
0001
0000
0100
0010
0000
1000
0000
0000
0000
1000
0000
0100
,
1000
0000
0000
0010
0000
0000
0100
0000
0001
0000
0000
0001
,
0010
0000
0000
0100
0000
2000
0000
0000
0000
3000
0000
0000
,
1100
0000
0000
0000
0000
0011
0000
0000
1000
0001
0000
1000
,
0002
0023
0230
2300
,
3010
0000
0100
0000
0000
0010
0100
0000
0000
0010
0000
0100
,
0000
0000
0000
0000
0000
0000
0000
0000
0001
1000
0000
0000
,
1010
0000
0000
0000
0000
0101
0000
0000
0010
1000
0000
0010
,
2000
3200
0320
0032
,
0103
0000
0010
0000
0000
0100
0010
0000
0000
0100
0000
0010
,
0000
0000
0000
0000
0000
0000
0000
0000
1001
0000
0000
1000
,
0001
0000
0001
0100
0000
0000
0010
0000
0000
0000
0000
0000
,
1000
0000
0000
0010
0000
1000
0000
0000
1100
0000
0000
0000
,
0001
0000
1000
0001
0000
0000
0100
0000
0000
0100
0000
0000
,
0100
0000
0000
0010
0000
1000
0000
0000
0001
0000
0000
1000
,
0000
0000
0100
0010
0000
0000
0010
0000
0000
0001
0000
0000
,
1000
0000
0000
0001
0000
0100
0000
0000
0000
0110
0000
0000
,
0000
0000
1001
0000
0000
0100
0010
0000
0000
0101
0000
0000
,
1100
0000
0000
0001
0000
1000
0000
0000
0020
0000
0000
0000
,
0130
0000
0000
0001
0000
0000
1000
0000
0001
0010
0000
0000
,
0100
0000
0000
1000
0000
0001
0000
0000
1000
0001
0000
0000
,
0100
0000
0000
0010
0000
0000
0100
0000
0001
1000
0000
0000
,
0100
0000
0000
1000
0000
0010
1000
0000
0000
0001
0000
0100
,
0001
0000
0000
0010
0000
0000
0001
0000
1000
0020
0000
0000
,
1030
0000
0000
0100
0000
0000
0010
0000
0001
0100
0000
0000
,
0001
0000
2000
0000
0000
0000
0010
0000
0000
0100
0000
0000
,
3001
0000
1000
0010
0000
0100
0000
0000
1001
0000
0000
0000
,
1000
0100
1000
0001
,
0100
0000
0010
0100
0000
0020
0000
0000
0000
0030
0000
0000
,
1010
0000
0000
1010
0000
0000
1000
0000
0001
0000
0000
0100
,
0000
0000
0000
0000
0000
0000
0000
0000
0001
1000
0000
0000
,
0001
0010
0001
0100
,
0010
0000
1000
0010
0000
0200
0000
0000
0000
0300
0000
0000
,
0101
0000
0000
0101
0000
0000
1000
0000
0001
0000
0000
0010
,
0000
0000
0000
0000
0000
0000
0000
0000
0100
1000
0000
0000
,
0010
1000
0100
0001
,
1000
0000
0001
0010
0000
0200
0000
0000
0000
0300
0000
0000
,
1100
0000
0000
1100
0000
0000
0010
0000
1000
0000
0000
0001
,
0000
0000
0000
0000
0000
0000
0000
0000
0100
0010
0000
0000
,
0100
0001
0010
1000
,
0100
0000
0010
0001
0000
2000
0000
0000
0000
3000
0000
0000
,
1001
0000
0000
1001
0000
0000
0010
0000
0001
0000
0000
0100
,
0000
0000
0000
0000
0000
0000
0000
0000
1000
0020
0000
0000
,
0130
0000
0000
0000
0000
0110
0000
0000
0100
0001
0000
0100
,
0002
2003
3200
0320
,
0031
0000
1000
0000
0000
0001
1000
0000
0000
0001
0000
1000
,
0000
0000
0000
0000
0000
0000
0000
0000
1000
0002
0000
0000
,
0103
0000
0000
0000
0000
0101
0000
0000
1000
0010
0000
1000
,
0020
0230
0302
2003
,
3100
0000
0010
0000
0000
0100
0010
0000
0000
0100
0000
0010
,
0000
0000
0000
0000
0000
0000
0000
0000
0011
0000
0000
0000
,
1100
0000
0000
0000
0000
0001
0100
0000
0000
0100
0000
0010
,
2000
3200
0320
0032
,
1003
0000
0001
0000
0000
1000
0001
0000
0000
1000
0000
0001
,
0000
0000
0000
0000
0000
0000
0000
0000
0100
0020
0000
0000
,
1030
1001
0101
1100
,
0002
0023
0230
2300
,
3010
0000
0100
0000
0000
0010
0100
0000
0000
0010
0000
0100
;

//---------------dance-single - ----------------
#NOTEDATA:;
#CHARTNAME:;
#STEPSTYPE:dance-single;
#DESCRIPTION:;
#CHARTSTYLE:;
#DIFFICULTY:Hard;
#METER:14;
#RADARVALUES:0.689181,0.657671,0.311802,0.155901,1.009025,557.000000,521.000000,36.000000,18.000000,0.000000,0.000000,0.000000,0.000000,0.000000,0.689181,0.657671,0.311802,0.155901,1.009025,557.000000,521.000000,36.000000,18.000000,0.000000,0.000000,0.000000,0.000000,0.000000;
#CREDIT:;
#DISPLAYBPM:115.000000:230.000000;
#NOTES:
// measure 0
0000
0000
0000
0000
,  // measure 1
0000
0000
0000
0000
,  // measure 2
0000
0000
0000
0000
,  // measure 3
0000
0000
0000
0000
,  // measure 4
0100
0000
0000
1000
0010
0000
0000
0001
0010
0000
0100
0000
0100
0000
0000
0000
,  // measure 5
0100
0000
0000
1000
0010
0000
0000
0001
0010
0000
0100
0000
0100
0000
0000
0000
,  // measure 6
1000
0000
0000
0001
0200
0000
0000
0000
0302
0000
1000
0000
1003
0000
0000
0000
,  // measure 7
0020
0000
0000
0000
1030
0000
0000
0001
2000
0000
0100
0000
3100
0000
0000
0000
,  // measure 8
0010
0000
0000
0010
0000
0000
0010
0000
0001
0010
0000
0001
,  // measure 9
0010
0000
0000
0010
0000
0000
0010
0000
0001
0010
0000
0001
,  // measure 10
0010
0000
0000
0010
0000
0000
0010
0000
0001
0010
0000
0001
,  // measure 11
0010
0000
0000
0010
0000
0000
0010
0000
0001
0010
0000
0001
,  // measure 12
0010
0000
0000
0010
0000
0000
0001
0000
1000
0100
0000
0000
,  // measure 13
0010
0000
0000
0010
0000
0000
0001
0000
1000
0100
0000
0000
,  // measure 14
1000
0000
1000
0000
0000
0001
0100
0000
0000
0010
0000
0000
,  // measure 15
0220
0000
0000
0330
0000
0000
2000
0000
0002
3000
0000
0000
,  // measure 16
0013
0000
0001
0000
0000
1000
0001
0000
0001
0100
0000
0100
,  // measure 17
0010
0000
1000
0001
0000
0100
0000
0000
0010
1000
0000
0010
,  // measure 18
1000
0000
0100
0000
0000
0010
0001
0000
0001
1000
0000
0000
,  // measure 19
0001
0000
0100
0010
0000
0010
1000
0000
1000
0001
0000
0001
,  // measure 20
0010
0000
0100
1000
0000
0000
0001
0000
0100
0010
0000
1000
,  // measure 21
0100
0000
0000
1001
0000
0000
1000
0000
0010
0100
0000
0001
,  // measure 22
0010
0000
0000
0010
0000
0000
0010
0000
0001
1000
0000
0001
,  // measure 23
1000
0000
1000
0100
0000
0100
1000
0000
0001
0100
0000
0000
,  // measure 24
0010
0000
1000
0000
0000
0001
1000
0000
1000
0100
0000
0100
,  // measure 25
0010
0000
0100
0010
0000
0001
0000
0000
1000
0200
0000
0000
,  // measure 26
0310
0000
0001
0000
0000
1000
0001
0000
0000
0100
0000
0000
,  // measure 27
0010
0000
1000
0010
0000
0100
0001
0000
0010
0001
0000
1000
,  // measure 28
0001
0000
0100
0010
0000
0000
1000
0000
1000
0100
0000
0010
,  // measure 29
0001
0000
0000
0101
0000
0000
1000
0000
0001
0100
0000
0000
,  // measure 30
1010
0000
0000
1100
0000
0000
0001
0000
0001
1000
0000
1000
,  // measure 31
0010
0000
1000
0001
0000
1000
0000
0000
0100
0010
0000
0010
,  // measure 32
0001
0011
1000
1010
,  // measure 33
0101
0000
0000
1000
0000
0010
0000
0000
0100
0000
0000
0001
,  // measure 34
0000
0000
0010
0000
0000
1000
0000
0000
0100
1000
0000
0001
,  // measure 35
1000
0000
0010
0000
0000
0110
0000
0000
0001
0100
0000
0010
,  // measure 36
1000
1100
0001
0101
,  // measure 37
1000
0000
0001
1000
0000
0100
0000
0000
0010
0001
0000
0010
,  // measure 38
0001
0000
1000
0001
0000
0001
0010
0000
0010
0000
0000
0100
,  // measure 39
1000
0000
0010
1000
0000
0002
0000
0000
0103
0010
0000
0100
,  // measure 40
0010
0000
0000
0000
0000
1001
0000
0000
1000
0100
0000
0100
,  // measure 41
0001
0000
0001
0100
0000
0100
1000
0000
0000
0001
0000
0000
,  // measure 42
1000
0000
0010
0000
0000
0100
0001
0000
1000
0001
0000
0100
,  // measure 43
0010
0000
1000
0010
0000
0100
0000
0000
0001
1000
0000
0001
,  // measure 44
1000
0000
0000
0000
0000
1010
0000
0000
0001
0100
0000
0100
,  // measure 45
1000
0000
1000
0100
0000
0100
0001
0000
0000
1000
0000
0000
,  // measure 46
0001
0000
0010
0000
0000
0100
1000
0000
0010
1000
0000
0001
,  // measure 47
0000
0000
2000
0000
0000
3010
1000
0000
0001
1000
0000
0001
,  // measure 48
0100
0010
0100
0000
0101
0000
0000
0000
,  // measure 49
1000
0000
0100
1000
0000
0001
0000
0000
0020
0000
0000
0000
,  // measure 50
0130
0000
1000
0100
0000
0000
0010
0000
0010
0001
0000
0000
,  // measure 51
1000
0000
0000
0001
0000
1000
0000
0000
0010
0100
0000
0001
,  // measure 52
0000
0000
1000
0100
0000
0000
1100
0000
0000
0011
0000
0000
,  // measure 53
0101
0000
0000
1000
0000
0001
0000
0000
0100
0010
0000
0000
,  // measure 54
0000
0000
1001
0000
0000
1000
0001
0000
0000
0001
0000
0000
,  // measure 55
0001
0000
0010
0100
0000
1000
0000
0000
0020
0000
0000
0000
,  // measure 56
1030
0000
0100
0000
0000
1000
0010
0000
0010
0100
0000
0001
,  // measure 57
0100
0000
0100
0010
0000
1000
0000
0000
0001
0100
0000
0000
,  // measure 58
0001
0000
0010
0000
0000
0001
1000
0000
0010
0100
0000
0000
,  // measure 59
0010
0000
1000
0100
0000
0010
0001
0000
0100
0001
0000
1000
,  // measure 60
0001
0000
0000
0011
0000
0000
1000
0000
0001
0100
0000
0010
,  // measure 61
1000
0000
0000
1010
0000
0000
0100
0000
0001
1000
0000
0010
,  // measure 62
0100
0000
0002
0000
0000
0000
1000
0000
0000
0103
0000
0010
,  // measure 63
1000
0000
0100
0010
0000
0001
0000
0000
1001
0000
0000
0000
,  // measure 64
0010
0000
1000
0010
0000
1000
0010
0000
0100
0001
0000
0000
,  // measure 65
1000
0000
0100
0010
0000
0002
0000
0000
0000
0003
0000
0000
,  // measure 66
0011
0000
0000
1100
0000
0000
0010
0000
0100
0000
0000
0001
,  // measure 67
0000
0000
0000
1010
0000
0000
0000
0000
1000
0100
0000
0000
,  // measure 68
1000
0000
0010
1000
0000
0010
1000
0000
0001
0100
0000
0000
,  // measure 69
0001
0000
1000
0100
0000
0020
0000
0000
0000
0030
0000
0000
,  // measure 70
0011
0000
0000
1001
0000
0000
1000
0000
0010
0000
0000
0100
,  // measure 71
0000
0000
0001
1000
0000
0001
1000
0000
0001
1000
0000
0000
,  // measure 72
0001
0000
0010
0001
0000
0010
0001
0000
1000
0100
0000
0000
,  // measure 73
1000
0000
0001
0100
0000
0020
0000
0000
0000
0030
0000
0000
,  // measure 74
0110
0000
0000
1001
0000
0000
1000
0000
0100
0000
0000
0010
,  // measure 75
0000
0000
0000
0011
0000
0000
0000
0000
0001
1000
0000
0000
,  // measure 76
0001
0000
0100
0001
0000
0100
0001
0000
1000
0010
0000
0000
,  // measure 77
1000
0000
0100
0010
0000
0002
0000
0000
0000
0003
0000
0000
,  // measure 78
1001
0000
0000
1100
0000
0000
1000
0000
0001
0000
0000
0100
,  // measure 79
0000
0000
0000
0000
0000
0000
0000
0000
0010
1000
0000
0010
,  // measure 80
1000
0000
0000
0000
0000
0101
0000
0000
0001
0010
0000
0010
,  // measure 81
1000
0000
1000
0010
0000
0010
0001
0000
0000
1000
0000
0000
,  // measure 82
0001
0000
0100
0000
0000
0010
1000
0000
0100
1000
0000
0010
,  // measure 83
0000
0000
1000
0000
0000
0001
0000
0000
1000
0100
0000
0000
,  // measure 84
0011
0000
0000
0000
0000
1010
0000
0000
1000
0010
0000
0010
,  // measure 85
0001
0000
0001
0010
0000
0010
1000
0000
0000
0001
0000
0000
,  // measure 86
1000
0000
0010
0000
0000
1000
0100
0000
0010
0001
0000
0100
,  // measure 87
0000
0000
0000
0010
0000
1000
0010
0000
0100
0000
0000
0000
,  // measure 88
0110
0000
0000
0000
0000
1000
0001
0000
1000
0001
0000
0100
,  // measure 89
1000
0000
0100
0001
0000
0100
0010
0000
0000
0100
0000
0000
,  // measure 90
0001
0000
0000
0010
0000
0001
1000
0000
0010
0100
0000
0001
,  // measure 91
0000
0000
1000
0000
0000
0001
0000
0000
1000
0100
0000
0000
,  // measure 92
1100
0000
0000
0010
0000
0010
1000
0000
1000
0001
0000
0001
,  // measure 93
0010
0000
1000
0010
0000
0001
0010
0000
0000
0100
0000
0000
,  // measure 94
1000
0000
0010
0000
0000
1000
0001
0000
1000
0010
0000
0100
;

//---------------dance-single - ----------------
#NOTEDATA:;
#CHARTNAME:;
#STEPSTYPE:dance-single;
#DESCRIPTION:;
#CHARTSTYLE:;
#DIFFICULTY:Challenge;
#METER:17;
#RADARVALUES:0.899523,0.863193,0.381091,0.155901,1.520033,727.000000,683.000000,44.000000,18.000000,0.000000,0.000000,0.000000,0.000000,0.000000,0.899523,0.863193,0.381091,0.155901,1.520033,727.000000,683.000000,44.000000,18.000000,0.000000,0.000000,0.000000,0.000000,0.000000;
#CREDIT:;
#DISPLAYBPM:115.000000:230.000000;
#NOTES:
0000
0000
0000
0000
,
0000
0000
0000
0000
,
0000
0000
0000
0000
,
0000
0000
0000
0000
,
0100
0000
0000
0000
0000
0000
1000
0010
1000
0000
0000
0000
0000
0000
0001
0000
0020
0000
0000
0000
0100
0000
0000
0000
0130
0000
0000
0000
0000
0000
0000
0000
,
0010
0000
0000
0000
0000
0000
0001
0100
0001
0000
0000
0000
0000
0000
1000
0000
0200
0000
0000
0000
0010
0000
0000
0000
0310
0000
0000
0000
0000
0000
0000
0000
,
0001
0000
0000
0000
0000
0000
0100
0010
0200
0000
0000
0000
0000
0000
0000
0000
0302
0000
0000
0000
1000
0000
0000
0000
1003
0000
0000
0000
0000
0000
0000
0000
,
0200
0000
0000
0000
0000
0000
0000
0000
1300
0000
0000
0000
0000
0000
0001
0100
0002
0000
0000
0000
0010
0000
0000
0000
0013
0000
0000
0000
0000
0000
0000
0000
,
1000
0000
0000
1000
0000
0000
1000
0000
1000
1000
0000
1000
,
1000
0000
0000
1000
0000
0000
1000
0000
1000
1000
0000
1000
,
1000
0000
0000
1000
0000
0000
1000
0000
1000
1000
0000
1000
,
1000
0000
0000
1000
0000
0000
1000
0000
1000
1000
0000
1000
,
1000
0000
0000
1000
0000
0000
1000
0000
1000
1000
0000
0000
,
1000
0000
0000
1000
0000
0000
1000
0000
1000
1000
0000
0000
,
1100
0000
0011
0000
0000
0100
0010
0000
0000
1001
0000
0000
,
0220
0000
0000
0330
0000
0000
2000
0000
0002
3000
0000
0000
,
0013
0000
0101
0000
0000
1000
0010
0000
0100
0001
0000
0010
,
0001
0000
1000
0010
0000
0200
0000
0000
0301
0010
0100
1000
,
0001
0000
1010
0000
0000
1000
0001
0000
0010
0100
0000
0000
,
1000
0000
0000
0000
0010
0000
0100
0000
0001
0000
1000
0000
0001
0000
0000
0000
0010
0000
0100
0000
0000
0000
1000
0001
,
1000
0000
0000
0000
0010
0000
0100
0000
0000
0000
0100
0000
0001
0000
0000
0000
0001
0000
0010
0000
0000
0000
0001
1000
,
0001
0000
0000
0000
0000
0000
0110
0000
0000
0000
1000
0000
0010
0000
0000
0000
0100
0000
0001
1000
0000
0000
0000
0000
,
1010
0000
0000
0101
0000
0000
1100
0000
0010
0001
0000
0100
,
0001
0000
1000
0010
0000
1000
0100
0000
0010
0001
0000
0000
,
1000
0000
0011
0000
0000
0100
0001
0000
0010
0001
0000
1000
,
0100
0000
0010
0001
0000
1000
0000
0000
0010
1000
0100
0010
,
0001
0000
1100
0000
0000
0010
0100
0000
0000
1001
0000
0000
,
0001
0000
0010
0001
0000
0000
1000
0000
0010
0000
0100
0000
0001
0000
0000
0000
0010
0000
0100
0000
0000
0000
1000
0000
,
0010
0000
0000
0000
1000
0000
0100
0000
0000
0000
0010
0000
0001
0000
0000
0000
0100
0000
0001
0000
0000
0000
1000
0010
,
1000
0000
0000
0000
0000
0000
0110
0000
0000
0000
0100
0000
0001
0000
0000
0000
0010
0000
0001
1000
0000
0100
0000
0000
,
0011
0000
0001
1000
0000
0010
1000
0000
0100
0010
0000
0001
,
0100
0000
0010
1000
0000
0001
0000
0000
0010
0001
0000
0100
,
1000
1010
0001
0011
,
1001
0000
0000
1100
0000
0101
0000
0000
0010
1000
0000
1100
,
0000
0000
0010
0001
0000
0101
0000
0000
0010
1000
0001
0100
,
0010
0000
1000
0000
0000
0110
0000
0000
1000
0100
0010
0001
,
0100
0101
0010
1010
,
0001
0000
0010
1000
0000
0100
0000
0000
0010
0001
0100
0010
,
1000
0000
0100
1000
0000
0001
0010
0000
0100
0010
0000
0001
,
0100
0000
0010
1000
0000
0001
0010
0000
0100
1000
0000
0001
,
0101
0000
0000
0010
0000
1100
0000
0000
1000
0010
0000
0010
,
0001
0000
0001
0010
0000
0010
1000
0000
0100
0001
0000
1000
,
0010
0000
0100
0001
0010
0100
1000
0000
0001
1000
0000
0010
,
0100
0000
0001
0010
0000
0100
1000
0000
0001
1000
0000
0010
,
0110
0000
0000
1000
0000
0101
0000
0000
0001
0010
0000
0010
,
1000
0000
1000
0010
0000
0010
0001
0000
0100
1000
0000
0001
,
1000
0000
0010
0100
0000
0001
0010
0000
0100
1000
0000
0001
,
0000
0000
1200
0000
0000
1300
0001
0000
0100
0010
0000
0100
,
0001
0000
0010
0001
0000
0100
1000
0000
0010
0100
0000
0001
,
0010
0100
1000
0010
0100
0001
0010
0100
1000
0001
0100
0010
,
1000
0000
0010
0100
0000
0001
0010
0000
0100
0010
0000
0001
,
1000
0000
0001
1000
0000
0010
0100
0000
0001
0010
0000
1000
,
0100
0000
0010
0001
1000
0001
0100
0000
0010
1000
0001
1000
,
0100
0000
0010
0001
0000
0100
1000
0000
0001
0100
0010
1000
,
0000
0000
2010
0000
0000
0001
3001
0000
1000
0100
0000
0000
,
1000
0000
0010
0100
0000
1001
0000
0000
0020
0000
0000
0130
,
0001
0000
0011
0000
0000
1000
0001
0000
1000
0100
0000
0010
,
0001
0000
0100
0001
0000
1000
0010
0000
1000
0100
0000
0000
,
0010
0000
0101
0000
0000
1000
0100
0000
1000
0001
0000
0100
,
0001
0000
0010
0100
1000
0010
0100
0000
0001
1000
0100
0010
,
0001
0000
0000
0000
0100
0000
0010
0000
0000
0000
1000
0000
0001
0000
0000
0000
0010
0000
0100
0000
0000
0000
1000
0010
,
1000
0000
0100
0001
0000
0010
0001
0000
1000
0010
0000
0100
,
0110
0000
2020
0000
3000
0100
0100
0000
0000
0130
0000
0001
,
1000
0000
0010
0100
0000
0101
0000
0000
1100
0000
0000
0000
,
0001
0000
0010
1000
0000
0100
1000
0000
0100
1000
0000
0010
,
1000
0000
0000
0000
0000
0000
0000
0000
0000
0000
0000
0000
0000
0000
0000
0000
0000
0000
0000
0000
0000
0000
0000
0000
0000
0000
0000
0000
0000
0000
0000
0000
0001
0000
0000
0000
0000
0000
0000
0000
0000
0000
0000
0000
0000
0000
0000
0000
1000
0000
0000
0000
0000
0000
0000
0000
0000
0000
0000
0000
0000
0000
0000
0000
0000
0000
0000
0000
0000
0000
0000
0000
0000
0000
0000
0000
0000
0000
0000
0000
0100
0000
0000
0000
0000
0000
0000
0000
0000
0000
0000
0000
0000
0000
0000
0000
1000
0000
0000
0000
0000
0000
0000
0000
0000
0000
0000
0000
0000
0000
0000
0000
0000
0000
0000
0000
0000
0000
0000
0000
0000
0000
0000
0000
0000
0000
0000
0000
0001
0000
0000
0000
0000
0000
0000
0000
0000
0000
0000
0000
0000
0000
0000
0000
0010
0000
0000
0000
0000
0000
0001
0000
0000
0000
0000
0000
0000
0000
0000
0000
0000
0000
0000
0000
0000
0000
0000
0000
0000
0000
0000
0000
0000
0000
0000
0000
0000
0000
0000
0000
0000
0000
0000
0000
0000
0000
0000
0000
0000
0000
0000
0000
,
0100
0000
0001
1000
0000
0001
1000
0000
0100
0010
0000
0001
,
0000
0000
0000
0000
0000
0000
0000
0000
0000
0000
0000
0000
0000
0000
0000
0000
0000
0000
0000
0000
0000
0000
0000
0000
0000
0000
0000
0000
0000
0000
0000
0000
0100
0000
0000
0000
0000
0000
0000
0000
0000
0000
0000
0000
0000
0000
0000
0000
0010
0000
0000
0000
0000
0000
1000
0000
0000
0000
0000
0000
0000
0000
0000
0000
0000
0000
0000
0000
0000
0000
0000
0000
0000
0000
0000
0000
0000
0000
0000
0000
0100
0000
0000
0000
0000
0000
0000
0000
0000
0000
0000
0000
0000
0000
0000
0000
1000
0000
0000
0000
0000
0000
0000
0000
0000
0000
0000
0000
0000
0000
0000
0000
0000
0000
0000
0000
0000
0000
0000
0000
0000
0000
0000
0000
0000
0000
0000
0000
0001
0000
0000
0000
0000
0000
0000
0000
0000
0000
0000
0000
0000
0000
0000
0000
0100
0000
0000
0000
0000
0000
0010
0000
0000
0000
0000
0000
0000
0000
0000
0000
0000
0000
0000
0000
0000
0000
0000
0000
0000
0000
0000
0000
0000
0000
0000
0000
0010
0000
0000
0000
0000
0000
0000
0000
0000
0000
0000
0000
0000
0000
0000
0000
,
1000
0000
0001
1000
0000
0010
0100
0000
0100
0001
0000
0010
,
0001
0000
0000
0000
0000
0000
0000
0000
0000
0000
0000
0000
0000
0000
0000
0000
0000
0000
0000
0000
0000
0000
0000
0000
0000
0000
0000
0000
0000
0000
0000
0000
1000
0000
0000
0000
0000
0000
0000
0000
0000
0000
0000
0000
0000
0000
0000
0000
0001
0000
0000
0000
0000
0000
0000
0000
0000
0000
0000
0000
0000
0000
0000
0000
0000
0000
0000
0000
0000
0000
0000
0000
0000
0000
0000
0000
0000
0000
0000
0000
0100
0000
0000
0000
0000
0000
0000
0000
0000
0000
0000
0000
0000
0000
0000
0000
0000
0000
0000
0000
0000
0000
0000
0000
0000
0000
0000
0000
0000
0000
0000
0000
0000
0000
0000
0000
0000
0000
0000
0000
0000
0000
0000
0000
0000
0000
0000
0000
0010
0000
0000
0000
0000
0000
0000
0000
0000
0000
0000
0000
0000
0000
0000
0000
1000
0000
0000
0000
0000
0000
0001
0000
0000
0000
0000
0000
0000
0000
0000
0000
0000
0000
0000
0000
0000
0000
0000
0000
0000
0000
0000
0000
0000
0000
0000
0000
1000
0000
0000
0000
0000
0000
0000
0000
0000
0000
0000
0000
0000
0000
0000
0000
,
0100
0000
1000
0010
0000
0100
0001
0000
0010
0001
0000
1000
,
0100
0000
1000
0001
0000
1000
0001
0000
1000
0001
0000
0100
,
0010
0000
0000
0000
1000
0001
1000
0000
0000
0000
0100
0000
0010
0000
0000
0000
0001
0100
0001
0000
0000
0000
1000
0000
,
0010
0000
0000
0000
0000
0000
0000
0000
0000
0000
0000
0000
0000
0000
0000
0000
0000
0000
0000
0000
0000
0000
0000
0000
0000
0000
0000
0000
0000
0000
0000
0000
0100
0000
0000
0000
0000
0000
0000
0000
0000
0000
0000
0000
0000
0000
0000
0000
0001
0000
0000
0000
0000
0000
0000
0000
0000
0000
0000
0000
0000
0000
0000
0000
0000
0000
0000
0000
0000
0000
0000
0000
0000
0000
0000
0000
0000
0000
0000
0000
0010
0000
0000
0000
0000
0000
0000
0000
0000
0000
0000
0000
0000
0000
0000
0000
1000
0000
0000
0000
0000
0000
0000
0000
0000
0000
0000
0000
0000
0000
0000
0000
0000
0000
0000
0000
0000
0000
0000
0000
0000
0000
0000
0000
0000
0000
0000
0000
0000
0000
0000
0000
0000
0000
0000
0000
0000
0000
0000
0000
0000
0000
0000
0000
0001
0000
0000
0000
0000
0000
0010
0000
0000
0000
0000
0000
0000
0000
0000
0000
0000
0000
0000
0000
0000
0000
0000
0000
0000
0000
0000
0000
0000
0000
0000
0000
0100
0000
0000
0000
0000
0000
0000
0000
0000
0000
0000
0000
0000
0000
0000
0000
,
1000
0000
0000
0000
0010
0100
0010
0000
0000
0000
1000
0000
0001
0000
0000
0000
0100
0010
0100
0000
0000
0000
0001
0000
,
1000
0000
0000
0000
0000
0000
0000
0000
0000
0000
0000
0000
0000
0000
0000
0000
0000
0000
0000
0000
0000
0000
0000
0000
0000
0000
0000
0000
0000
0000
0000
0000
0010
0000
0000
0000
0000
0000
0000
0000
0000
0000
0000
0000
0000
0000
0000
0000
1000
0000
0000
0000
0000
0000
0001
0000
0000
0000
0000
0000
0000
0000
0000
0000
0000
0000
0000
0000
0000
0000
0000
0000
0000
0000
0000
0000
0000
0000
0000
0000
0100
0000
0000
0000
0000
0000
0000
0000
0000
0000
0000
0000
0000
0000
0000
0000
0010
0000
0000
0000
0000
0000
0000
0000
0000
0000
0000
0000
0000
0000
0000
0000
0000
0000
0000
0000
0000
0000
0000
0000
0000
0000
0000
0000
0000
0000
0000
0000
1000
0000
0000
0000
0000
0000
0000
0000
0000
0000
0000
0000
0000
0000
0000
0000
0100
0000
0000
0000
0000
0000
0010
0000
0000
0000
0000
0000
0000
0000
0000
0000
0000
0000
0000
0000
0000
0000
0000
0000
0000
0000
0000
0000
0000
0000
0000
0000
0001
0000
0000
0000
0000
0000
0000
0000
0000
0000
0000
0000
0000
0000
0000
0000
,
1000
0000
0000
0000
0001
0010
0001
0000
0000
0000
0100
0000
0010
0000
0000
0000
1000
0100
1000
0000
0000
0000
0001
0000
,
0010
0000
0000
0000
0000
0000
0000
0000
0000
0000
0000
0000
0000
0000
0000
0000
0000
0000
0000
0000
0000
0000
0000
0000
0000
0000
0000
0000
0000
0000
0000
0000
0100
0000
0000
0000
0000
0000
0000
0000
0000
0000
0000
0000
0000
0000
0000
0000
1000
0000
0000
0000
0000
0000
0000
0000
0000
0000
0000
0000
0000
0000
0000
0000
0000
0000
0000
0000
0000
0000
0000
0000
0000
0000
0000
0000
0000
0000
0000
0000
0001
0000
0000
0000
0000
0000
0000
0000
0000
0000
0000
0000
0000
0000
0000
0000
0100
0000
0000
0000
0000
0000
0000
0000
0000
0000
0000
0000
0000
0000
0000
0000
0000
0000
0000
0000
0000
0000
0000
0000
0000
0000
0000
0000
0000
0000
0000
0000
0000
0000
0000
0000
0000
0000
0000
0000
0000
0000
0000
0000
0000
0000
0000
0000
0001
0000
0000
0000
0000
0000
1000
0000
0000
0000
0000
0000
0000
0000
0000
0000
0000
0000
0000
0000
0000
0000
0000
0000
0000
0000
0000
0000
0000
0000
0000
0000
0010
0000
0000
0000
0000
0000
0000
0000
0000
0000
0000
0000
0000
0000
0000
0000
,
1000
0000
0000
0000
0001
0100
0001
0000
0000
0000
0010
0000
0100
0000
0000
0000
1000
0001
1000
0000
0000
0000
0010
0000
,
0000
0000
0000
0100
0000
0000
0100
0000
0001
1000
0000
0001
,
1000
0000
0000
0010
0000
0101
0000
0000
1000
0100
0010
0001
,
1000
0000
0010
1000
0001
0010
0100
0000
1000
0001
0000
1000
,
0010
0000
0010
1000
0000
0100
0001
0000
0010
0001
0000
1000
,
0010
0000
1100
0000
0000
0011
0000
0000
1000
0002
0000
0000
,
0013
0000
0001
0100
0000
1001
0000
0000
1000
0010
0000
1000
,
0001
0010
0100
1000
0010
0100
0001
0000
1000
0001
0000
0100
,
0010
0000
1000
0100
0010
0001
0100
0001
0010
0001
0000
1000
,
0010
0000
0100
0001
0010
0100
1000
0000
0001
1000
0000
0010
,
0100
0000
0000
0001
0100
0010
1000
0000
0100
1000
0000
0001
,
1000
0000
0010
0001
0000
0010
1000
0000
0100
0010
0000
0001
,
0100
0000
0010
1000
0000
0001
1000
0000
0100
0010
0000
0001
,
0100
0000
0010
0000
0000
0110
0000
0000
0001
2000
0000
0000
,
3010
0000
0000
1010
0000
0100
0001
0000
0010
0100
0000
1000
,
0001
0000
0010
0001
0000
0100
1000
0000
0010
0001
0000
1000
,
0001
0000
0100
0010
0000
1000
0001
0000
1000
0010
0000
0100
;
