#VERSION:0.83;
#TITLE:Buffalo;
#SUBTITLE:;
#ARTIST:good-cool feat. Hideo Suwa;
#TITLETRANSLIT:;
#SUBTITLETRANSLIT:;
#ARTISTTRANSLIT:;
#GENRE:;
#ORIGIN:;
#CREDIT:;
#BANNER:Buffalo-bn.png;
#BACKGROUND:Buffalo-bg.png;
#PREVIEWVID:;
#JACKET:Buffalo-jacket.png;
#CDIMAGE:;
#DISCIMAGE:;
#LYRICSPATH:;
#CDTITLE:;
#MUSIC:Buffalo.ogg;
#OFFSET:1.111000;
#SAMPLESTART:54.445000;
#SAMPLELENGTH:20.000000;
#SELECTABLE:YES;
#DISPLAYBPM:108.000000;
#BPMS:0.000=108.000;
#STOPS:;
#DELAYS:;
#WARPS:;
#TIMESIGNATURES:0.000=4=4;
#TICKCOUNTS:0.000=4;
#COMBOS:0.000=1;
#SPEEDS:0.000=1.000=0.000=0;
#SCROLLS:0.000=1.000;
#FAKES:;
#LABELS:0.000=Song Start;
#BGCHANGES:;
#KEYSOUNDS:;
#ATTACKS:
;

//---------------dance-single - ----------------
#NOTEDATA:;
#CHARTNAME:;
#STEPSTYPE:dance-single;
#DESCRIPTION:;
#CHARTSTYLE:;
#DIFFICULTY:Hard;
#METER:14;
#RADARVALUES:0.608354,0.634315,0.257489,0.158455,0.821986,430.000000,404.000000,26.000000,16.000000,0.000000,0.000000,0.000000,0.000000,0.000000,0.608354,0.634315,0.257489,0.158455,0.821986,430.000000,404.000000,26.000000,16.000000,0.000000,0.000000,0.000000,0.000000,0.000000;
#CREDIT:;
#DISPLAYBPM:108.000000;
#NOTES:
0000
0000
0000
0000
,
0000
0000
0000
0000
,
0000
0000
0000
0000
,
0000
0000
0000
0000
,
0000
0000
0000
0000
,
1000
0000
0001
0000
0010
0100
0010
0100
0000
1000
0000
0002
0000
0000
0003
0000
,
0100
0000
0010
0000
1000
0001
1000
0001
0000
0010
0000
0200
0000
0000
0300
0000
,
1000
0000
0010
0000
0100
0001
0100
0001
0000
1000
0000
0020
0000
0000
0030
0000
,
1000
0000
0001
0000
0010
0000
0100
0000
1000
0010
1000
0001
0000
0000
0110
0000
,
1001
0000
1000
0100
1000
0000
1100
0000
0101
0000
0100
0010
0000
1000
0001
0000
,
1000
0000
0010
0000
0100
0000
0001
0010
0000
0100
1000
0000
0001
0000
0101
0000
,
1010
0000
0001
1000
0001
0000
0011
0000
1100
0000
0010
0100
0000
0001
1000
0010
,
0100
0000
0010
0000
0100
0000
0001
1000
0000
0100
0010
0000
0001
0000
1001
0000
,
0110
0000
0010
1000
0010
0000
1010
0000
1001
0000
0001
0010
0000
0100
1000
0000
,
0002
0000
0000
0000
1003
0000
0010
0100
0000
0010
0100
0000
0001
0000
0011
0000
,
0101
0000
1000
0001
1000
0000
1010
0000
0110
0000
0010
1000
0000
0001
0100
0000
,
0020
0000
0000
0000
1030
0000
0002
0000
1003
0100
0010
0001
0100
0010
1000
0000
,
0001
0100
0000
0000
0110
0000
0001
0000
1000
0100
0000
0010
0000
0001
1000
0000
,
0100
0000
1000
0001
0000
1000
0001
0000
0100
0000
0010
0000
1000
0000
0001
0000
,
0010
0001
0000
0001
1000
0000
0010
0100
0010
1000
0000
0002
0000
0000
0013
0000
,
1001
0000
0000
1010
0000
0000
1100
0000
0101
0000
0010
0000
1000
0001
1000
0001
,
1000
0010
0000
0010
0100
0000
0001
0000
0010
0100
0000
2000
0000
0000
3001
0000
,
1000
0000
0100
1000
0000
1000
0001
0000
0100
0010
0100
0000
0001
0000
0001
0000
,
0010
0001
0000
0001
1000
0000
0010
0000
1000
0001
0000
0100
0000
0010
1000
0000
,
2100
0000
0000
0001
0000
0000
0010
0000
0000
3001
0000
0000
0000
1000
0100
1000
,
0001
0000
0010
0100
0000
1000
0100
1000
0001
0000
0100
0010
1000
0001
1000
0100
,
0010
0000
0001
0000
1000
0001
0000
0100
0000
0000
0000
0010
1000
0100
1000
0001
,
0010
0000
0001
1000
0000
0100
1000
0001
1000
0000
0010
0100
0001
0100
0010
1000
,
0001
0000
0010
0000
0001
0000
1000
0100
0000
0100
0020
0000
0031
0100
0001
0000
,
1001
0000
0010
0100
0000
0001
0010
0100
1000
0010
1000
0001
1000
0010
0100
0001
,
0010
0000
0100
0000
1000
0001
0000
1000
0000
0001
0100
0001
1000
0100
0010
0001
,
0100
0000
0010
1000
0000
0001
0010
0001
0100
0000
0010
1000
0001
0010
0100
1000
,
0001
0100
0000
0100
0000
0010
1000
0000
0001
1000
0000
0100
0000
0010
0001
0000
,
0110
0000
0000
0000
1000
0001
1000
0000
0010
0000
0100
0000
0001
0000
0000
0000
,
0020
0000
0000
0000
0031
1000
0001
1000
0001
0000
0100
0000
0010
1000
0001
1000
,
0100
0000
0000
0000
0100
0010
0100
0000
1000
0000
0001
0000
1000
0000
0010
0100
,
0001
0000
0010
0100
0000
0100
1000
0001
1000
0010
0100
0002
0000
0000
0013
0100
,
1000
0001
0000
0001
0010
0100
0000
0100
0000
1000
0001
0000
1000
0000
0010
0000
,
0100
0001
0000
0001
0010
0000
0100
1000
0000
1000
0001
0000
0201
0000
0000
0000
,
0310
1000
0000
1000
0100
0010
0000
0010
0000
0001
1000
0000
0001
0000
0100
0000
,
0010
1000
0000
0010
0100
0000
0001
1000
0000
0001
0010
0000
0100
1000
0001
0100
,
0010
1000
0000
1000
0001
0010
0000
0010
0000
0100
1000
0000
0001
0000
0100
0000
,
0001
1000
0000
1000
0010
0000
0100
0001
0000
0001
1000
0000
2010
0000
0000
0000
,
3001
0010
0000
0010
0100
1000
0000
1000
0000
0010
0100
0000
0001
0000
1000
0000
,
0001
0100
0010
1000
0100
0010
0001
1000
0010
1000
0001
0100
0001
0010
0100
2000
,
0002
0000
0000
3003
;

//---------------dance-single - ----------------
#NOTEDATA:;
#CHARTNAME:;
#STEPSTYPE:dance-single;
#DESCRIPTION:;
#CHARTSTYLE:;
#DIFFICULTY:Medium;
#METER:11;
#RADARVALUES:0.398967,0.407774,0.217876,0.178262,0.257489,282.000000,260.000000,22.000000,18.000000,0.000000,0.000000,0.000000,0.000000,0.000000,0.398967,0.407774,0.217876,0.178262,0.257489,282.000000,260.000000,22.000000,18.000000,0.000000,0.000000,0.000000,0.000000,0.000000;
#CREDIT:;
#DISPLAYBPM:108.000000;
#NOTES:
0000
0000
0000
0000
,
0000
0000
0000
0000
,
0000
0000
0000
0000
,
0000
0000
0000
0000
,
0000
0000
0000
0000
,
1000
0010
1000
0001
0010
0100
1000
0000
,
0001
0100
0010
0100
0001
1000
0100
0000
,
0010
0001
1000
0010
1000
0100
0010
0000
,
0001
0100
0010
1000
0100
0010
0001
1001
,
0110
0000
0000
1001
0110
0000
0000
1000
,
0010
1000
0100
0010
0001
1000
0000
1100
,
0101
0000
0000
1100
0101
0000
0000
0010
,
1000
0100
1000
0001
0100
0010
0000
1010
,
0011
0000
0000
1010
0011
0000
0000
0001
,
2000
0000
0000
0000
3010
0000
0100
0001
0000
0000
1000
0000
0000
0000
1010
0000
,
0101
0000
0000
0011
1100
0000
0000
0001
,
0200
0000
0310
2000
0000
3001
1000
0100
,
1000
0001
0000
0000
0100
0000
0001
0000
0100
0000
0010
0000
1000
0000
0001
0000
,
0010
0000
0000
0010
0000
0000
0001
0000
1000
0000
0010
0000
1000
0000
0100
0000
,
1000
0000
0110
0001
1000
0010
1000
0100
,
1000
0000
0000
0001
0000
0000
0100
0000
0010
0000
0000
0000
1000
0001
1000
0001
,
1000
0000
1001
0010
1000
0001
0010
0100
,
1000
0000
0000
0001
0000
0000
0100
0000
0001
0000
0010
0000
0100
0000
0000
0000
,
1000
0000
0000
0001
1000
0000
0010
0000
0100
0000
0001
0000
1000
0000
0100
0000
,
0020
0000
0000
0001
0000
0000
1000
0000
0000
0031
0000
0000
0000
0100
0010
0100
,
0010
0000
2000
0002
0000
0000
0000
0000
0000
3003
0000
0000
0000
0000
0001
1000
,
0001
0000
0100
0000
0010
1000
0000
0001
0000
0000
0000
0000
0000
0000
0000
0000
,
1000
0000
0200
0020
0000
0000
0000
0000
0000
0330
0000
0000
0000
0000
0001
0000
,
0001
0000
0100
0000
0001
0000
1000
0010
0000
0000
0200
0000
0010
0000
0310
0000
,
0100
0000
0002
2000
0000
0000
0000
0000
0000
3003
0000
0000
0000
0000
0010
1000
,
0010
0000
0100
0000
0001
1000
0000
0200
0000
0000
0320
0000
0000
0000
0000
0000
,
0031
0000
2000
0020
0000
0000
0000
0000
0000
3030
0000
0000
0000
0000
0100
0001
,
0100
0010
1000
0001
0010
0100
1000
0001
,
1001
0000
0100
0000
0100
0001
1000
0000
,
0010
0000
0000
0000
1000
0000
0000
0000
0001
0000
0000
0000
1000
0100
1000
0100
,
1000
0000
0001
0000
1000
0100
0010
0000
,
0011
0000
0000
0000
1000
0001
1000
0001
1000
0000
0010
0000
0100
0000
0001
0000
,
0010
0001
0000
0000
0001
0000
0000
1000
0000
0000
0001
0000
0100
0000
0010
0000
,
0000
1000
0000
0000
0100
0000
0000
1000
0000
0001
0100
0000
0120
0000
0000
0000
,
1030
0010
0000
0000
0100
0000
0000
0001
0000
0000
1000
0000
0001
0000
0010
0000
,
0000
0100
0000
0000
1000
0000
0000
0010
0000
0100
0001
0000
1000
0010
1000
0010
,
1000
0010
0000
0000
0100
0000
0000
0001
0000
0000
0010
0000
0001
0000
1000
0000
,
0000
0010
0000
0000
1000
0000
0000
0100
0000
0010
0001
0000
0201
0000
0000
0000
,
0301
0100
0000
0000
0001
0000
0000
1000
0000
0000
0100
0000
0010
0000
0001
0000
,
0000
1000
0000
0000
0001
0000
0000
0100
0000
0010
1000
0010
1000
0010
1000
0000
,
0002
0000
0000
0003
;

//---------------dance-single - ----------------
#NOTEDATA:;
#CHARTNAME:;
#STEPSTYPE:dance-single;
#DESCRIPTION:;
#CHARTSTYLE:;
#DIFFICULTY:Easy;
#METER:6;
#RADARVALUES:0.215046,0.222827,0.118841,0.000000,0.000000,152.000000,140.000000,12.000000,0.000000,0.000000,0.000000,0.000000,0.000000,0.000000,0.215046,0.222827,0.118841,0.000000,0.000000,152.000000,140.000000,12.000000,0.000000,0.000000,0.000000,0.000000,0.000000,0.000000;
#CREDIT:;
#DISPLAYBPM:108.000000;
#NOTES:
0000
0000
0000
0000
,
0000
0000
0000
0000
,
0000
0000
0000
0000
,
0000
0000
0000
0000
,
0000
0000
0000
0000
,
1000
0010
0100
0001
,
0010
0100
1000
0001
,
0100
0001
1000
0010
,
0001
1000
0010
0100
,
1001
0000
0110
0000
,
1000
0100
1000
0000
,
1001
0000
0110
0000
,
0001
0010
0001
0000
,
0110
0000
1001
0000
,
0100
0001
0100
0000
,
0110
0000
1001
0000
,
0010
1000
0010
0100
,
0001
0001
1000
1000
,
0100
0010
0001
0100
,
0010
1000
0001
0001
,
1000
0100
0010
0000
,
0001
0100
1000
1000
,
0001
0010
0100
0000
,
1000
0010
1000
0001
,
1001
0000
0110
0000
,
1000
0001
1000
0100
,
0010
0001
0100
0010
,
1000
0001
1000
0100
,
0010
0001
0010
0100
,
1000
1000
0010
1000
,
0001
0010
1000
0100
,
0010
0010
0001
0100
,
0001
0010
0001
1000
,
0110
0000
0000
0000
,
0001
1000
0001
1000
,
1001
0000
0000
0000
,
0010
0010
0010
0010
,
1000
0001
1000
0100
,
0010
0001
0100
0010
,
0100
0001
1000
0100
,
0010
0001
1000
0001
,
1000
0010
0001
1000
,
0001
0010
1000
0100
,
0010
0100
1000
0010
,
1000
0001
1000
0100
,
0001
0000
0000
0000
;

//---------------dance-single - ----------------
#NOTEDATA:;
#CHARTNAME:;
#STEPSTYPE:dance-single;
#DESCRIPTION:;
#CHARTSTYLE:;
#DIFFICULTY:Beginner;
#METER:3;
#RADARVALUES:0.121671,0.178262,0.158455,0.000000,0.000000,86.000000,70.000000,16.000000,0.000000,0.000000,0.000000,0.000000,0.000000,0.000000,0.121671,0.178262,0.158455,0.000000,0.000000,86.000000,70.000000,16.000000,0.000000,0.000000,0.000000,0.000000,0.000000,0.000000;
#CREDIT:;
#DISPLAYBPM:108.000000;
#NOTES:
0000
0000
0000
0000
,
0000
0000
0000
0000
,
0000
0000
0000
0000
,
0000
0000
0000
0000
,
0000
0000
0000
0000
,
1000
0000
0001
0000
,
1000
0000
0100
0000
,
0010
0000
0001
0000
,
0100
0000
0010
0000
,
0110
0000
1001
0000
,
0100
0000
0100
0000
,
0110
0000
1001
0000
,
0010
0000
0010
0000
,
1001
0000
0110
0000
,
0001
0000
0001
0000
,
1001
0000
0110
0000
,
1000
0000
1000
0000
,
0001
0000
0000
0000
,
1000
0000
0000
0000
,
0010
0000
0000
0000
,
1000
1000
1000
0000
,
0100
0000
0000
0000
,
0010
0000
0000
0000
,
0001
0000
0000
0000
,
0110
0000
0000
0000
,
1001
0000
0000
0000
,
0001
0001
0001
0000
,
1001
0000
0000
0000
,
0100
0100
0100
0000
,
0110
0000
0000
0000
,
1000
1000
1000
0000
,
0110
0000
0000
0000
,
0010
0010
0010
0000
,
1001
0000
0000
0000
,
0000
0000
0000
0000
,
0110
0000
0000
0000
,
1001
0000
0000
0000
,
0010
0000
0010
0000
,
1000
0000
0001
0000
,
1000
0000
0100
0000
,
0010
0000
0100
0000
,
1000
0000
1000
0000
,
0001
0000
0001
0000
,
0010
0000
0100
0000
,
1000
0000
0001
0000
,
0001
0000
0000
0000
;

//---------------dance-single - ----------------
#NOTEDATA:;
#CHARTNAME:;
#STEPSTYPE:dance-single;
#DESCRIPTION:;
#CHARTSTYLE:;
#DIFFICULTY:Challenge;
#METER:16;
#RADARVALUES:0.844622,0.883511,0.217876,0.118841,1.376578,597.000000,575.000000,22.000000,12.000000,0.000000,0.000000,0.000000,0.000000,0.000000,0.844622,0.883511,0.217876,0.118841,1.376578,597.000000,575.000000,22.000000,12.000000,0.000000,0.000000,0.000000,0.000000,0.000000;
#CREDIT:;
#DISPLAYBPM:108.000000;
#NOTES:
// measure 0
0000
0000
0000
0000
,  // measure 1
0000
0000
0000
0000
,  // measure 2
0000
0000
0000
0000
,  // measure 3
0000
0000
0000
0000
,  // measure 4
0000
0000
0000
0000
,  // measure 5
1000
0000
0000
0000
0000
0000
0010
0000
0000
0100
0000
0000
0010
0000
0000
1000
0000
0000
0100
0000
0000
0010
0000
0000
0001
0000
0000
1000
0000
0000
0001
0000
0000
0200
0000
0000
0000
0000
0000
0000
0000
0000
0310
0000
0100
0000
0001
0000
,  // measure 6
1000
0000
0100
0010
0001
1000
0001
0010
0100
1000
0001
0020
0000
0000
0031
0100
,  // measure 7
0001
1000
0010
1000
0100
0010
0001
0100
0010
1000
0001
2000
0000
3100
0010
0001
,  // measure 8
1000
0000
0010
0000
1000
0000
0100
0000
0010
0000
0001
0000
1000
0000
0010
0000
0100
0000
0001
1000
0001
0000
0010
0000
0100
0000
1000
0000
0010
0000
0100
0000
,  // measure 9
1001
0000
0001
0010
0100
1000
0010
0100
0110
0000
0001
0100
0000
0010
1000
0010
,  // measure 10
0100
0000
0001
0010
0001
1000
0100
0010
0000
0001
0100
0000
0010
1000
0001
1000
,  // measure 11
1100
0000
0010
0001
0100
0010
1000
0001
0101
0000
0100
0010
0000
0010
1000
0001
,  // measure 12
0100
0000
0001
1000
0100
0010
0001
1000
0010
1000
0100
0000
0010
0001
0100
0000
,  // measure 13
1010
0000
0001
1000
0100
1000
0001
0010
0011
0000
0001
0100
0000
0010
1000
0001
,  // measure 14
0200
0000
0310
0100
0001
1000
0100
0010
0001
0100
0001
0000
1000
0010
0100
0000
,  // measure 15
0110
0000
0001
0010
0001
0100
0010
1000
1100
0000
0010
0001
0000
1000
0001
0100
,  // measure 16
0020
0000
1000
0000
0000
0000
1030
0000
0001
0000
0100
0000
0010
0000
1000
0000
0100
0000
0010
0001
0010
0000
0100
0000
1000
0000
0001
0000
1000
0000
0100
0000
,  // measure 17
0010
0010
0001
1000
0001
0000
0100
0100
0010
1000
0100
0010
0001
0100
1000
0000
,  // measure 18
0010
1000
0100
0010
0001
1000
0001
0100
0010
1000
0001
0000
0010
0100
0010
0100
,  // measure 19
1000
1000
0001
1000
0010
0100
0001
0100
0001
0010
0100
1000
0000
0010
0100
0001
,  // measure 20
0010
0001
0000
1000
0001
0100
0010
1000
0100
0010
0100
1000
0001
0001
0001
0001
,  // measure 21
1000
0001
0010
0100
1000
0000
0001
0100
0010
1000
0001
0020
0000
0000
0130
1000
,  // measure 22
0001
0100
0010
0100
0001
1000
0100
0000
0010
0001
0010
0100
2000
0000
3002
0000
,  // measure 23
1003
1000
0001
0010
0100
0000
1000
0010
0100
0001
0010
0001
1000
0010
1000
0100
,  // measure 24
0011
0000
0001
0101
0000
1000
1100
0000
0010
1001
0000
0000
0000
0100
0010
0100
,  // measure 25
0110
0000
0001
1000
0001
0100
0010
1000
0100
0001
0100
1000
0100
0010
0100
1000
,  // measure 26
0001
0100
0010
0100
1000
0100
0010
0100
0001
0000
1000
0100
0010
0001
0100
0010
,  // measure 27
1000
0001
1000
0010
0100
0010
0100
0001
1000
0100
0010
1000
0010
0100
0010
0001
,  // measure 28
0100
0010
0100
1000
0100
0001
0010
0100
0001
0100
1000
0010
0100
0001
1000
0000
,  // measure 29
1010
0000
0001
1000
0000
0001
0010
0100
1000
0010
0100
0001
0010
1000
0010
0001
,  // measure 30
0100
0010
0100
0001
1000
0100
0001
0100
1000
0000
0010
0100
0001
0100
0010
1000
,  // measure 31
0001
0010
0100
0010
0001
0100
1000
0100
0010
0100
1000
0100
0010
0100
0001
1000
,  // measure 32
0100
0010
0100
1000
0010
1000
0001
0010
1000
0010
0100
0010
0001
0100
0010
1000
,  // measure 33
0102
0000
0000
0000
1003
0001
0100
0010
1000
0000
0001
0000
0020
0000
0000
0000
,  // measure 34
0130
0100
0000
0000
1000
0001
1000
0100
0010
0001
0100
0000
0010
0010
0010
0010
,  // measure 35
1002
0000
0000
0000
0000
0000
0000
0000
0000
0000
0000
0000
0103
0000
0000
0001
0000
0000
0100
0000
0000
0010
0000
0000
1000
0000
0000
0100
0000
0000
0001
0000
0000
0000
0000
0000
0010
0000
0000
0000
0000
0000
0001
0000
0010
0000
0100
0000
,  // measure 36
1000
0000
0000
0001
0000
0000
0100
0000
0000
0010
0000
0000
1000
0000
0000
0100
0000
0000
0010
0000
0000
0001
0000
0000
1000
0000
0100
0000
1000
0000
0001
0000
0100
0000
0001
0000
1000
0000
0100
0000
1000
0000
0001
0000
0100
0000
0001
0000
,  // measure 37
1000
0110
0001
0100
0010
1000
0100
0001
0010
0100
0010
0001
0100
0010
1000
0001
,  // measure 38
0000
1010
0001
0100
0001
0010
1000
0001
0100
0010
1000
0001
0010
0001
0100
1000
,  // measure 39
0000
1100
0001
0100
0010
0100
0001
1000
0100
0010
0001
0100
1000
0100
0001
1000
,  // measure 40
0001
0100
0010
1000
0100
0010
0100
0001
0100
1000
0001
0000
0100
0100
0010
0010
,  // measure 41
1001
0100
0001
0010
0001
0100
0010
1000
0100
0010
0100
0001
0100
1000
0010
1000
,  // measure 42
0000
0011
0001
0100
0001
1000
0100
0010
0001
0100
0010
1000
0100
1000
0001
0100
,  // measure 43
0000
0101
0010
0100
0001
1000
0100
1000
0001
0010
1000
0001
1000
0100
0010
0001
,  // measure 44
1000
0100
0010
0001
0100
0001
0100
1000
0010
0001
1000
0010
0100
0001
0010
1000
,  // measure 45
0002
0000
0000
0003
;
