#TITLE:Breaking the ground;
#ARTIST:Art of Fighters;
#BANNER:Breaking the ground-bn.png;
#BACKGROUND:Breaking the ground-bg.png;
#JACKET:Breaking the ground-jacket.png;
#MUSIC:Breaking the ground.ogg;
#OFFSET:0.938;
#SAMPLESTART:67.042;
#SAMPLELENGTH:20;
#DISPLAYBPM:166;
#BPMS:0=166;
#BGCHANGES:;

//---------------dance-single - ----------------
#NOTES:
     dance-single:
     :
     Beginner:
     4:
     :
0000
0000
0000
0000
,
0000
0000
0000
0000
,
0000
0000
0000
0000
,
0000
0000
0000
0000
,
0000
0000
0000
0000
,
1000
0000
1000
0000
,
1000
0000
1000
0000
,
0001
0000
1000
0000
,
0010
0000
0100
0000
,
0010
0000
1000
0000
,
0010
0000
0100
0000
,
0001
0000
0010
0000
,
0001
0000
1000
0000
,
0001
0000
0100
0000
,
0010
0000
0100
0000
,
0001
0000
0010
0000
,
1000
1000
1000
0000
,
0001
0000
0001
0000
,
1000
0000
1000
0000
,
0001
0000
0001
0000
,
1000
0000
1000
0000
,
0010
0000
0010
0000
,
0100
0000
0100
0000
,
0001
0000
1000
0000
,
0010
0000
0100
0000
,
2002
0000
0000
0000
,
0000
0000
0000
0000
,
3003
0000
0000
0000
,
0000
0000
0000
0000
,
0020
0000
0000
0000
,
0030
0000
0000
0000
,
2000
0000
3000
0000
,
0002
0000
0003
0000
,
0010
0000
0000
0000
,
0001
0000
0000
0000
,
0100
0000
0000
0000
,
1000
0000
1000
0000
,
0001
0000
0000
0000
,
0010
0000
0000
0000
,
1000
0000
0000
0000
,
0100
0000
0000
0000
,
0110
0000
0000
0000
,
0001
0000
1000
0000
,
0001
0000
1000
0000
,
0010
0000
0100
0000
,
0001
0001
0001
0000
,
1000
1000
1000
0000
,
0010
0000
1000
0000
,
0100
0100
0100
0000
,
0010
0000
0001
0000
,
0010
0000
0100
0000
,
1000
0000
0001
0000
,
1000
1000
1000
0000
,
0001
0000
0010
0000
,
0100
0000
1000
0000
,
0001
0000
0001
0000
,
0100
0000
0010
0000
,
1000
1000
1000
0000
,
0001
0000
0010
0000
,
1000
0000
0100
0000
,
0010
0010
0010
0000
,
0001
0000
1000
0000
,
0001
0000
0100
0000
,
0110
0000
1000
0000
,
0001
0000
1001
0000
,
0010
0000
0000
0000
,
1000
0000
0000
0000
,
0010
0000
0000
0000
,
0001
0001
0001
0000
,
0100
0000
0100
0000
,
0100
0000
0100
0000
,
0001
0000
1000
0000
,
0010
0000
0100
0000
,
0001
0000
0010
0000
,
1000
1000
1000
0000
,
0100
0000
0010
0000
,
0001
0001
0001
0000
,
1000
0000
0001
0000
,
0100
0100
0100
0000
,
0010
0000
1000
0000
,
0100
0100
0100
0000
,
0001
0000
0001
0000
,
1000
0000
1000
0000
,
0001
0000
0100
0000
,
0010
0010
0010
0000
,
1001
0000
0100
0000
,
0110
0000
0001
0000
,
0001
0000
1000
0000
,
0010
0000
0100
0000
,
0020
0000
0000
0000
,
0000
0000
0000
0000
,
0000
0000
0000
0000
,
0000
0000
0000
0030
;

//---------------dance-single - ----------------
#NOTES:
     dance-single:
     :
     Easy:
     7:
     :
0000
0000
0000
0000
,
0000
0000
0000
0000
,
0000
0000
0000
0000
,
0000
0000
0000
0000
,
0000
0000
0000
0000
,
1000
1000
1000
1000
,
1000
1000
1000
1000
,
0001
0100
1000
0000
,
0100
0010
0100
0000
,
1000
0010
0001
0100
,
0001
0010
0001
0100
,
1000
0001
1000
0010
,
1000
0100
0010
0010
,
0000
1001
0010
1000
,
0100
1000
0001
0010
,
0001
0100
0010
1000
,
0100
0100
0100
0000
,
0110
0001
0100
0000
,
0010
1000
0001
0020
,
0031
0100
1000
0000
,
0010
1000
0001
0000
,
0110
0001
1000
0000
,
0100
0010
0001
1000
,
0010
1000
0100
0000
,
1000
0001
0100
0000
,
2020
0000
0000
0000
,
0000
0000
0000
3030
,
0002
0000
0000
0003
,
0020
0000
0000
0030
,
0200
0000
0000
0000
,
0000
0000
0000
0300
,
2000
0000
0000
3000
,
0002
0000
0000
0003
,
1000
1000
0001
0001
,
1000
0001
1000
0000
,
0010
1000
0100
0100
,
0010
0010
0010
0000
,
0001
0001
1000
1000
,
0001
1000
0001
0000
,
0010
0001
0100
0100
,
0010
0010
0010
0000
,
1001
0000
0010
0100
,
0010
0000
1000
0100
,
1000
0001
0010
0000
,
0001
1000
0100
0000
,
0010
0010
0010
0010
,
0010
0010
0010
0010
,
0001
0100
0001
1000
,
0010
0010
0010
0000
,
1001
0100
0001
0010
,
0001
0100
1000
0010
,
1000
0100
0001
0010
,
0100
0010
0001
0100
,
1000
0010
1000
0100
,
0001
1000
0001
0010
,
0001
0100
0010
0100
,
0010
1000
0001
0000
,
0010
0001
0100
1000
,
0001
1000
0100
0000
,
0010
0001
0010
0100
,
1000
1000
0001
0001
,
0100
0010
0100
0001
,
0010
1000
0100
0001
,
0010
0000
0001
0000
,
0100
0010
1000
0000
,
1010
0000
0001
0000
,
0101
0000
1000
0000
,
1100
0000
0010
0000
,
0001
0100
1000
0010
,
0100
0100
0100
0100
,
0100
0100
0100
0100
,
0010
1000
0001
0000
,
0010
0001
0100
0000
,
1001
0001
0100
1000
,
0010
1000
0100
0001
,
0010
0001
0010
0100
,
0010
0001
0100
1000
,
0001
0001
0001
0010
,
0001
0100
0010
1000
,
0100
0100
1000
0010
,
1000
0100
0001
0010
,
0100
0011
1000
0001
,
0100
0100
0100
0010
,
1000
0001
0010
0001
,
0100
0010
2000
3000
,
1100
0001
0100
1000
,
0101
0010
1000
0100
,
0010
0001
1000
0000
,
0100
1000
0100
0000
,
0220
0000
0000
0000
,
0000
0000
0000
0000
,
0000
0000
0000
0000
,
0000
0000
0000
0330
;

//---------------dance-single - ----------------
#NOTES:
     dance-single:
     :
     Medium:
     11:
     :
0000
0000
0000
0000
,
0000
0000
0000
0000
,
0000
0000
0000
0000
,
0000
0000
0000
0000
,
0000
0000
0000
0000
,
1000
1000
1000
1000
,
1000
1000
1000
1000
,
0001
0100
0010
1000
0000
0001
0000
0000
,
0010
0001
0000
0001
0200
0000
0300
0000
,
0010
0100
0000
0001
0000
1000
0000
0001
,
0010
0100
0000
1000
0000
0010
0100
0010
,
0100
0001
0000
1000
0000
0001
0000
0010
,
0001
0100
0000
0010
1000
0001
1000
0001
,
0100
0010
1000
0000
0001
0000
0001
0000
,
0010
0000
0001
0000
0100
0010
0000
1000
,
0002
0000
0013
0001
0000
0100
0000
0010
,
2000
3002
0023
0030
,
0001
0100
0000
0010
1000
0000
0100
0000
,
1000
0010
0000
0100
0001
0000
0010
0100
,
0010
0001
0000
1000
0010
0000
0100
0000
,
0010
1000
0000
0100
0010
0001
0000
1000
,
0001
0100
0010
0100
,
0001
0000
0010
0000
0100
0000
1000
0001
,
1000
0010
0100
0001
0000
1000
0000
0000
,
0010
1000
0000
1000
0200
0000
0300
0000
,
2020
0000
0000
0000
,
0000
0000
0000
0030
,
0002
0000
0000
3000
,
0020
0000
0000
0033
,
0000
0100
0000
0100
0000
0100
0000
0100
,
0000
0100
0000
0100
0000
0100
0000
0100
,
0000
0010
0000
0010
0000
0010
0000
0010
,
0000
1000
0000
1000
0000
0001
0000
0001
,
0010
0001
0100
0010
,
1000
0000
0100
0000
0001
0000
0010
0100
,
1000
0000
0001
0000
0010
0000
0001
0100
,
0010
0000
1000
0000
0001
0000
1000
0100
,
0010
0001
0100
1000
,
0001
0000
1000
0000
0010
0000
0100
0001
,
1000
0000
0010
0000
1000
0000
0100
0010
,
0001
0000
0100
0000
0001
0000
1000
0100
,
0010
0001
0100
0001
,
1000
0000
0010
0000
1000
0000
0100
0010
,
0001
0000
0100
0000
0010
0000
0100
0001
,
1000
0000
0100
0010
0001
0000
0100
0001
,
1000
0000
1000
0000
1000
0000
1000
0100
,
0001
0000
0001
0000
0001
0000
0001
0100
,
0020
0000
1030
0001
0000
0100
0000
0010
,
2000
3002
0023
0030
,
1001
0000
0100
0000
0010
0000
0100
0001
,
1000
0000
0100
0000
0010
0000
0001
0100
,
1000
0000
0010
0000
0100
0000
0001
1000
,
0010
0100
0010
1000
0001
0000
0010
0100
,
1000
0000
0001
0000
1000
0000
0100
0010
,
0100
0000
1000
0000
0010
0000
0100
0001
,
1000
0000
0010
0000
0100
0000
0001
0010
,
0100
0010
0100
1000
0001
0000
0100
0010
,
0100
0000
0001
0000
0010
0000
0001
0100
,
1000
0000
0001
0000
1000
0010
0000
0100
,
0001
0000
0010
0000
0001
0000
0100
0010
,
1000
0010
0100
0010
1000
0000
0001
0010
,
0100
0000
0100
0000
1000
0000
0001
0010
,
0100
0000
0010
0000
0001
0000
1000
0001
,
1000
0000
0000
0010
0100
0001
0000
0001
,
0010
0000
0001
0000
0100
0000
0001
1000
,
0010
0010
1000
1000
,
0100
0000
1000
0000
0001
0000
0100
0010
,
0100
0000
0010
0000
0100
0000
0001
1000
,
0010
0000
0000
1000
0000
0001
0000
1000
,
0100
0100
0010
0010
,
0100
0000
0100
0000
0010
0000
0010
0001
,
1000
0000
0010
0000
1000
0000
0100
0010
,
0001
1000
0000
1000
0200
0000
0300
0000
,
0110
0001
0100
1000
,
0010
0000
1000
0000
0100
0000
0010
0001
,
0010
0000
0100
0000
1000
0000
0001
0100
,
0010
0100
0001
1000
0100
0000
1000
0010
,
0100
0001
0010
0100
,
0010
0000
0001
0000
1000
0000
0001
0100
,
0010
0000
1000
0000
0100
0000
1000
0001
,
0010
0001
0100
0020
0000
1030
0001
0000
,
0101
0010
1000
0100
,
0001
0000
0010
0000
0001
0000
1000
0100
,
1000
0000
0010
0000
0100
0000
0001
0010
,
0100
1000
0001
0010
0001
0000
0100
0010
,
1000
0000
0001
0010
0000
0100
0000
0010
,
0001
0000
1000
0000
0001
0000
0100
0010
,
1000
0100
1000
0001
0000
0100
0000
0000
,
0010
1000
0000
1000
0200
0000
0300
0000
,
0022
0000
0000
0000
,
0000
0000
0000
0000
,
0000
0000
0000
0000
,
0000
0000
0000
0033
;

//---------------dance-single - ----------------
#NOTES:
     dance-single:
     :
     Hard:
     13:
     :
0000
0000
0000
0000
,
0000
0000
0000
0000
,
0000
0000
0000
0000
,
0000
0000
0000
0000
,
0000
0000
0000
0000
,
1000
1000
1000
1000
,
1000
0000
0000
0000
1000
0000
0000
0000
1000
0000
0001
0000
0100
0010
0100
0000
,
0001
0010
0001
0100
0010
1000
0100
0010
,
0001
1000
0000
1000
0200
0010
0310
0000
,
0001
0100
0010
1000
0000
0100
0010
0001
,
0100
0000
0010
0000
1000
0000
0001
0000
0000
0000
0010
0000
0001
1000
0001
0000
,
0100
0010
1000
0100
0000
0010
0001
1000
,
0001
0100
0000
0010
1000
1000
0001
0001
,
0100
0010
0010
1000
0000
0001
0010
0100
,
1000
0000
0010
0000
0000
0000
0100
0000
0001
0000
1000
0000
0000
0010
0100
0000
,
0001
0010
0001
0100
0010
1000
0100
0010
,
0002
2003
3020
0030
,
0110
0001
0000
0100
0010
1000
0000
0001
,
0010
0100
0000
0010
0001
1000
0010
0000
,
0110
0001
0000
0100
0010
1000
0000
0100
,
1000
0001
0000
0100
0010
0010
1000
1000
,
0001
0100
0000
0010
1000
0001
0000
0010
,
0001
0000
0100
0000
0000
0000
0001
0000
0010
0000
0100
0000
1000
0001
1000
0000
,
0010
0100
1000
0100
0001
0010
0100
0000
,
1000
0001
0000
0001
0200
0000
0300
0000
,
2020
0000
0000
0000
,
0000
0000
0000
0030
,
0002
0000
0000
3000
,
0020
0000
0000
0033
,
0002
0100
0000
0100
0000
0100
0000
0100
,
0000
0100
0000
0100
0000
0100
0003
0100
,
0020
1000
0000
1000
0000
1000
0030
1000
,
0200
0010
0000
0010
0000
0010
0300
0010
,
0001
0100
1000
0100
,
0001
0000
0010
0000
0100
0000
1000
0001
,
0100
0000
0010
0000
1000
0000
0001
0100
,
1000
0100
0001
0100
0010
0000
1000
0001
,
0010
0001
0100
1000
,
0100
0000
0001
0000
0010
0000
0100
1000
,
0001
0000
0100
0000
1000
0000
0010
0100
,
0001
0000
0010
0000
1000
0000
0100
0010
,
1001
0000
0100
0010
0000
1000
0000
0001
,
0010
0000
0001
0100
0000
1000
0000
0010
,
0100
0001
0010
0001
0000
1000
0100
0000
,
0010
0000
0001
0000
0000
0000
0001
0000
0100
0000
0000
0010
0000
0000
1000
0000
,
0001
0100
0001
0100
0001
0100
0001
0100
,
0010
1000
0010
1000
0010
1000
0010
1000
,
0200
0000
0310
0001
0000
0100
0000
0010
,
2000
3002
0023
0030
,
0110
0001
0100
0010
1000
0000
1000
0100
,
0001
0100
1000
0010
0100
0000
0001
0100
,
0010
0000
1000
0100
0001
0000
0001
0100
,
0010
0100
1000
0100
0001
0000
0010
0100
,
1000
0000
0001
0100
0010
0100
0001
1000
,
0100
0001
0100
1000
0010
0000
1000
0001
,
0010
0000
0011
0000
1100
0000
0001
0100
,
0010
0000
0000
1000
0000
0000
0001
0000
0010
0000
0001
0100
0000
0001
0100
0000
,
0010
0000
1000
0100
0001
0100
1000
0001
,
0100
0000
0010
1000
0001
0010
0001
0100
,
0001
0000
0010
0001
0100
0000
1000
0010
,
0100
1000
0100
0001
0100
0000
0010
1000
,
0001
0100
1000
0000
1010
0000
0100
0001
,
0010
0100
0010
0001
0100
1000
0100
0001
,
0010
0000
0000
0000
0000
0000
0001
0000
1000
0000
1000
0000
0000
0100
0010
0000
,
0001
0100
0010
0100
1000
0100
0001
0000
,
0011
0000
0100
1000
0000
0001
0000
0100
,
0110
0000
0010
1000
0000
0001
0010
0100
,
1000
0000
0010
0100
0000
0001
0000
1000
,
0001
0000
0100
0000
1000
0000
0100
0000
0001
0000
0010
0000
0001
1000
0001
1000
,
0002
0203
0320
2030
,
3200
0000
0320
0000
0032
0000
1003
0001
,
0100
1000
0100
0001
0010
0100
1000
0000
,
0001
1000
0000
1000
0200
0000
0300
0000
,
1001
1010
0101
0011
,
1100
0000
0101
0000
1100
0000
0010
0100
,
0001
0000
1001
0000
0110
0000
0010
1000
,
0100
0001
0100
1000
0010
0100
0001
1000
,
1100
0101
0110
1010
,
0101
0000
0000
0000
0011
0000
0000
0000
1100
0000
0000
0000
0001
1000
0001
0000
,
0100
0000
0110
0000
1001
0000
0010
1000
,
0001
0010
1000
0010
0100
0010
1000
0010
,
0001
0011
1001
0101
,
1010
0000
1100
0000
0110
0001
1000
0010
,
0100
0000
1010
0000
0101
0000
0001
0010
,
0100
0001
0100
1000
0010
0100
0010
1000
,
0001
0001
1000
1000
,
0001
0000
0000
0000
1000
0000
0000
0000
0001
0000
0000
0000
0100
0010
0100
0000
,
0001
0100
0010
1000
0000
1000
0100
0000
,
0010
0001
0000
0001
0200
0000
0300
0000
,
2020
0000
0000
0000
,
0000
0000
0000
0000
,
0000
0000
0000
0000
,
0000
0000
0000
3030
;
