#TITLE:Break Ya Neck;
#ARTIST:Busta Rhymes;
#BANNER:Break Ya Neck-bn.png;
#BACKGROUND:Break Ya Neck-bg.png;
#JACKET:Break Ya Neck-jacket.png;
#MUSIC:Break Ya Neck.ogg;
#SAMPLESTART:80.42;
#SAMPLELENGTH:20;
#DISPLAYBPM:166;
#BPMS:0=166;
#STOPS:172=1.083;
#BGCHANGES:;

//---------------dance-single - ----------------
#NOTES:
     dance-single:
     :
     Beginner:
     4:
     :
0000
0000
0000
0000
,
0000
0000
0000
0000
,
0000
0000
0000
0000
,
0000
0000
0000
0000
,
0000
0000
0000
0000
,
0000
0000
0000
0000
,
0000
0000
0000
0000
,
0000
0000
0000
0000
,
0000
0000
0001
0001
,
0000
0000
1000
1000
,
0000
0000
0010
0010
,
0000
0000
0000
0000
,
0000
0000
1000
1000
,
0000
0000
0001
0001
,
0000
0000
0100
0100
,
0000
0000
0000
0000
,
0000
0000
0010
0010
,
0000
0000
0100
0100
,
0000
0000
0001
0000
,
1000
0000
0001
0001
,
0000
0000
1000
0000
,
0001
0000
1000
1000
,
0000
0000
0010
0010
,
0000
0000
0100
0100
,
0000
0000
0010
0010
,
0000
0000
1000
1000
,
0000
0000
0100
0000
,
1000
0000
0001
0001
,
0000
0000
0010
0010
,
0000
0000
0001
0001
,
0000
0000
0100
0000
,
0010
0000
1000
1000
,
0000
1001
0000
0010
,
0000
1001
0000
0100
,
0000
1001
0000
0000
,
1000
0000
0001
0000
,
0010
0000
0001
0001
,
0000
0000
0100
0100
,
0000
0000
1000
0000
,
0010
0000
0100
0100
,
0000
0000
1001
0000
,
0010
0000
0100
0000
,
0001
0000
1000
1000
,
1000
0000
0000
0010
,
0010
0000
0000
0100
,
0100
0000
0000
0001
,
0001
0000
0000
1000
,
1000
0000
0000
0010
,
0000
0100
0000
0010
,
0000
1000
0000
0001
,
0000
1000
0000
0100
,
0000
1000
0000
0001
,
0000
0010
0000
0001
,
0000
0010
0000
0100
,
0000
1000
0000
0001
,
0000
0000
0100
0100
,
0000
0000
0010
0010
,
0000
0000
1000
1000
,
0000
0000
0000
0001
,
0000
1000
0000
0100
,
0100
0000
0000
0010
,
0010
0000
0000
0001
,
0001
0000
0000
1001
,
0000
0000
0010
0010
,
0000
1000
0000
0001
,
0000
1000
0000
0100
,
0000
0010
0000
0010
,
0000
0000
0001
0001
,
0000
0100
0000
0010
,
0000
0000
0000
1000
,
0000
0100
0000
0001
,
0001
0000
1000
0000
,
1000
0000
0001
0000
,
0100
0000
1001
0000
,
0000
0010
0000
0100
,
0000
0000
0000
0100
,
0000
0001
0000
1000
,
0000
0010
0000
1000
,
0000
0100
0000
0001
,
0000
0000
0000
0100
,
0100
0000
0000
0010
,
0000
0001
0000
0100
,
0000
1000
0000
0000
;

//---------------dance-single - ----------------
#NOTES:
     dance-single:
     :
     Easy:
     7:
     :
0000
0000
0000
0000
,
0000
0000
0000
0000
,
0000
0000
0000
0000
,
0000
0000
0000
0000
,
0000
0000
0000
0000
,
0000
0000
0000
0000
,
0000
0000
0000
0000
,
0000
1000
0001
1000
,
0000
0010
0100
0010
,
0000
1000
0100
1000
,
0000
0001
0100
0001
,
0010
0001
0100
1000
,
0000
0001
0010
0001
,
0000
1000
0010
1000
,
0000
0100
1000
0001
,
0100
0010
0100
0010
,
1000
0010
0001
0100
,
0001
0010
1000
0100
,
0000
1000
1100
0001
,
0101
1000
1001
1001
,
0000
0001
0101
1000
,
1100
0001
1001
1001
,
0000
0010
1000
0100
,
0000
0001
0010
0100
,
0000
1000
0100
1000
,
0002
0003
0010
0010
,
0000
0001
0100
0010
,
1000
0100
0010
0010
,
0000
0001
1000
0020
,
0030
1000
0100
0001
,
0000
0010
0011
0100
,
1100
0010
1000
0001
,
0000
0110
1000
0001
,
0000
0110
1000
0001
,
0000
1010
0001
0100
,
1000
0010
1000
0001
,
0000
0110
0001
0100
,
1000
0010
1000
0001
,
0100
1001
0010
0100
,
0001
0010
0001
1000
,
0000
0010
0100
1001
,
0001
0010
0001
0100
,
1000
0010
1000
0100
,
1001
0000
0010
1000
,
0100
0000
1000
0001
,
0100
0000
0001
0010
,
0100
1000
0010
1000
,
0001
0000
0100
0000
,
0100
0000
0010
0000
,
0010
0000
1000
0000
,
1000
0000
0001
0000
,
0001
0000
1000
0000
,
0010
0000
0100
0000
,
0001
0000
0010
0000
,
0100
0000
1000
0010
,
0001
1001
0010
1000
,
0100
0000
1000
0010
,
0001
0000
0100
0001
,
0010
0000
0001
0100
,
0010
1001
0100
1000
,
0001
0000
0010
0001
,
0100
0000
0001
0010
,
1000
0000
0100
0010
,
0100
0000
1000
1010
,
0101
0001
0010
0001
,
1000
0010
1000
0100
,
0001
0010
0100
0010
,
0001
1000
0001
0101
,
1100
0010
0010
1000
,
0001
0000
0100
0001
,
0010
0001
0100
1000
,
0010
0000
0010
1000
,
0100
0001
0001
1000
,
0100
0000
0110
0001
,
0100
0001
0010
1000
,
0001
0000
0100
0100
,
0110
0001
0100
0001
,
1000
0000
0010
1000
,
0100
1000
0010
0001
,
0100
0000
0010
1000
,
0100
1001
0110
0001
,
0100
0000
0001
1000
,
0010
1001
0000
0000
;

//---------------dance-single - ----------------
#NOTES:
     dance-single:
     :
     Medium:
     10:
     :
0000
0000
0000
0000
,
0000
0000
0000
0000
,
0000
0000
0000
0000
,
0000
0000
0000
0000
,
1000
1000
0000
0000
,
0001
0001
0000
0000
,
0100
0100
0010
0010
,
0000
1000
0001
1000
0001
1000
0001
1000
,
0000
0001
0000
0001
0000
0001
0010
0001
,
0000
1000
0000
1000
0000
1000
0010
1000
,
0000
0100
0000
0100
0000
0100
0010
0100
,
1000
0000
0001
0010
0100
0000
1000
0001
,
0000
0100
0000
0100
0000
0100
0001
0100
,
0000
0010
0000
0010
0000
0010
1000
0010
,
0000
1000
0000
1000
0000
1000
0100
1000
,
0000
0000
0001
0100
0010
0000
1000
0001
,
0000
0000
0010
0001
0010
0100
1000
0000
,
0000
0000
0010
1000
0010
0100
0001
0000
,
0000
0000
1000
0100
0002
0000
1003
0100
,
0002
0000
1003
0100
0001
0000
1001
0000
,
0000
0000
0001
0100
2000
0000
3001
0100
,
2000
0000
3001
0100
1000
0000
1001
0000
,
0000
0010
1000
0100
2000
0000
3001
0100
,
0000
0000
0110
0000
1000
0010
1000
0001
,
0000
0100
0000
0100
0000
0100
0001
0100
,
0000
0110
0000
1000
0001
1000
0001
1000
,
0000
0010
1000
0000
0100
0010
0001
0000
,
1000
0001
0100
0000
0010
1000
0100
0000
,
0000
0001
0000
0100
0000
0010
1000
0001
,
0000
0100
0000
0100
0000
0100
0010
0100
,
0000
0001
0010
0100
2000
0000
3010
1000
,
0200
0000
0310
0001
1000
0001
1000
0001
,
0000
0100
0010
0000
1000
0000
0100
0001
,
0000
0010
0100
0000
1000
0010
1000
0001
,
0000
0100
0002
0000
0013
0001
1000
0000
,
0010
1000
0010
0000
0001
0100
0001
0000
,
0000
0000
0010
1000
0100
0000
1001
0000
,
0010
0001
0100
0000
0001
0010
1000
0000
,
0000
0100
1000
0000
0001
0100
0010
0000
,
1000
0001
1000
0001
0100
0010
0100
0010
,
0000
1000
0100
0000
1100
0000
0101
0000
,
0010
1000
0100
0000
1000
0001
0100
0000
,
0000
0010
1000
0000
0100
0000
1000
0001
,
0100
0000
0000
0001
0000
0001
0000
0100
,
1000
0001
0000
0100
0000
0100
0000
1000
,
0001
0100
0000
0001
0000
0100
0000
0010
,
0100
0001
0000
1000
0100
1000
0100
1000
,
0100
1000
0000
0010
0000
1000
0000
0010
,
0000
0100
0000
0001
0000
0010
0000
0001
,
0000
0100
0000
0001
0000
0010
0000
0100
,
0000
1000
0000
0010
0000
1000
0000
0100
,
0000
0001
0000
1000
0000
0001
0000
1000
,
0000
0100
0000
0010
0000
0100
0000
0010
,
0000
0001
0000
0100
0000
0010
0000
1000
,
0000
0100
0000
1000
0000
0010
0000
0100
,
0010
0100
0010
0000
1000
0100
0001
0000
,
0011
0000
0000
0000
0001
0100
1000
0000
,
1010
0000
0000
0000
0010
1000
0100
0000
,
1001
0000
0000
0000
0001
0100
1000
0000
,
0001
0100
0010
0000
1000
0001
0100
0000
,
0101
0000
0000
0000
0001
0010
0100
0000
,
1100
0000
0000
0000
1000
0001
0100
0000
,
0110
0000
0000
0000
1000
0010
1000
0001
,
0010
0100
0000
1000
0100
0010
0001
0000
,
1001
0000
0010
1000
0100
0000
1000
0010
,
0100
0000
0001
0010
0100
0000
1000
0001
,
0100
0000
0010
1000
0010
0000
0001
0100
,
0001
0000
0000
0010
1000
0100
0001
0000
,
0110
0000
0001
0100
0010
0000
1000
0000
,
1000
0001
0000
0100
0010
0000
1000
0001
,
0100
0000
0001
0010
0001
0000
1000
0001
,
1000
0001
0000
1000
0010
0000
0100
0000
,
0001
0000
0010
0100
1000
0000
0001
0100
,
0010
0000
0000
1000
0001
0000
0100
0010
,
1000
0000
0001
0100
0001
0000
1000
0100
,
1000
0000
0000
0010
1000
0000
0100
0000
,
1001
0000
0001
0010
0100
0000
1000
0000
,
1000
0000
0001
0010
0001
0000
0011
0000
,
1100
0000
0010
0100
0010
0100
0010
0100
,
0010
0100
0000
0010
1000
0000
1000
0001
,
0100
0000
1000
0001
0100
0000
0010
1000
,
0010
0100
0000
0001
0000
0100
0000
0010
,
1000
0001
0100
0000
0000
0000
0000
0000
;

//---------------dance-single - ----------------
#NOTES:
     dance-single:
     :
     Hard:
     13:
     :
0000
0000
0000
0000
,
0000
0000
0000
0000
,
0000
0000
0000
0000
,
0000
0000
0000
0000
,
0000
0000
0000
0000
,
0000
0000
0000
0000
,
0000
0000
0000
0000
,
0000
0001
0010
0100
1000
0100
0010
0001
,
0000
1000
0010
0100
0001
1000
0001
0100
,
0000
0000
0001
1000
0001
0000
0100
0000
0010
0000
1000
0000
0100
0000
0010
0000
,
0000
0010
0001
0100
0001
0010
0100
1000
,
0001
0100
0001
0100
0010
1000
0100
0010
,
0000
0001
0100
0001
0010
0100
1000
0001
,
0000
0000
1000
0100
1000
0000
0001
0100
0001
0000
1000
0100
1000
0000
0001
0000
,
0000
0100
0010
1000
0100
0010
0001
1000
,
0001
0100
0001
1000
0010
0010
0010
0010
,
0000
0100
1000
0010
0100
0001
0010
0100
,
0000
0000
1000
0010
1000
0000
0100
0000
0001
0000
0100
0000
0010
0000
0001
0000
,
0000
0100
0010
0100
0001
0010
0100
1000
,
0020
0000
0000
1030
0001
1000
0001
0000
0000
1001
0000
0000
,
0000
1000
0100
0001
0100
0010
0001
1000
,
0000
0000
1000
0100
1000
0000
0001
0100
0001
0000
0010
0000
0100
0000
1000
0000
,
0000
0001
0100
0010
0001
0010
1000
0001
,
1000
0100
0001
0100
0010
0010
0010
0010
,
0000
0010
0001
0100
1000
0100
0010
0020
,
0000
2030
0000
3100
1000
0010
1000
0001
,
0000
0100
0010
1000
0001
0010
0001
0100
,
0010
0001
0010
1000
0010
0001
0010
0100
,
0000
0001
0010
0001
0100
0010
1000
1000
,
0000
0000
0100
0010
0100
0000
1000
0001
1000
0000
0010
0100
0010
0000
1000
0000
,
0000
0100
1000
0010
1000
0100
0001
0100
,
1000
0001
1000
0100
0010
0010
0010
0010
,
0000
1001
0010
0100
0001
1000
0001
0010
,
0000
0000
0100
1000
0100
0000
0010
0000
1000
0000
0010
0000
0001
0000
0001
0000
,
0000
0100
0010
0100
0001
0010
1000
0001
,
0100
0010
0100
0001
1000
0010
1000
0001
,
0000
1001
0100
0001
0010
0100
1000
1000
,
0000
0000
0001
0100
0001
0000
0010
0000
0100
0000
1000
0001
1000
0000
0010
0000
,
0000
0100
0010
1000
0001
0010
0001
1000
,
0100
0001
0100
1000
0010
0010
0010
0010
,
0000
1000
0100
0001
0100
0010
1001
0000
,
0010
0000
1000
0001
1000
0000
0100
0000
0001
0000
0100
0000
1000
0000
0010
0000
,
0000
0100
0001
0010
1000
0010
0100
0010
,
0002
0000
1003
0001
0001
0100
0010
0100
,
1000
0000
0001
0000
0000
0000
0010
0001
0010
0000
0100
0000
1000
0000
0001
0100
,
0001
1000
0000
0010
1000
0100
1000
0001
,
0010
0100
1000
0001
0100
0001
0010
0010
,
0010
0010
0000
0002
0000
0203
0000
0320
,
0000
2030
0000
3020
0000
2030
0000
3002
,
0000
0203
0000
0302
0000
0203
0000
0320
,
0000
2030
0000
3020
0000
0230
0000
0302
,
0000
2003
0000
3002
0000
0203
0000
0302
,
0000
2003
0000
3020
0000
0230
0000
0302
,
0000
2003
0000
3200
0000
0320
0000
0032
,
0000
0203
0000
1300
0100
0001
0010
0001
,
0100
1000
1001
0000
0010
1000
0100
0010
,
0001
1000
0000
0000
0000
0000
0000
0000
1000
0000
0100
0000
1000
0000
0001
0000
,
0010
0100
0000
0000
0000
0000
0000
0000
0001
0000
0100
0000
0001
0000
0010
0000
,
0100
1000
0000
0000
0000
0000
0000
0000
0001
0000
0100
0000
0010
0000
0100
0000
,
0001
1000
0100
0100
1000
0010
0100
0001
,
1000
0010
0000
0000
0000
0000
0000
0000
0001
0000
0010
0000
0001
0000
0100
0000
,
1000
0001
0000
0000
0000
0000
0000
0000
0001
0000
0100
0000
1000
0000
0100
0000
,
0001
0010
0000
0000
0100
0000
1000
0000
0100
0000
1000
0000
0010
0000
0010
0000
,
0010
0010
0000
1000
0010
0100
1001
0000
,
0001
0100
0000
0000
0010
0000
1000
0000
0010
0000
0100
0000
0001
0000
0010
0000
,
0001
1000
0000
0100
0010
0100
0001
0100
,
1000
0010
0100
0001
0100
0001
1000
0010
,
0100
0001
0000
0010
0001
0100
1000
0010
,
1000
0000
0001
0000
0000
0000
0010
1000
0010
0000
0100
0000
0001
0000
0010
0000
,
0001
1000
0000
0100
0010
0100
0001
0100
,
1000
0010
0100
1000
0100
0001
0010
0010
,
0010
0010
0000
0001
0100
0001
0100
0010
,
1000
0001
0000
0110
0000
0001
1000
0010
,
1000
0001
0000
0110
1000
0010
0100
0001
,
0010
0100
1000
0010
1000
0010
0100
0001
,
0010
0100
0000
1000
0010
0001
0100
0010
,
1001
0000
1000
0010
0100
0001
0010
0100
,
1000
0001
0000
0100
0010
0100
0001
0010
,
0001
1000
0100
0001
0100
1000
0010
0010
,
0010
0010
0000
1000
0001
0100
0010
0001
,
0010
1000
0100
0001
0100
1000
0010
0100
,
0010
1000
0000
0001
0100
0010
1000
0100
,
0010
0001
1001
0000
0000
0000
0000
0000
;

//---------------dance-single - ----------------
#NOTES:
     dance-single:
     :
     Challenge:
     17:
     :
0000
0000
0000
0000
,
0000
0000
0000
0000
,
0000
0000
0000
0000
,
0000
0000
0000
0000
0000
0000
0000
0000
0000
0000
0000
0000
0000
0000
0001
1000
,
0001
0000
0000
0000
0000
0000
0000
0000
0000
0000
0100
0000
0000
0000
0000
0010
,
1000
0000
0000
0000
0100
0000
0000
0000
0010
0000
0000
0000
0001
0000
0000
0000
0100
0000
0000
0000
0010
0000
0000
0000
1000
0000
0000
0000
0000
0000
0000
0000
0001
0000
0000
0000
0000
0000
0000
0100
0000
0000
0000
0000
0000
0010
0000
0000
,
0000
0000
0000
0000
0000
0000
1000
0000
0001
0000
0000
0100
0000
0000
0010
0000
,
0000
1000
0000
0100
0000
0000
0000
0000
0010
0000
0010
0000
0010
0000
0010
0000
,
0000
0001
0100
0010
1000
0100
1000
0001
,
0000
0000
0100
0010
0100
0000
0001
0000
1000
0000
0010
0000
1000
0000
0001
0000
,
0000
1000
0100
1000
0010
0100
0001
1000
,
0010
0010
0100
0100
1000
0001
1000
0001
,
0100
0010
0010
1000
0100
0001
0100
1000
,
0000
0000
0001
0010
0001
0000
1000
0010
1000
0000
0001
0010
0001
0000
0100
0000
,
0000
0010
1000
0100
0001
1000
0010
0100
,
0010
0010
0100
0100
1000
0001
1000
0001
,
0010
1000
0010
0001
0100
0010
1000
0001
,
0100
0000
0010
1000
0010
0000
0100
0000
1000
0000
0100
0000
0001
0000
0010
0000
,
0100
0000
0000
0010
0000
0000
0001
0000
1000
0000
0010
0000
0200
0000
0000
0001
0000
0000
0301
0000
1000
0000
0010
0000
,
0200
0000
0000
0001
0000
0000
0301
0000
1000
0000
0010
0000
0200
0000
0000
0010
0000
0000
0310
0000
0000
1000
0000
0000
,
0100
0000
0000
0010
0000
0000
0001
0000
1000
0000
0010
0000
0200
0000
0000
0001
0000
0000
0301
0000
1000
0000
0010
0000
,
0200
0000
0000
0001
0000
0000
0301
0000
1000
0000
0010
0000
0200
0000
0000
0010
0000
0000
0310
0000
0000
1000
0000
0000
,
0000
0000
0000
0100
0000
0000
1000
0000
0010
0000
0100
0000
0002
0000
0000
1000
0000
0000
1003
0000
0000
0010
0000
0000
,
1000
0000
1000
0000
0001
0000
0001
0000
0010
0000
0010
0001
0100
0000
0100
0000
,
0000
0000
0001
0010
0100
1000
0010
0100
0001
1000
0010
0000
1000
0000
0200
0000
,
0000
0000
0320
0000
0000
0000
0031
0000
1000
0010
0100
0010
1000
0000
0001
0100
,
0000
0010
1000
0000
0100
0000
1000
0001
1000
0010
0100
0010
1000
0100
0010
0001
,
0100
1000
0100
0001
0100
0000
0010
1000
0100
0001
0100
1000
0010
0000
0100
0001
,
0000
1000
0100
0010
0100
1000
0010
0100
0001
1000
0010
0000
0110
0000
1001
0000
,
0000
0000
1000
0100
0010
0000
0001
0100
0001
0010
0100
1000
0001
0000
0100
0010
,
0000
1000
0100
0010
0001
0000
0100
0000
1010
0000
0100
1000
0001
0000
0010
0000
,
0101
0000
1000
0010
0100
0010
1000
0001
0010
1000
0010
0001
0100
0000
0010
1000
,
0000
1100
0101
0000
1000
0001
0101
1100
,
0000
0000
0010
0000
0200
0000
0000
0000
0301
0010
0100
1000
0001
0100
0010
1000
,
0000
0000
0101
0000
1010
0000
1000
0100
0001
0000
0010
0000
0001
0100
1000
0000
,
0010
0000
1000
0001
1000
0000
0100
0000
0010
0000
0001
0100
0001
0010
0100
1000
,
0000
0110
1001
0010
2000
0100
3001
0000
,
1000
0000
0010
0100
0001
0000
0010
0000
0100
0000
0010
0001
1000
0001
0100
0010
,
0000
0000
0101
0000
1000
0100
0010
0000
0001
0100
0010
0100
0001
0000
1000
0000
,
0010
0000
1000
0001
0010
0001
0100
0010
1000
0000
1000
0000
1000
0100
1000
0001
,
0000
0100
0010
1000
1100
0110
0011
0000
,
0010
0000
0001
0100
0010
0000
1000
0100
0010
0000
0001
0000
0100
0001
1000
0010
,
0000
1000
0100
0010
0001
0100
0010
1000
0000
0100
0001
0100
0010
0100
1000
0001
,
0200
0000
0000
0000
0310
0000
1000
0000
1000
0001
0100
0000
0010
0100
0001
0000
,
1000
0000
0001
0010
0000
0000
0100
0001
0100
1000
0010
0000
0100
0000
0100
0000
,
0001
0000
1000
0010
0000
0000
0100
0001
0100
0010
1000
0000
0100
1000
0001
0000
,
0010
0000
0001
0000
0100
0000
0010
1000
0010
0000
0100
0000
0001
0010
1000
0100
,
0001
0000
0100
0010
0000
0000
1000
0000
0100
0000
1000
0000
0010
0000
0100
0000
,
0001
1000
0000
0110
0000
0001
0100
1000
,
0100
0001
0000
0010
0001
0100
0001
0010
,
1000
0100
0010
0010
0100
0100
1000
0001
,
1000
0001
0000
0010
0001
0100
1000
0010
,
1000
0000
0100
0000
0000
0000
1000
0001
1000
0000
0100
0001
0100
0000
0010
0001
,
0010
0100
0000
1000
0010
0001
1000
0001
,
0100
0010
1000
1000
0100
0100
0010
0010
,
0001
0001
1001
0010
1000
0100
2000
0001
,
3001
0100
0010
0000
0000
0000
1000
0100
0010
0000
0001
0000
0200
0000
0010
0000
,
0310
1000
0001
0000
0000
0000
0010
0000
0001
0000
0100
0000
0020
0000
1000
0000
,
1030
0001
0100
0000
0010
0000
0010
0000
0100
0000
0100
0000
1000
0000
0001
0000
,
1000
0001
0100
0100
0001
0010
0002
1000
,
1003
0100
0010
0000
0000
0000
0001
1000
0010
0000
0100
0000
0020
0000
1000
0000
,
1030
0001
0100
0000
0000
0000
0001
0000
0010
0000
1000
0000
0200
0000
0010
0000
,
0310
0001
0100
0000
0001
0000
0001
0000
0010
0000
0010
0000
1000
0000
1000
0001
,
0100
0000
0100
0000
0000
0000
0010
0000
1000
0100
0001
0000
1001
0000
1000
0000
,
0100
0010
0000
0000
0001
0010
0100
0000
1000
0000
0010
1000
0001
1000
0100
0000
,
0010
0000
0001
0100
0000
0010
0100
0000
0001
0010
1000
0000
0100
0000
0010
0100
,
1000
0000
0001
1000
0010
0100
0001
0000
1000
0010
1000
0010
1000
0000
0100
0010
,
0001
0100
0001
1000
0000
0000
0010
0000
1000
0000
0100
0000
0011
0000
0100
0000
,
0010
0000
1000
0001
0100
0000
0010
1000
0000
1000
0100
0010
0001
0000
0100
0000
,
0001
1000
0000
0010
1000
0100
0001
0010
,
0100
0000
1000
0001
0100
0010
0100
0001
1000
0000
0100
0000
0110
0000
0110
0000
,
0110
0000
0110
0000
0000
1000
0001
1000
0010
0000
0100
0001
0100
0010
1000
0100
,
1000
0010
0100
0001
0010
0100
1000
0000
1000
0000
0010
1000
0001
0000
1000
0010
,
0001
0010
1000
0100
0000
0000
0011
0000
1100
0000
0001
0000
0100
0000
0010
0000
,
1000
0001
1000
0100
0010
1000
0010
0001
0100
0000
0010
1000
0100
0000
0010
0000
,
0100
0010
0001
1000
0000
0000
0101
0000
1000
0000
0001
0000
0100
0000
0010
0000
,
1001
0000
0000
0000
1000
0100
0001
0000
0001
0000
0010
0001
0100
0000
0010
0000
,
1000
0100
1000
0001
0000
0010
0100
0000
1000
0000
0010
0000
0100
0001
0010
0100
,
1000
0000
0001
0100
0010
0000
1000
0000
0100
0010
0001
0100
0010
0001
0010
1000
,
0100
0010
0100
1000
0000
0000
0001
0100
1000
0000
0010
0000
0100
0000
0001
0000
,
0011
0000
0100
1000
0010
0000
0001
0000
1010
0000
0010
0100
0001
0000
0010
0000
,
0001
0100
0010
1000
0000
0100
1000
0010
0100
0010
1000
0001
0010
1000
0010
0100
,
0010
0001
0100
0010
1000
0000
0000
0000
0000
0000
0000
0000
0000
0000
0000
0000
;
