#VERSION:0.83;
#TITLE:Break Free;
#SUBTITLE:;
#ARTIST:Ariana Grande feat. Zedd;
#TITLETRANSLIT:;
#SUBTITLETRANSLIT:;
#ARTISTTRANSLIT:;
#GENRE:;
#ORIGIN:;
#CREDIT:;
#BANNER:Break Free-bn.png;
#BACKGROUND:Break Free-bg.png;
#PREVIEWVID:;
#JACKET:Break Free-jacket.png;
#CDIMAGE:;
#DISCIMAGE:;
#LYRICSPATH:;
#CDTITLE:;
#MUSIC:Break Free.ogg;
#OFFSET:0.000000;
#SAMPLESTART:53.534000;
#SAMPLELENGTH:20.000000;
#SELECTABLE:YES;
#DISPLAYBPM:130.000000;
#BPMS:0.000=130.000;
#STOPS:;
#DELAYS:;
#WARPS:;
#TIMESIGNATURES:0.000=4=4;
#TICKCOUNTS:0.000=4;
#COMBOS:0.000=1;
#SPEEDS:0.000=1.000=0.000=0;
#SCROLLS:0.000=1.000;
#FAKES:;
#LABELS:0.000=Song Start;
#BGCHANGES:0.000=Break Free.avi=1.000=0=0=0=StretchNoLoop====,
99999=-nosongbg-=1.000=0=0=0 // don't automatically add -songbackground-
;
#KEYSOUNDS:;
#ATTACKS:
;

//---------------dance-single - ----------------
#NOTEDATA:;
#CHARTNAME:;
#STEPSTYPE:dance-single;
#DESCRIPTION:;
#CHARTSTYLE:;
#DIFFICULTY:Beginner;
#METER:3;
#RADARVALUES:0.146420,0.183739,0.008333,0.016666,0.000000,123.000000,122.000000,1.000000,2.000000,0.000000,0.000000,0.000000,0.000000,0.000000,0.146420,0.183739,0.008333,0.016666,0.000000,123.000000,122.000000,1.000000,2.000000,0.000000,0.000000,0.000000,0.000000,0.000000;
#CREDIT:;
#NOTES:
0000
0000
0000
0000
,
0000
0000
0000
0000
,
0000
0000
0000
0000
,
0000
0000
0000
0000
,
0000
0000
0000
0000
,
0001
0000
0000
0000
,
0001
0000
0000
0000
,
0000
0001
0000
0000
,
0010
0010
0000
0000
,
1000
0000
0000
0000
,
1000
0000
0000
0000
,
0000
1000
0000
0000
,
0100
0100
0000
0000
,
0000
0001
0000
0100
,
0000
0001
0001
0000
,
0000
1000
0000
0100
,
0000
1000
1000
0000
,
0000
0010
0000
1000
,
0000
0010
0010
0000
,
0000
0100
0000
0001
,
0000
0100
0100
0100
,
0100
0000
0001
0000
,
0001
0000
1000
0000
,
1000
0000
0001
0000
,
0010
0000
0010
0000
,
1000
0000
1000
0000
,
0001
0000
0001
0000
,
1000
0000
0100
0100
,
0100
0000
0100
0000
,
1000
1000
1000
0000
,
0001
0001
0001
0000
,
0010
0010
0010
0000
,
0100
0100
0100
0000
,
0001
0001
0001
0000
,
1000
1000
1000
0000
,
0001
0000
0001
0000
,
1000
0000
1000
0000
,
0100
0000
0000
0000
,
0000
0000
0000
0000
,
0001
0000
0100
0000
,
0001
0000
0000
0000
,
1000
0000
0010
0000
,
1000
0000
0000
0000
,
0001
0000
1000
0000
,
0001
0000
1000
0000
,
0020
0000
0030
0000
,
0100
0100
0100
0000
,
0001
0001
0001
0000
,
1000
1000
1000
0000
,
0001
0001
0001
0000
,
1000
1000
1000
0000
,
0001
0002
0000
0000
,
0000
0000
0000
0003
,
0001
0000
1000
0000
,
0010
0000
0100
0000
,
1000
1000
1000
0000
,
0001
0001
0001
0000
,
0010
0010
0010
0000
,
0100
0100
0100
0000
,
0001
0001
0001
0000
,
1000
1000
1000
0000
,
0010
0000
0010
0000
,
0100
0000
0100
0000
,
1001
0000
0000
0000
,
0000
0000
0000
0000
;

//---------------dance-single - ----------------
#NOTEDATA:;
#CHARTNAME:;
#STEPSTYPE:dance-single;
#DESCRIPTION:;
#CHARTSTYLE:;
#DIFFICULTY:Easy;
#METER:6;
#RADARVALUES:0.232129,0.373312,0.141658,0.124993,0.000000,195.000000,178.000000,17.000000,15.000000,0.000000,0.000000,0.000000,0.000000,0.000000,0.232129,0.373312,0.141658,0.124993,0.000000,195.000000,178.000000,17.000000,15.000000,0.000000,0.000000,0.000000,0.000000,0.000000;
#CREDIT:;
#NOTES:
0000
0000
0000
0000
,
0000
0000
0000
0000
,
0000
0000
0000
0000
,
0000
0000
0000
0000
,
0000
0000
0000
0000
,
0001
0001
1000
0000
,
0001
0100
0001
0000
,
0000
0001
1000
0010
,
0100
0100
0100
0000
,
0001
1000
0001
0000
,
1000
0100
1000
0000
,
0000
1000
0001
0010
,
0100
0100
0000
0010
,
0000
0001
0100
0010
,
1000
0001
1000
0000
,
1000
0001
0010
0001
,
1000
0100
0000
0100
,
0000
1000
0100
0010
,
0001
1000
0001
0000
,
0001
1000
0010
1000
,
0010
0100
0100
0000
,
1001
0000
0001
0010
,
0001
0010
0100
0000
,
1000
0100
0010
0000
,
0002
0003
2000
3000
,
1001
0000
1000
0010
,
1000
0010
0100
0000
,
0001
0000
0010
0000
,
0002
0003
2000
3000
,
1000
0001
1000
0010
,
1000
0010
0100
0001
,
0001
0100
0010
0000
,
2000
3100
0002
0103
,
1000
0001
1000
0010
,
1000
0010
0100
0000
,
1000
0000
0010
0000
,
1001
1001
0110
0110
,
1001
0000
0000
0001
,
0010
0000
0100
0000
,
1000
0000
0000
1000
,
0010
0000
0000
0000
,
1001
0000
0000
0010
,
0100
0000
0000
0000
,
1000
0100
1000
0001
,
0200
0000
0301
0000
,
2000
0000
0100
0100
,
3100
0000
0002
0000
,
0100
0103
0100
0000
,
0001
1000
0100
1000
,
0002
0000
0100
0100
,
0103
0000
2000
3000
,
0220
0000
0330
0000
,
0110
0000
1001
0000
,
1000
1000
0001
0001
,
0010
0010
0000
0110
,
0001
1000
0001
0010
,
0001
0010
0100
1000
,
1000
0100
0010
0001
,
0002
0103
2000
3100
,
0001
1000
0001
0010
,
0001
0010
0100
1000
,
0001
0001
0010
0010
,
1001
1001
0110
0110
,
1001
0100
0000
0100
,
0100
0000
0000
0000
,
0000
0000
0000
0000
;

//---------------dance-single - ----------------
#NOTEDATA:;
#CHARTNAME:;
#STEPSTYPE:dance-single;
#DESCRIPTION:;
#CHARTSTYLE:;
#DIFFICULTY:Medium;
#METER:9;
#RADARVALUES:0.352360,0.396852,0.266651,0.324981,0.033331,296.000000,264.000000,32.000000,39.000000,0.000000,0.000000,0.000000,0.000000,0.000000,0.352360,0.396852,0.266651,0.324981,0.033331,296.000000,264.000000,32.000000,39.000000,0.000000,0.000000,0.000000,0.000000,0.000000;
#CREDIT:;
#NOTES:
0000
0000
0000
0000
,
0000
0000
0000
0000
,
0000
0000
0000
0000
,
0000
0000
0000
0000
,
0000
0000
0000
0000
,
0001
0100
0001
0000
1000
0000
1001
0000
,
1000
0010
1000
0000
0001
0000
1001
0000
,
1000
0010
1000
0000
0100
0000
0100
0000
,
0001
0100
0001
0000
0010
0000
0010
0000
,
1000
0100
1000
0000
0001
0000
1001
0000
,
0001
0010
0001
0000
1000
0000
1001
0000
,
0001
0010
0001
0000
0100
0000
0010
0000
,
1000
0010
1000
0000
0100
0000
0100
0000
,
0010
0000
0100
0000
0010
0100
1000
0000
,
0010
1000
0100
0000
0010
0000
0001
0000
,
0010
0000
0100
0000
1000
0010
1000
0000
,
0010
1000
0001
0000
0010
0000
0001
0000
,
0020
0030
0200
0300
1000
0001
1001
0000
,
0200
0300
0020
0030
1000
0001
1001
0000
,
0002
0003
2000
3000
0010
1000
0010
0000
,
1000
0001
0010
0000
0220
0000
0330
0000
,
0002
0000
0003
1000
0000
0000
0010
0000
,
0020
0000
0030
0100
0000
0000
0001
0000
,
0002
0000
1003
0100
0010
0001
0000
0000
,
0010
0000
0100
0000
0000
1000
0001
0000
,
2000
0000
3000
0020
0000
0030
1000
0000
,
0020
0000
0030
0100
0000
0000
0001
0000
,
2000
0000
3000
0100
0000
0000
0000
0010
,
0001
0000
0000
0100
0000
0000
0001
0000
1000
0000
0000
0100
0000
0000
0010
0000
,
1001
0000
0001
1000
0001
0000
0100
0000
,
1001
0000
1000
0001
1000
0000
0010
0000
,
1001
0000
0001
0100
0010
0000
0100
0000
,
0001
0010
0001
0000
0010
0000
0110
0000
,
1001
0000
0001
1000
0001
0000
0100
0000
,
1001
0000
1000
0001
1000
0000
0010
0000
,
1001
0000
0001
0100
0010
0000
1001
0000
,
1000
0000
0000
0100
0000
0000
0001
0000
0100
0000
0000
1000
0000
0000
0100
0000
,
0020
0230
1300
0001
,
0200
0320
1030
0001
,
2000
3200
0310
0001
,
0002
0203
0310
1000
,
0020
0230
0310
1001
,
0200
0320
1030
0001
,
1000
0000
0000
0100
0000
0000
0001
0000
0100
0000
0000
1000
0000
0000
0100
0000
,
2000
0000
3010
1001
,
0002
0000
0103
0110
,
2002
3003
0010
1000
,
0220
0330
1000
0001
,
2000
3100
0020
0130
,
0020
0000
0130
1001
,
0200
0000
0310
1001
,
0200
1000
0010
1000
,
0010
1000
0310
0110
,
1000
0100
1000
0000
0001
0010
0001
0000
,
0100
0010
0100
0010
0100
0000
0110
0000
,
1001
0000
0001
1000
0001
0000
0100
0000
,
1001
0000
1000
0001
1000
0000
0010
0000
,
1001
0000
0001
0100
0010
0100
0000
0000
,
0001
0010
0001
0000
0010
0000
0110
0000
,
1001
0000
0001
1000
0001
0000
0100
0000
,
1001
0000
1000
0001
1000
0000
0010
0000
,
1001
0000
0001
0100
0010
0000
1001
0000
,
1000
0000
0000
0100
0000
0000
0001
0000
0100
0000
0000
1000
0000
0000
0100
0000
,
0020
0000
0030
0000
,
0000
0000
0000
0000
;

//---------------dance-single - ----------------
#NOTEDATA:;
#CHARTNAME:;
#STEPSTYPE:dance-single;
#DESCRIPTION:;
#CHARTSTYLE:;
#DIFFICULTY:Hard;
#METER:11;
#RADARVALUES:0.439260,0.562155,0.291650,0.274984,0.045831,369.000000,334.000000,35.000000,33.000000,0.000000,0.000000,0.000000,0.000000,0.000000,0.439260,0.562155,0.291650,0.274984,0.045831,369.000000,334.000000,35.000000,33.000000,0.000000,0.000000,0.000000,0.000000,0.000000;
#CREDIT:;
#NOTES:
0000
0000
0000
0000
,
0000
0000
0000
0000
,
0000
0000
0000
0000
,
0000
0000
0000
0000
,
0000
0000
0000
0000
,
0001
0100
0001
0000
1000
0000
1100
0000
,
1000
0010
1000
0000
0001
0000
1001
0000
,
1000
0010
1000
0010
0100
1000
0100
0000
,
0001
0100
0001
0100
0001
0100
0101
0000
,
1000
0100
1000
0000
0001
0000
0011
0000
,
0001
0010
0001
0000
1000
0000
1001
0000
,
0001
0010
0001
0010
0100
0001
0100
0000
,
1000
0100
1000
0100
1000
0100
1100
0000
,
1000
0010
1000
0000
0010
0100
1000
0100
,
0001
0010
0001
0000
1000
0001
1000
0000
,
0100
1000
0100
1000
0001
0100
0010
0000
,
1000
0001
0100
1000
0100
0001
0010
0000
,
0001
0100
0010
0000
1000
0100
1000
0000
,
0010
1000
0010
0000
0100
0001
0100
0000
,
0001
0100
0001
0100
1000
0100
0010
0100
,
0001
1000
0100
0001
0100
1000
0010
1000
,
0002
0000
0003
0020
0000
0130
1000
0000
,
0020
0000
0030
0200
0000
0310
1000
0000
,
0002
0000
1003
0100
0010
0001
0000
0100
,
0010
1000
0010
0100
0001
0010
0100
0010
,
0002
0000
0003
0020
0000
0130
1000
0000
,
0020
0000
0030
0200
0000
0310
1000
0000
,
2000
0000
3001
0200
0000
0000
0300
0000
,
0011
0000
0000
0110
0000
0000
1100
0000
1010
0000
0000
0110
0000
0000
0001
0000
,
1001
0000
0001
1000
0001
0010
0100
0000
,
1100
0000
1000
0001
1000
0100
0010
0001
,
0010
0000
0001
0100
0010
0100
0010
1000
,
0001
0010
0001
0100
0010
1000
0100
0010
,
1001
0000
0001
1000
0001
0100
0010
0000
,
1010
0000
1000
0001
1000
0100
0010
0001
,
0100
0000
0001
0100
0010
0100
0001
0000
,
0011
0000
0000
0110
0000
0000
1100
0000
1010
0000
0000
0110
0000
0000
0011
0000
,
0000
0000
0001
2000
,
3001
0200
0310
2000
,
3020
1030
0200
2300
,
3001
0200
0310
1000
,
0200
2300
3001
0101
,
0020
2030
3001
0101
,
0001
0000
0000
0100
0000
0000
1000
0000
0010
0000
0000
0001
0000
0000
0100
0000
,
0002
0000
1003
0001
,
0020
0000
0130
1000
,
0002
0000
0000
0003
1000
0010
1000
0000
,
0020
0000
0000
0000
1030
0001
0010
0000
,
0200
0000
0300
0000
1000
0010
1000
0000
,
0020
0000
0000
0000
0130
0001
1000
0000
,
0200
0000
0000
0000
0000
0000
0000
0000
0000
0000
0000
0000
0000
0000
0000
0000
0000
0000
0000
0000
0000
0000
0000
0000
0000
0000
0000
0000
0000
0000
0000
0000
0000
0000
0000
0000
0000
0000
0000
0000
0000
0000
0000
0000
0000
0000
0000
0000
0000
0000
0000
0000
0000
0000
0000
0000
0000
0000
0000
0000
0000
0000
0000
0000
0000
0000
0000
0000
0000
0000
0000
0000
0000
0000
0000
0000
0000
0000
0000
0000
0000
0000
0000
0000
0000
0000
0000
0000
0000
0000
0000
0000
0000
0000
0000
0300
1000
0000
0000
0000
0000
0000
0000
0000
0000
0000
0000
0000
0000
0000
0000
0000
0000
0000
0000
0000
0000
0000
0000
0000
0001
0000
0000
0000
0000
0000
0000
0000
0000
0000
0000
0000
0000
0000
0000
0000
0000
0000
0000
0000
0000
0000
0000
0000
1000
0000
0000
0000
0000
0000
0000
0000
0000
0000
0000
0000
0000
0000
0000
0000
0000
0000
0000
0000
0000
0000
0000
0000
0000
0000
0000
0000
0000
0000
0000
0000
0000
0000
0000
0000
0000
0000
0000
0000
0000
0000
0000
0000
0000
0000
0000
0000
,
0020
0001
1000
0100
,
2030
0000
0010
0000
0001
0000
0100
3000
,
1000
0010
1000
0100
0010
0100
0010
0100
,
1000
0100
1000
0000
0001
0000
0010
0000
0001
0010
0001
0000
0110
0000
0000
0000
,
1001
0000
1000
0100
0001
0100
1000
0000
,
1100
0000
0010
0001
0100
0001
0010
0100
,
1000
0000
1000
0100
0001
0100
1000
0010
,
0001
0010
1000
0100
1000
0100
1000
0000
,
1001
0000
0001
0010
1000
0010
0001
0000
,
0011
0000
0100
1000
0010
0100
0001
0010
,
0100
0000
0010
0100
1000
0100
1000
0000
,
0011
0000
0000
0110
0000
0000
1100
0000
1010
0000
0000
0110
0000
0000
0000
0000
,
0110
0000
0000
0000
0001
0010
0001
0000
1000
0000
0010
0000
0100
0000
0001
0000
,
2002
3003
0000
0000
,
0000
0000
0000
0000
;

//---------------dance-double - ----------------
#NOTEDATA:;
#CHARTNAME:;
#STEPSTYPE:dance-double;
#DESCRIPTION:;
#CHARTSTYLE:;
#DIFFICULTY:Easy;
#METER:6;
#RADARVALUES:0.210702,0.319981,0.116660,0.000000,0.000000,177.000000,163.000000,14.000000,0.000000,0.000000,0.000000,0.000000,0.000000,0.000000,0.210702,0.319981,0.116660,0.000000,0.000000,177.000000,163.000000,14.000000,0.000000,0.000000,0.000000,0.000000,0.000000,0.000000;
#CREDIT:;
#NOTES:
00000000
00000000
00000000
00000000
,
00000000
00000000
00000000
00000000
,
00000000
00000000
00000000
00000000
,
00000000
00000000
00000000
00000000
,
00000000
00000000
00000000
00000000
,
00000010
00000001
00000000
00000000
,
00001000
00000100
00000000
00000000
,
00000000
00000010
00000001
00000100
,
00001000
00010000
00000000
00000000
,
00100000
10000000
00000000
00000000
,
00010000
01000000
00000000
00000000
,
00000000
00100000
10000000
01000000
,
00010000
00001000
00000000
00000000
,
00000000
00000010
00000001
00001000
,
00000100
00001000
00000010
00000000
,
00010000
00000100
00010000
00000000
,
00010000
01000000
00000000
00100000
,
00000000
00010000
10000000
00010000
,
01000000
00010000
00100000
00000000
,
00001000
00010000
00000100
00010000
,
00001000
00010000
00011000
00011000
,
00011000
00000000
00000000
00000000
,
00001001
00000000
00000000
00000000
,
00011000
00000000
00000000
00000000
,
00100000
00100000
00100000
00000000
,
10010000
00000000
00000000
00000000
,
00011000
00000000
00000000
00000000
,
00001001
00000000
00000000
00000000
,
00000010
00000001
00000100
00001000
,
00010000
00100000
10000000
00000000
,
10000000
00000000
01000000
01000000
,
00100000
00100000
00001000
00001000
,
00010000
00001000
00000100
00000010
,
00001000
00000010
00001000
00000000
,
00000001
00000000
00000100
00000100
,
00000010
00000000
00010000
00000000
,
00001000
00010000
01000000
10000000
,
10010000
00000000
00000000
00000000
,
00000000
00000000
00000000
00000000
,
00011000
00000000
00000000
00000000
,
00000000
00000000
00000000
00000000
,
00000100
00000000
00000000
00000001
,
00000100
00000000
00001000
00000000
,
00010000
01000000
01000000
10000000
,
10000000
00100000
00100000
00010000
,
00001000
00000100
00000100
00000001
,
00000001
00000000
00000010
00001000
,
00010000
00000000
00001000
00100000
,
00010000
00010000
01000000
00000000
,
00001000
00010000
00001000
00000100
,
00000001
00000100
00000000
00001000
,
00010000
00001000
00010000
00001000
,
00011000
01100000
11000000
00000000
,
10000000
01000000
00010000
00001000
,
00000010
00000001
00001000
00000000
,
00001000
00000100
00001000
00001000
,
00000100
00000100
00000010
00000010
,
00000100
00000100
00010000
00010000
,
00001000
00010000
00100000
01000000
,
00010000
01000000
00010000
00000000
,
10000000
00000000
00100000
00100000
,
01000000
00000000
00001000
00000000
,
00010000
00001000
00000010
00000001
,
00001001
00000100
00000000
00000100
,
00000100
00000000
00000000
00000000
,
00000000
00000000
00000000
00000000
;

//---------------dance-double - ----------------
#NOTEDATA:;
#CHARTNAME:;
#STEPSTYPE:dance-double;
#DESCRIPTION:;
#CHARTSTYLE:;
#DIFFICULTY:Medium;
#METER:9;
#RADARVALUES:0.305935,0.346646,0.049997,0.099994,0.024999,257.000000,251.000000,6.000000,12.000000,0.000000,0.000000,0.000000,0.000000,0.000000,0.305935,0.346646,0.049997,0.099994,0.024999,257.000000,251.000000,6.000000,12.000000,0.000000,0.000000,0.000000,0.000000,0.000000;
#CREDIT:;
#NOTES:
00000000
00000000
00000000
00000000
,
00000000
00000000
00000000
00000000
,
00000000
00000000
00000000
00000000
,
00000000
00000000
00000000
00000000
,
00000000
00000000
00000000
00000000
,
00000001
00000100
00000001
00000000
00001000
00000000
00001000
00000000
,
00000001
00000100
00001000
00000000
00010000
00000000
00010000
00000000
,
00000000
00100000
00010000
00000000
00001000
00000100
00001000
00010000
,
00000000
01000000
00010000
00001000
,
00010000
01000000
10000000
00000000
00010000
00000000
00010000
00000000
,
10000000
01000000
00010000
00000000
00001000
00000000
00001000
00000000
,
00000000
00000010
00001000
00000000
00010000
01000000
00010000
00001000
,
00000000
00000000
00000100
00000000
00001000
00010000
00000000
00000000
,
00001000
00000000
00010000
00000000
00001000
00010000
00000010
00000000
,
00000100
00000001
00000100
00000110
,
00000100
00000000
00000001
00000000
00000100
00000000
00001000
00010000
,
01000000
00100000
01000000
00000000
00010000
00000000
00010000
00001000
,
00010000
00000000
00001000
00000000
00010000
00001000
00100000
00000000
,
01000000
10000000
01000000
01100000
,
01000000
00000000
10000000
00000000
01000000
00000000
00010000
00001000
,
00010000
00000010
00001000
00000000
00000010
00000000
00010000
00000000
,
00002000
00000000
00000000
00003000
,
00020000
00000000
00000000
00030000
,
00001000
00000100
00000001
00000000
,
00000100
00000001
00000100
00001000
00010000
00000000
01000000
00000000
,
21000000
00000000
00000000
30000000
,
01000000
00010000
00001000
00000100
,
00001000
00000000
00000000
00011000
00000000
00000000
00001000
01000000
,
00010000
00000000
00000000
00010000
00000000
00000000
00010000
00000000
10000000
00000000
00000000
10000000
00000000
00000000
10000000
00000000
,
01000000
00010000
00001000
00000100
,
00000001
00000000
00000100
00001000
00000100
00000000
00000010
00010000
,
00000010
00000000
00010000
00001000
00020000
00000000
01030000
00000000
,
10000000
00100000
01000000
00000000
01100000
00000000
01000000
00001000
,
00010000
00001000
00010000
01000000
,
10000000
00000000
01000000
00010000
01000000
00000000
00100000
00001000
,
00100000
00000000
00001000
00020000
00000000
00000000
00000100
00000000
,
00031000
00000000
00000000
00010000
00000000
00000000
00001000
00000000
00000010
00000000
00000000
00000001
00000000
00000000
00000100
00000000
,
00000020
00000000
00000000
00000030
,
00000000
00000000
00000000
00000000
,
00020000
00000000
00000000
00030000
,
00000000
00000000
00000000
00000000
,
10000000
01000000
00010000
01000000
,
00100000
00001000
00010000
00001000
,
00000010
00000010
00000100
00000100
,
00020000
00001000
00001000
00130000
,
10000000
00000000
01000000
00000000
10000000
00000000
01000000
00010000
,
00001000
00000000
00000100
00000000
00000001
00000000
00000001
00000010
,
00000001
00000000
00000010
00000000
00001000
00000000
00010000
00001000
,
00000000
00010000
00000000
00001000
00000000
00001000
00000000
00000100
,
00000001
00000000
00000100
00000000
00000001
00000000
00000100
00001000
,
00010000
00000000
01000000
00000000
10000000
00000000
10000000
00100000
,
10000000
00100000
00010000
00001000
,
00010000
00001000
00010000
00001000
,
00000100
00000010
00000100
00000000
00000001
00000010
00000001
00000010
,
00000002
00000000
00000000
00000103
,
00000100
00001000
00010000
01000000
,
10000000
00000000
01000000
00010000
01000000
00000000
00100000
00001000
,
00100000
00000000
00001000
00010000
00002000
00000000
00003100
00000000
,
00000001
00000010
00000100
00000000
00000110
00000000
00000100
00010000
,
00001000
00010000
00001000
00000100
,
00000001
00000000
00000100
00001000
00000100
00000000
00000010
00010000
,
00000010
00000000
00010000
00002000
00000000
00000000
01000000
00000000
,
00013000
00000000
00000000
00001000
00000000
00000000
00010000
00000000
00100000
00000000
00000000
10000000
00000000
00000000
01000000
00000000
,
00200000
00000000
00000000
00000000
,
00301000
00000000
00000000
00000000
,
00000000
00000000
00000000
00000000
;

//---------------dance-double - ----------------
#NOTEDATA:;
#CHARTNAME:;
#STEPSTYPE:dance-double;
#DESCRIPTION:;
#CHARTSTYLE:;
#DIFFICULTY:Hard;
#METER:11;
#RADARVALUES:0.411881,0.535385,0.199988,0.191655,0.045831,346.000000,322.000000,24.000000,23.000000,0.000000,0.000000,0.000000,0.000000,0.000000,0.411881,0.535385,0.199988,0.191655,0.045831,346.000000,322.000000,24.000000,23.000000,0.000000,0.000000,0.000000,0.000000,0.000000;
#CREDIT:;
#NOTES:
00000000
00000000
00000000
00000000
,
00000000
00000000
00000000
00000000
,
00000000
00000000
00000000
00000000
,
00000000
00000000
00000000
00000000
,
00000000
00000000
00000000
00000000
,
00000010
00000001
00000010
00000000
00000001
00000000
00000110
00000000
,
00001000
00010000
00100000
00000000
00010000
00000000
00001000
00000000
,
00000100
00000001
00000100
00000010
00001000
00000100
00001000
00000001
,
00000100
00000100
00001000
00010000
,
00100000
10000000
00100000
00000000
10000000
00000000
01100000
00000000
,
00100000
00010000
00100000
00000000
00010000
00000000
01100000
00000000
,
01000000
10000000
01000000
00100000
00010000
01000000
00010000
10000000
,
01000000
00000000
01000000
00000000
00010000
00001000
00000000
00000000
,
00000010
00000001
00001000
00000000
00000010
00001000
00000001
00000000
,
00000001
00000000
00001000
00000001
00001000
00000000
00001000
00000010
,
00010000
00000100
00001000
00000100
00000010
00000001
00000010
00000100
,
00001000
00000000
00000001
00000000
00000100
00000000
00001000
00010000
,
00000000
00000000
00001000
00000000
00100000
00010000
10000000
00000000
,
10000000
00000000
00010000
10000000
00010000
00000000
00010000
00100000
,
00010000
01000000
00001000
01000000
00100000
10000000
00100000
01000000
,
00010000
11000000
01100000
00110000
,
00011000
00000000
00000000
00000010
00000000
00001000
00000000
00000000
,
00000000
00000000
00000100
00000001
00000000
00000001
00000100
00000010
,
00001000
00000000
00001000
00000100
00000000
00000100
00000010
00000000
,
00000001
00000010
00000001
00000100
00000010
00000000
00010000
00000000
,
00011000
00000000
00000000
00100000
00000000
10000000
00000000
00000000
,
00000000
00000000
01000000
10000000
00000000
10000000
01000000
00100000
,
00010000
00000000
00010000
01000000
00000000
00000000
00000000
00000000
,
00001000
00000000
00000000
00010000
00000000
00000000
00001000
00000000
00000100
00000000
00000000
00000010
00000000
00000000
00000100
00000000
,
00000001
00000000
00000001
00001000
00000001
00000010
00000100
00000000
,
00001100
00000000
00001000
00000001
00001000
00000100
00000010
00000001
,
00000100
00000000
00001000
00010000
00100000
01000000
00100000
10000000
,
00010000
00100000
00010000
01000000
00100000
10000000
01000000
00010000
,
00011000
00000000
00000010
00001000
00000001
00000100
00000010
00000000
,
00001010
00000000
00001000
00000001
00001000
00000100
00010000
00001000
,
01000000
00000000
00010000
01000000
00100000
01000000
00010000
00000000
,
00110000
00000000
00000000
01100000
00000000
00000000
11000000
00000000
00010000
00000000
00000000
00001000
00000000
00000000
00000010
00000000
,
00000101
00000000
00000001
00002000
,
00003001
00000000
00000000
00000000
00000000
00000000
00000000
00000000
00000000
00000000
00000000
00000000
00000000
00000000
00000000
00000000
00000000
00000000
00000000
00000000
00000000
00000000
00000000
00000000
00000000
00000000
00000000
00000000
00000000
00000000
00000000
00000000
00000000
00000000
00000000
00000000
00000000
00000000
00000000
00000000
00000000
00000000
00000000
00000000
00000000
00000000
00000000
00000000
00000200
00000000
00000000
00000000
00000000
00000000
00000000
00000000
00000000
00000000
00000000
00000000
00000000
00000000
00000000
00000000
00000000
00000000
00000000
00000000
00000000
00000000
00000000
00000000
00000000
00000000
00000000
00000000
00000000
00000000
00000000
00000000
00000000
00000000
00000000
00000000
00000000
00000000
00000000
00000000
00000000
00000000
00000000
00000000
00000000
00000000
00000000
00000000
00000310
00000000
00000000
00000000
00000000
00000000
00000000
00000000
00000000
00000000
00000000
00000000
00000000
00000000
00000000
00000000
00000000
00000000
00000000
00000000
00000000
00000000
00000000
00000000
00000000
00000000
00000000
00000000
00000000
00000000
00000000
00000000
00000000
00000000
00000000
00000000
00000000
00000000
00000000
00000000
00000000
00000000
00000000
00000000
00000000
00000000
00000000
00000000
00002000
00000000
00000000
00000000
00000000
00000000
00000000
00000000
00000000
00000000
00000000
00000000
00000000
00000000
00000000
00000000
00000000
00000000
00000000
00000000
00000000
00000000
00000000
00000000
00000000
00000000
00000000
00000000
00000000
00000000
00000000
00000000
00000000
00000000
00000000
00000000
00000000
00000000
00000000
00000000
00000000
00000000
00000000
00000000
00000000
00000000
00000000
00003000
,
00000200
00010300
00002000
00203000
,
00310000
02000000
03100000
10000000
,
02000000
23000000
30010000
01010000
,
00200000
00302000
00003100
00000101
,
00000001
00000000
00000000
00000100
00000000
00000000
00001000
00000000
00010000
00000000
00000000
00100000
00000000
00000000
10000000
00000000
,
00020000
00000000
10030000
00010000
,
00000020
00000000
00000230
00000301
,
00000002
00000000
00000000
00000003
00000100
00000010
00001000
00000000
,
00200000
00000000
00000000
00000000
00310000
10000000
00100000
00000000
,
02000000
00000000
03000000
00000000
10000000
01000000
10000000
00000000
,
02000000
00000000
00000000
00000000
03001000
00010000
00001000
00000000
,
00000200
00000000
00000000
00000000
00000000
00000000
00000000
00000000
00000000
00000000
00000000
00000000
00000000
00000000
00000000
00000000
00000000
00000000
00000000
00000000
00000000
00000000
00000000
00000000
00000000
00000000
00000000
00000000
00000000
00000000
00000000
00000000
00000000
00000000
00000000
00000000
00000000
00000000
00000000
00000000
00000000
00000000
00000000
00000000
00000000
00000000
00000000
00000000
00000000
00000000
00000000
00000000
00000000
00000000
00000000
00000000
00000000
00000000
00000000
00000000
00000000
00000000
00000000
00000000
00000000
00000000
00000000
00000000
00000000
00000000
00000000
00000000
00000000
00000000
00000000
00000000
00000000
00000000
00000000
00000000
00000000
00000000
00000000
00000000
00000000
00000000
00000000
00000000
00000000
00000000
00000000
00000000
00000000
00000000
00000000
00000300
00000010
00000000
00000000
00000000
00000000
00000000
00000000
00000000
00000000
00000000
00000000
00000000
00000000
00000000
00000000
00000000
00000000
00000000
00000000
00000000
00000000
00000000
00000000
00000000
00000001
00000000
00000000
00000000
00000000
00000000
00000000
00000000
00000000
00000000
00000000
00000000
00000000
00000000
00000000
00000000
00000000
00000000
00000000
00000000
00000000
00000000
00000000
00000000
00000010
00000000
00000000
00000000
00000000
00000000
00000000
00000000
00000000
00000000
00000000
00000000
00000000
00000000
00000000
00000000
00000000
00000000
00000000
00000000
00000000
00000000
00000000
00000000
00000200
00000000
00000000
00000000
00000000
00000000
00000000
00000000
00000000
00000000
00000000
00000000
00000000
00000000
00000000
00000000
00000000
00000000
00000000
00000000
00000000
00000000
00000000
00000000
,
00000000
00000001
00000010
00001300
,
00002000
00100000
00010000
01003000
,
00010000
00100000
00001000
01000000
00100000
00010000
00001000
00000100
,
00000001
00000100
00000001
00000000
00001000
00000000
00000010
00000000
00001000
00000010
00001000
00000000
00000100
00000000
00000000
00000000
,
00001001
00000000
00000001
00000100
00001000
00000100
00000001
00000000
,
00001000
00000100
00010000
00001000
00100000
00010000
01000000
00000000
,
10000000
00000000
10000000
01000000
00010000
00100000
10000000
00100000
,
00010000
01000000
10000000
01000000
00001000
00010000
00000100
00000000
,
00001001
00000000
00000001
00000100
00001000
00000100
00000001
00000000
,
00001000
00000100
00010000
00001000
00100000
10000000
00100000
00000000
,
00001000
00010000
00000100
00001000
00000100
00000010
00000001
00000000
,
00000011
00000000
00000000
00000110
00000000
00000000
00001100
00000000
00010000
00000000
00000000
01100000
00000000
00000000
01000000
00000000
,
00100000
00000000
00000000
00000000
00010000
00100000
00010000
00000000
10000000
00000000
00100000
00000000
01000000
00000000
00010000
00000000
,
02002000
03003000
00000000
00000000
,
00000000
00000000
00000000
00000000
;

//---------------dance-single - ----------------
#NOTEDATA:;
#CHARTNAME:;
#STEPSTYPE:dance-single;
#DESCRIPTION:;
#CHARTSTYLE:;
#DIFFICULTY:Challenge;
#METER:13;
#RADARVALUES:0.535683,0.725583,0.416642,0.233320,0.158324,450.000000,400.000000,50.000000,28.000000,0.000000,0.000000,0.000000,0.000000,0.000000,0.535683,0.725583,0.416642,0.233320,0.158324,450.000000,400.000000,50.000000,28.000000,0.000000,0.000000,0.000000,0.000000,0.000000;
#CREDIT:;
#DISPLAYBPM:130.000000;
#NOTES:
// measure 0
0000
0000
0000
0000
,  // measure 1
0000
0000
0000
0000
,  // measure 2
0000
0000
0000
0000
,  // measure 3
0000
0000
0000
0000
,  // measure 4
0200
0000
0000
0000
0000
0000
0301
1000
,  // measure 5
0001
0010
1100
0000
0010
0100
1001
0000
,  // measure 6
0010
1000
0101
0000
0010
0001
1100
0000
,  // measure 7
0001
0100
0010
0100
0001
0010
0100
1000
,  // measure 8
0001
0000
1000
0000
0010
0100
0001
1000
,  // measure 9
0100
0010
0011
0000
1000
0001
0101
0000
,  // measure 10
0010
1000
0110
0000
0001
0010
1001
0000
,  // measure 11
0100
0001
0010
0001
0100
0010
1000
0001
,  // measure 12
0100
0000
1010
0000
1000
0110
0001
0000
,  // measure 13
0010
0000
0100
0000
2100
0000
0000
0000
3001
0010
0001
0000
0100
0000
0010
0000
,  // measure 14
2000
0000
3001
1000
0010
0100
0001
1000
,  // measure 15
0100
0001
0100
0010
0100
1000
0001
0100
,  // measure 16
0010
0010
0010
1000
0001
0100
1000
0110
,  // measure 17
0000
0000
0001
0000
0201
0000
0000
0000
0310
1000
0010
0000
0100
0000
0001
0000
,  // measure 18
0020
0000
0130
1000
0001
0000
0100
0010
,  // measure 19
1000
0100
0001
0100
1000
0010
0100
0001
,  // measure 20
1000
1000
2000
0000
0010
0000
3001
0000
,  // measure 21
1001
0000
0000
1010
0000
0101
0000
0000
,  // measure 22
0000
0000
0001
1000
0000
0110
0000
1000
,  // measure 23
0002
0000
0010
0010
0010
0013
0000
0001
,  // measure 24
1000
0100
0001
0100
2000
0000
3010
0100
,  // measure 25
0110
0000
0000
0101
0000
1100
0000
0000
,  // measure 26
0002
0000
0013
0100
0000
1100
0000
0010
,  // measure 27
2000
0000
0000
0002
0000
0000
3003
0100
,  // measure 28
0101
0000
0000
1100
0000
0000
0011
0000
1100
0000
0000
0101
0000
0000
1010
0000
,  // measure 29
1001
0000
0100
0000
0001
0000
0010
0000
1000
0100
1000
0000
0001
0000
0000
0000
,  // measure 30
0110
0000
0001
0000
1000
0000
0010
0000
1000
0100
1000
0000
0001
0000
0100
0000
,  // measure 31
0020
0000
1030
1000
0001
0001
0100
0010
,  // measure 32
1000
0000
0100
0000
0001
0000
0100
0000
1000
0010
1000
0010
1000
0000
0001
0000
,  // measure 33
0100
0000
0001
0000
0010
0000
0001
0000
1000
0010
1000
0000
0100
0000
0000
0000
,  // measure 34
1100
0000
0001
0000
1000
0000
0010
0000
0100
0001
0100
0000
0010
0000
1000
0000
,  // measure 35
0002
0000
0000
0000
0013
0100
0020
0000
1000
0000
0000
0000
0031
0000
0100
0000
,  // measure 36
0110
0000
0000
0101
0000
0000
0011
0000
1100
0000
0000
0101
0000
0000
1010
0000
,  // measure 37
1001
0100
0000
0010
1000
0010
0000
1000
,  // measure 38
0001
0000
0000
0000
1000
0100
1000
0000
0020
0000
0000
0230
0000
0000
0301
0000
,  // measure 39
1000
0001
1000
0000
0000
0000
0010
0000
0100
0000
0000
0100
0000
0000
0001
0000
,  // measure 40
1000
0100
0010
0002
0000
2003
0000
3001
,  // measure 41
0100
0010
0100
0000
0000
0000
0001
0000
1000
0000
0010
0000
0000
0000
1000
0000
,  // measure 42
0100
0010
0001
0000
1000
0001
0100
0000
,  // measure 43
0010
0000
0000
0010
0000
0000
1000
0000
0001
0000
0000
0100
0000
0000
0010
0000
,  // measure 44
2000
0000
0000
0000
0000
0000
3001
0200
,  // measure 45
0000
0310
0000
1000
0000
0100
0010
0002
,  // measure 46
0000
1003
0000
0001
0000
1000
0010
0200
,  // measure 47
0000
0310
1000
0000
0000
0001
0100
0010
,  // measure 48
1000
0100
0001
0100
0010
0100
1000
0001
,  // measure 49
0100
0010
1000
0000
0001
1000
0100
1000
,  // measure 50
0001
0010
0100
0000
1000
0001
1000
0020
,  // measure 51
0100
0100
0001
0001
,  // measure 52
1000
1000
0100
0100
,  // measure 53
1030
0010
1000
0001
1000
0010
1000
0001
,  // measure 54
0100
0010
0100
0010
0100
0010
0100
0010
0100
0000
0101
0000
0000
0000
1100
0000
,  // measure 55
1001
0000
0010
0000
1000
0000
0001
0000
0100
0010
0100
0000
0001
0000
0000
0000
,  // measure 56
1010
0000
0001
0000
1000
0000
0100
0000
1000
0001
1000
0000
0010
0000
0100
0000
,  // measure 57
0002
0000
0103
0100
0010
0010
1000
0001
,  // measure 58
0010
0000
1000
0000
0010
0000
0100
0000
0010
0001
0010
0001
0010
0000
0100
0000
,  // measure 59
0110
0000
0000
0000
1000
0000
0010
0000
1000
0001
1000
0000
0100
0000
0000
0000
,  // measure 60
0011
0000
0000
0000
0001
0000
1000
0000
0010
0100
0010
0000
1000
0000
0100
0000
,  // measure 61
2000
0000
3001
0020
0100
0100
0130
1000
,  // measure 62
1010
0000
0000
0101
0000
0000
0011
0000
1100
0000
0000
0101
0000
0000
0110
0000
,  // measure 63
1001
0000
0000
0000
1000
0001
1000
0001
1000
0001
1000
0001
1000
0001
1000
0002
,  // measure 64
2000
0000
3003
0000
;
