#TITLE:Boombastic;
#ARTIST:Shaggy;
#BANNER:Boombastic-bn.png;
#BACKGROUND:Boombastic-bg.png;
#JACKET:Boombastic-jacket.png;
#MUSIC:Boombastic.ogg;
#OFFSET:1.275;
#SAMPLESTART:12.468;
#SAMPLELENGTH:20;
#LASTBEATHINT:0.705;
#DISPLAYBPM:158;
#BPMS:0=158.36;
#BGCHANGES:;

//---------------dance-single - ----------------
#NOTES:
     dance-single:
     :
     Beginner:
     3:
     :
0000
0000
0000
0000
,
0000
0000
0000
0000
,
0000
0000
0000
0000
,
0000
0000
0000
0000
,
0000
0000
0000
0000
,
0000
0000
0000
0000
,
1000
1000
0000
0000
,
0000
0000
0000
0000
,
0001
0001
0000
0000
,
0000
0000
0000
0000
,
0010
0010
0000
0000
,
0100
0100
0000
0000
,
0001
0000
1000
0000
,
0000
0000
0000
0000
,
0100
0100
0000
0000
,
0010
0010
0000
0000
,
0001
0000
1000
0000
,
0000
0000
0000
0000
,
1001
0000
0000
0000
,
0010
0000
0010
0000
,
1000
0000
0100
0000
,
1000
0000
0000
0000
,
0001
0001
0000
0000
,
0010
0000
0001
0000
,
0100
0000
0000
0000
,
0010
0000
0000
0000
,
1000
1000
0000
0000
,
0001
0000
1000
0000
,
0010
0010
0000
0000
,
0100
0000
0001
0000
,
1000
1000
0000
0000
,
0100
0000
0010
0000
,
0001
0000
0000
0000
,
1000
0000
0000
0000
,
0001
0001
0000
0000
,
0100
0000
0010
0000
,
0100
0000
0010
0000
,
1000
1000
1000
0000
,
0100
0100
0000
0000
,
1000
1000
0000
0000
,
0001
0000
1000
0000
,
0000
0000
0000
0000
,
0001
0001
0000
0000
,
0010
0010
0000
0000
,
0001
0000
1000
0000
,
0010
0010
0010
0010
,
0010
0000
0000
0000
,
1000
0000
0000
0000
,
0100
0000
0010
0000
,
0000
0000
0000
0000
,
0001
0001
0000
0000
,
1000
1000
0000
0000
,
0001
0000
0100
0000
,
0000
0010
0010
0000
,
1000
0000
1000
0000
,
1000
0000
0000
0000
,
0001
0000
0001
0000
,
0001
0000
0000
0000
,
0010
0000
0000
0000
,
0100
0000
0000
0000
,
1000
0000
0001
0000
,
0100
0000
0000
0000
,
0010
0000
0000
0000
,
1000
0000
0000
0000
,
0001
0000
0100
0000
,
1001
0000
0000
0000
,
0010
0000
0000
0000
,
0100
0000
0000
0000
,
0000
0110
0000
0000
,
0001
0001
0000
0000
,
0010
0010
0000
0000
,
0100
0100
0000
0000
,
1000
0000
0010
0000
,
0000
0000
0000
0000
,
1000
1000
0000
0000
,
0001
0001
0000
0000
,
0010
0000
0001
0000
,
0100
0100
0100
0000
,
1001
0000
0000
0000
,
1000
0000
0000
0000
,
0001
0000
0010
0000
,
0000
0000
0000
0000
,
0100
0000
0000
0000
,
1000
0000
0000
0000
,
0001
0000
1000
0000
,
0000
0110
0000
0000
,
1001
0000
0000
0000
;

//---------------dance-single - ----------------
#NOTES:
     dance-single:
     :
     Easy:
     7:
     :
0000
0000
0000
0000
,
0000
0000
0000
0000
,
0000
0000
0000
0000
,
0000
0000
0000
0000
,
0000
0000
0000
0000
,
0000
0000
0000
0000
,
1100
0101
0000
0010
,
0010
0010
0010
1000
,
1100
0101
0000
0000
,
0000
0100
0100
0010
,
1001
1001
0100
0010
,
1010
1010
0001
1000
,
0001
0100
0010
2000
,
0000
0000
0000
3000
,
1100
1100
0001
1000
,
0101
0101
0010
1000
,
0100
0010
0001
2000
,
0000
0000
0000
3000
,
2002
0000
0000
3003
,
0100
1000
0002
0003
,
0010
0010
0001
1000
,
0010
1000
0100
0000
,
1100
0101
0000
0000
,
0010
1000
0010
0000
,
1000
0100
0001
0000
,
0010
0001
0100
0000
,
1000
1000
0001
0001
,
1000
0001
0100
0000
,
0110
1001
0010
1000
,
0100
1000
0001
0000
,
0011
1100
0001
0100
,
0001
0010
1000
0000
,
0100
0100
1000
0000
,
0010
1000
0001
0000
,
1000
0100
1000
0001
,
0100
0100
0100
0010
,
1000
0100
1000
0001
,
0100
0010
1000
0000
,
1100
1100
0001
1000
,
0101
0101
0010
0100
,
0001
0010
0100
2000
,
0000
0000
0000
3000
,
1001
1001
0001
0010
,
0110
0110
1000
0100
,
1000
0010
1000
0001
,
1001
0110
1001
0110
,
1001
0000
0001
0100
,
0001
0000
0010
0100
,
1000
0010
0100
0002
,
0000
0000
0000
0003
,
0011
0011
0001
1000
,
1010
1010
0100
0010
,
1000
0010
1000
0002
,
0000
0100
0200
0303
,
2000
0000
0002
3003
,
0010
0001
2000
3000
,
0001
0010
0001
0010
,
0001
0001
0001
0000
,
1000
0100
2200
3300
,
0001
0100
1000
0000
,
0010
0010
1000
0001
,
1000
0100
0100
0000
,
1000
0001
1000
0000
,
0010
0100
0001
0000
,
0010
0100
1000
0001
,
0101
0010
1000
0100
,
1000
0010
0001
0100
,
0010
0100
0010
0000
,
1000
0000
0001
0000
,
0010
0001
0100
0000
,
0101
1100
0010
0100
,
1010
0101
0001
0010
,
1000
0010
0100
0002
,
0000
0000
0000
0003
,
0110
1001
0010
1000
,
1100
0011
0100
0001
,
0010
0001
0100
0010
,
1000
1000
2000
3000
,
1001
0000
0010
1000
,
0100
0000
1000
0010
,
1000
0001
0010
0200
,
0000
0000
0000
0300
,
1000
1000
0010
1000
,
0001
0000
0010
0001
,
0100
0010
0100
0001
,
0000
0020
0000
0030
,
2002
0000
0000
3003
;

//---------------dance-single - ----------------
#NOTES:
     dance-single:
     :
     Medium:
     10:
     :
0000
0000
0000
0000
,
0000
0000
0000
0000
,
0000
0000
0000
0000
,
0000
0000
0000
0000
,
0000
0000
0000
0000
,
0000
0000
0000
0000
,
1100
0000
0101
0000
0000
0000
0001
0010
,
0100
0000
1000
0000
0001
0100
0010
0000
,
0101
0000
1100
0000
0001
1000
0001
1000
,
0001
0000
0000
0000
0010
1000
0001
0000
,
0011
0000
1100
0000
0001
0100
0001
0000
,
1010
0000
0101
0000
1000
0100
1000
0000
,
0010
0000
1000
0000
0001
0100
0020
0000
,
0000
2000
0000
3030
,
1001
0000
0110
0000
0010
1000
0010
0000
,
0110
0000
1001
0000
0001
0010
0001
0000
,
0100
0000
0010
0000
1000
0001
0200
0000
,
0000
0020
0000
0330
,
2002
0000
0000
3003
,
0010
0000
1000
0100
2000
0000
3000
0000
,
0001
0000
0001
0000
0001
0100
0010
0000
,
1000
0100
0000
1000
0001
0000
0100
0000
,
0101
1100
0001
1000
,
0001
0100
0001
0100
0001
0000
1000
0000
,
0110
0000
1000
0001
0000
0001
0000
0010
,
0000
0001
1000
0000
1000
0000
0100
0000
,
2000
3020
0230
0302
,
0013
0100
0000
0100
0010
0000
0000
0000
,
0011
0000
1100
0000
0001
0100
0001
0000
,
0010
0000
0001
1000
0000
0000
0010
1000
,
0001
0000
0001
0000
0010
0100
1000
0000
,
0010
0000
0100
0001
0000
0000
1000
0100
,
1000
0000
0010
0100
0000
0100
0000
0001
,
1000
1010
0101
0010
,
1000
0001
0100
0010
0000
0000
1000
0000
,
0100
0000
1000
0000
0001
0010
0001
0000
,
0100
0000
0010
1000
0000
0001
0000
1000
,
0100
0000
0010
0001
1000
0001
0100
0000
,
0101
0000
0011
0000
0100
1000
0100
0000
,
1010
0000
0101
0000
0001
1000
0001
0000
,
0010
0000
0001
0000
0100
0010
2000
0000
,
0000
0002
0000
3003
,
0110
0000
1001
0000
0001
1000
0001
0000
,
0011
0000
1100
0000
0010
1000
0010
0000
,
0100
0000
0001
0000
1000
0001
0100
0000
,
1001
0110
1001
0110
,
1000
0000
0001
0000
0010
0001
0100
0000
,
0001
0000
0010
0000
0100
1000
0001
0000
,
0100
0000
0010
0000
1000
0001
2000
0000
,
0000
0200
0000
3300
,
0011
0000
1010
0000
0001
1000
0001
0000
,
0101
0000
1001
0000
0100
0010
0100
0000
,
0001
0000
1000
0000
0001
1000
0020
0000
,
0000
1030
0002
0003
,
0022
0033
2200
3300
,
0010
0000
1000
0002
0000
0000
0103
0000
,
0001
0010
0100
0000
1000
0010
0100
0000
,
0001
0000
1000
0200
0000
0000
0310
0001
,
0100
0000
0010
1000
0000
0001
0100
0000
,
0001
0000
1000
0100
0000
1000
0010
0000
,
1000
0000
0001
0000
1000
0000
0100
0010
,
0001
0000
1000
0001
0000
0000
0100
0010
,
1000
0000
0001
0000
1000
0010
0100
0000
,
0001
0000
1000
0001
0000
0000
0010
0100
,
1000
0000
0010
0000
1000
0001
0100
0000
,
0010
0010
0000
1001
0000
0100
0010
0000
,
2000
3100
0020
0031
,
0100
0000
0010
1000
0000
0000
0001
0200
,
0000
0000
0310
0000
1000
0100
0001
0000
,
0010
0100
0010
0100
0000
1001
0000
0000
,
1100
0000
0011
0000
0100
0010
1000
0000
,
0101
0000
1100
0000
0001
0010
0100
0000
,
1000
0000
0010
0000
1000
0100
0020
0000
,
0000
0002
0000
0033
,
1001
0000
0110
0000
0001
0010
1000
0000
,
1100
0000
0011
0000
0100
0010
1000
0000
,
0001
0010
0001
1000
,
1100
0101
2020
3030
,
0100
0000
0100
0000
0010
1000
0001
0000
,
0010
0000
0010
0000
0001
1000
0100
0000
,
1000
0000
0010
0000
1000
0100
0020
0000
,
0000
0002
0000
0033
,
0100
0000
0100
0000
0001
0010
0001
0000
,
0100
0000
0100
0000
1000
0010
1000
0000
,
0001
0010
0001
1000
,
0000
0010
0100
0020
0000
0030
0000
0000
,
2002
0000
0000
3003
;

//---------------dance-single - ----------------
#NOTES:
     dance-single:
     :
     Hard:
     13:
     :
0000
0000
0000
0000
,
0000
0000
0000
0000
,
0000
0000
0000
0000
,
0000
0000
0000
0000
,
0000
0000
0000
0000
,
0000
0000
0000
0000
,
1100
0000
0101
0000
0010
0100
0010
0100
,
0010
1000
0010
0100
0001
0010
0100
1000
,
1100
0000
0101
0000
0001
1000
0001
1000
,
0001
0100
0100
0010
1000
0001
0100
0000
,
1010
0000
0101
0000
0001
0010
1000
0000
,
1100
0000
0011
0000
0100
0010
0100
0001
,
1000
0100
0010
0001
0100
0010
2000
0000
,
0000
0001
0100
3010
,
0101
0000
1100
0000
0010
1000
0001
0000
,
0110
0000
1001
0000
0010
1000
0010
1000
,
0100
0010
0100
1000
0010
0100
0002
0000
,
0000
0000
0000
0003
,
1001
0001
0100
0000
1001
0000
0000
0000
,
0010
0000
0000
0010
0000
0000
1000
0000
0001
0000
0100
0000
0010
0000
0000
0000
,
2000
0000
0000
0000
3200
0000
0000
0000
1300
0010
1000
0000
0001
0000
0100
0000
,
0010
0000
0000
1000
0000
0000
0001
0000
1000
0000
0000
0000
0100
0000
0010
0000
,
0001
0100
0010
1000
0000
1000
0000
0100
,
1000
0010
0100
0010
1000
0100
0001
0100
,
1000
0000
0000
0001
0000
0000
0011
0000
0000
0000
1100
0000
0000
0000
0010
0000
,
0000
1000
0002
0000
0203
0000
0310
0000
,
1010
0011
1000
0001
,
0100
0010
0000
1000
1000
0000
0000
0001
,
0100
0200
0000
0310
1000
0010
1000
0001
,
0010
0001
0100
1000
0000
0000
0010
1000
,
0010
0100
0010
1000
0010
0100
0001
1000
,
0001
0100
0001
1000
0000
0000
0010
0100
,
0010
0000
0000
1000
0000
0000
1100
0000
0000
0000
0101
0000
0000
0000
0010
0000
,
0001
0100
0002
0000
1003
0000
0100
1000
,
0001
0100
0001
0010
0000
0000
0100
1000
,
0001
0000
0001
0000
0001
0100
0010
1000
,
0100
1000
1000
0001
0000
0100
0010
1000
,
0100
0001
0100
0010
0100
1000
0001
0000
,
0101
0000
1100
0000
0001
0100
0010
0000
,
1010
0000
1100
0000
0001
1000
0010
0100
,
0001
0010
0100
0010
0001
0100
2000
0000
,
0000
0010
0100
3001
,
0011
0000
1100
0000
0010
1000
0100
0000
,
0110
0000
1001
0000
0010
1000
0010
1000
,
0100
0010
0001
0100
1000
0010
0100
0000
,
0101
1100
0101
1100
,
1001
0000
0110
0000
1000
0001
0010
0000
,
0101
0000
0011
0000
0100
1000
0001
1000
,
0010
1000
0100
0010
0001
1000
0020
0000
,
0000
0001
0100
1030
,
0110
0000
1010
0000
0100
1000
0001
0000
,
0011
0000
1010
0000
0001
0100
0010
1000
,
0100
0010
0100
0010
0001
0100
2000
0000
,
0000
0001
0200
3300
,
2020
3030
0202
0303
,
0010
0000
1000
0001
0000
0100
0010
1000
,
0100
0010
0001
0100
1000
0100
0001
1000
,
0010
0000
0000
0100
0000
0000
0001
0000
0000
0000
0000
0000
1000
0000
0100
0000
,
1000
0001
0000
1001
0000
0010
0010
0100
,
0010
0100
0001
1000
0000
0100
1000
0010
,
1000
0100
0001
0100
0010
0100
1000
0001
,
0100
0000
0000
0001
0000
0000
1000
0000
0000
0000
0000
0000
0010
0000
1000
0000
,
0001
0100
0001
0100
0010
1000
0101
0000
,
0010
0000
1000
0001
0000
0000
0010
0001
,
0100
0010
0000
1000
1000
0010
1000
0001
,
0100
0100
0000
0010
0000
1000
0001
0100
,
0002
0000
0013
0100
2000
0000
3010
1000
,
0001
0100
0010
1000
0000
1000
0100
0001
,
0010
0100
0010
0001
0100
0010
1000
0001
,
0010
0000
0001
0000
0100
0000
1000
0000
0000
0000
0010
0000
0000
0100
0000
0000
,
0101
0000
1010
0000
0001
0010
1000
0000
,
1100
0000
0101
0000
0010
1000
0010
1000
,
0100
0010
1000
0010
0001
0100
0020
0000
,
0000
1000
0001
0130
,
1010
0000
0110
0000
0001
0100
1000
0000
,
1001
0000
0011
0000
0100
1000
0100
1000
,
0010
1000
0100
0010
0001
0100
0001
0000
,
0101
1100
0202
0303
,
1001
0000
0110
0000
1000
0010
1000
0000
,
0110
0000
0011
0000
0100
0001
0010
0001
,
1000
0100
0001
0100
1000
0001
0200
0000
,
0000
0010
1000
0301
,
0101
0000
1010
0000
0100
1000
0001
0000
,
0011
0000
1010
0000
0100
1000
0001
1000
,
0010
0100
0010
1000
0001
0010
0100
0000
,
0000
0000
1000
0001
1000
0000
0010
0000
0100
0000
0000
0000
0001
0000
0000
0000
,
2002
0000
0000
3003
;
