#TITLE:Boogie Wonderland;
#ARTIST:Earth, Wind and Fire with The Emotions;
#BANNER:Boogie Wonderland-bn.png;
#BACKGROUND:Boogie Wonderland-bg.png;
#JACKET:Boogie Wonderland-jacket.png;
#MUSIC:Boogie Wonderland.ogg;
#SAMPLESTART:18.635;
#SAMPLELENGTH:20;
#DISPLAYBPM:128:133;
#BPMS:0=127.6,20=129.6,52=130.4,68=131.2,88=131.26,104=131.6,120=131.5,136=131.24,152=131.84,168=133.12,200=132.6;
#BGCHANGES:0=Boogie Wonderland.avi=1=0=0=0,
;

//---------------dance-single - ----------------
#NOTES:
     dance-single:
     :
     Beginner:
     2:
     :
0000
0000
0000
0000
,
0000
0000
0000
0000
,
0000
0000
0000
0000
,
0000
0000
0000
0000
,
0000
0000
0000
0000
,
0010
0000
0000
0000
,
1000
0000
0000
0000
,
1000
0000
0000
0000
,
0001
0000
0000
0000
,
0001
0000
0000
0000
,
1001
0000
0000
0000
,
0010
0000
0000
0000
,
0010
0000
0000
0000
,
0010
0000
0000
0000
,
1001
0000
0000
0000
,
0010
0000
0000
0000
,
0010
0000
0000
0000
,
0000
0000
0000
0000
,
1000
0000
0001
0000
,
0001
0000
1000
0000
,
1000
0000
0010
0000
,
0000
0000
0000
0000
,
0001
0000
1000
0000
,
1000
0000
0001
0000
,
0001
0000
0010
0000
,
0000
0000
0000
0000
,
0100
0000
0000
0000
,
0100
0000
0000
0000
,
0100
0100
0100
0000
,
0000
0000
0000
0000
,
0010
0000
0010
0000
,
0010
0000
0000
0000
,
0010
0010
0010
0000
,
0000
0000
0000
0000
,
1001
0000
0000
0000
,
0001
0000
0001
0000
,
1000
1000
1000
0000
,
0001
0000
0000
0000
,
1001
0000
0000
0000
,
1000
0000
1000
0000
,
0001
0001
0001
0000
,
1000
0000
0000
0000
,
0001
0001
0000
0000
,
1000
1000
0000
0000
,
0010
0010
0000
0000
,
0000
0000
0000
0000
,
1000
1000
0000
0000
,
0001
0001
0000
0000
,
0010
0010
0000
0000
,
0000
0000
0000
0000
,
1001
0000
0000
0000
,
0000
0000
0000
0000
,
1001
0000
0000
0000
,
0010
0010
0010
0000
,
1001
0000
0000
0000
;

//---------------dance-single - ----------------
#NOTES:
     dance-single:
     :
     Easy:
     5:
     :
0000
0000
0000
0000
,
0000
0000
0000
0000
,
0000
0000
0000
0000
,
0000
0000
0000
0000
,
0000
0000
0000
0000
,
1000
1000
0001
0001
,
1001
0000
0000
0000
,
0001
1000
0000
0000
,
0100
0100
0000
0000
,
0001
0001
1000
1000
,
2002
0000
3003
0000
,
0001
1000
0001
0000
,
2000
0000
3000
0000
,
0010
0010
0100
0000
,
2002
0000
3003
0000
,
1000
0001
1000
0000
,
0002
0000
0003
0000
,
0100
0100
0100
0010
,
0110
0000
0000
0000
,
0001
0100
0010
0000
,
1000
0000
1000
0000
,
0010
0000
0000
0000
,
0110
0000
0000
0000
,
1000
0100
0010
0000
,
0001
0000
0001
0000
,
0010
0000
0000
0000
,
2000
3000
0002
0003
,
2000
3000
0002
0003
,
1000
0001
1000
0001
,
0000
0000
0000
0000
,
0020
0030
0200
0300
,
0020
0030
0200
0300
,
0010
0100
0010
0100
,
0000
0000
0000
0000
,
2002
0000
3003
0000
,
0001
1000
0001
0000
,
2000
0000
3000
0000
,
0010
0010
0100
0000
,
2002
0000
3003
0000
,
1000
0001
1000
0000
,
0002
0000
0003
0000
,
0010
0010
0100
0000
,
1000
1000
0100
0100
,
1000
1000
0010
0010
,
0100
0100
0001
0001
,
0001
0000
0000
0000
,
0001
0001
0100
0100
,
0001
0001
0010
0010
,
0100
0100
1000
1000
,
1000
0000
0000
0000
,
1001
0000
0000
0000
,
0110
0000
0000
0000
,
1001
0000
0000
0000
,
0010
0010
0010
0010
,
0110
0000
0000
0000
;

//---------------dance-single - ----------------
#NOTES:
     dance-single:
     :
     Medium:
     8:
     :
0000
0000
0000
0000
,
0000
0000
0000
0000
,
0000
0000
0000
0000
,
0000
0000
0000
0000
,
0000
0000
0000
0000
,
1001
1001
0110
0110
,
0001
0000
0100
0000
0000
0001
0100
0000
,
0010
0000
1000
0000
0000
1000
0001
0000
,
0100
0000
0100
0000
0010
0100
0010
0000
,
1001
1001
0110
0110
,
2002
0000
3003
0000
,
0001
0100
1000
0100
,
0002
0000
1000
0103
,
1000
1000
0100
0100
,
2002
0000
3003
0000
,
1000
0100
0001
0100
,
2000
0000
0001
3100
,
0001
0011
1000
1010
,
1001
0000
0100
0010
,
1000
0000
0100
0000
0010
0001
0010
0000
,
0001
0000
0100
0000
0010
0000
1000
0001
,
0000
0010
0000
0100
0000
0010
0000
0000
,
1001
0000
0100
0001
,
0001
0000
0100
0000
0010
0100
0010
0000
,
1000
0000
0100
0000
0010
0000
0001
1000
,
0000
0010
0000
0100
0000
0110
0000
0000
,
2000
3010
0002
0103
,
2000
3100
0002
0013
,
1000
0000
0001
0000
1000
0000
0001
0100
,
0000
0010
0000
0110
0000
1001
0000
0000
,
0020
1030
0002
0013
,
0020
0031
2000
3010
,
1000
0100
0010
0100
,
1000
0001
1000
0001
,
2002
0000
3003
0000
,
0001
0100
1000
0100
,
0002
0000
1000
0103
,
1000
1000
0100
0100
,
2002
0000
3003
0000
,
1000
0100
0001
0100
,
2000
0000
0001
3100
,
0001
0001
0100
0100
,
0001
1000
0001
0000
0001
1000
0001
0000
,
0100
0010
0100
0000
0100
0010
0100
0000
,
1000
0100
1000
0000
1000
0100
1000
0000
,
0001
0001
1000
1000
,
0001
1000
0001
0000
0001
1000
0010
0000
,
0100
0010
0100
0000
0100
0010
1000
0000
,
1000
0100
1000
0000
1000
0100
0010
0000
,
0001
0001
1000
1000
,
0020
0000
0230
0000
,
0302
0000
0023
0000
,
0230
0000
2300
0000
,
3020
0130
0200
0310
,
0110
0000
0000
0000
;

//---------------dance-single - ----------------
#NOTES:
     dance-single:
     :
     Hard:
     10:
     :
0000
0000
0000
0000
,
0000
0000
0000
0000
,
0000
0000
0000
0000
,
0000
0000
0000
0000
,
0000
0000
0000
0000
,
1001
0011
1010
0110
,
0001
0000
0100
0001
0000
1000
0100
0000
,
1000
0010
0100
1000
0000
0100
0001
0000
,
0010
0100
1000
0010
0000
0100
0010
0000
,
0101
1010
0011
0110
,
2002
0000
3003
0000
,
0001
0100
0010
0000
1000
0010
0100
0100
,
0002
0010
1000
0103
,
1000
0010
0100
0001
,
2002
0000
3003
0000
,
1000
0100
0010
0000
0001
0010
0100
0100
,
2000
0010
0010
3010
,
1001
0011
1001
1010
,
1001
0000
0000
0000
0100
0001
1000
0000
,
1000
0001
0010
0000
0010
0001
0100
0001
,
0010
0200
0000
1300
0020
0000
1030
0001
,
0100
0010
0000
1000
0000
0001
0000
1000
,
1001
0000
0000
0000
0100
1000
0001
0000
,
0001
1000
0010
0000
0010
1000
0100
1000
,
0010
0200
0000
0301
0020
0000
0031
1000
,
0100
0010
0000
0001
0000
1000
0000
0001
,
0200
2300
3020
0031
,
0200
0302
0023
1030
,
0001
1000
0001
0000
0001
0010
0001
0100
,
0000
0010
0000
0110
0000
1000
0001
0000
,
0000
1000
0010
0100
0000
0010
1000
0001
,
0000
0001
0010
0100
0000
0010
0001
1000
,
0001
1000
0010
0010
,
0100
0100
0010
0010
,
2002
0000
3003
0000
,
0001
0100
0010
0000
1000
0010
0100
0100
,
0002
0010
1000
0103
,
1000
0010
0100
0001
,
2002
0000
3003
0000
,
1000
0100
0010
0000
0001
0010
0100
0100
,
2000
0010
0001
3100
,
0001
0010
0100
1000
,
0010
1000
0010
0100
0010
1000
0010
0100
,
0001
0010
0001
0100
0001
0010
0001
0100
,
0010
0100
1000
0100
0010
0100
1000
0100
,
0001
0001
1000
1000
,
0010
0001
0010
1000
0010
0001
0010
0100
,
1000
0010
1000
0001
1000
0010
1000
0100
,
0010
0100
0001
0100
1000
0100
0001
0100
,
1000
1000
0001
0001
,
1000
0100
0001
0100
,
1000
0010
0001
0010
,
1000
0100
0001
0010
,
1000
0010
0001
0100
,
0110
0000
0000
0000
;

//---------------dance-single - ----------------
#NOTES:
     dance-single:
     :
     Challenge:
     14:
     :
0000
0000
0000
0000
,
0000
0000
0000
0000
,
0000
0000
0000
0000
,
0000
0000
0000
0000
,
0000
0000
0000
0000
,
0011
0100
1010
0100
0011
0100
1010
0101
,
0000
0000
1000
0100
0000
0100
0010
0000
0000
0000
0001
0100
0000
0100
0010
0000
,
0000
0000
1000
0001
1000
0000
0010
0000
0100
0001
0100
0000
0010
1000
0010
0000
,
0100
0000
0001
0010
0000
0010
0100
0000
1000
0010
1000
0000
0001
0000
0100
0000
,
0110
0010
1010
1000
1100
0001
0101
0100
,
1001
0010
1000
0100
1000
0001
0010
0100
,
0000
1000
1000
0100
1100
0110
0011
0110
,
1100
0000
0101
0000
1000
0010
0001
0100
,
1010
1000
0100
0010
0011
0001
0100
0010
,
1001
0000
1000
0010
0000
0010
0100
0000
0000
0000
0001
0010
0000
0010
0100
0000
,
0000
0000
1000
0001
1000
0000
0010
0000
1010
0000
1001
0000
0011
0000
1001
0000
,
1010
0000
0100
0000
0001
0000
0010
0000
1000
0100
1000
0000
0001
0000
0100
0000
,
0101
0010
1100
0010
0101
0010
1100
0011
,
1000
0010
0001
0001
0100
0100
0010
1000
,
0001
1000
0100
0010
0010
0100
1000
0001
,
0100
0100
1000
0001
0010
0001
1000
0010
,
0010
1000
0100
0001
0001
0010
0100
1000
,
1000
0010
0001
0100
1000
0100
0001
0010
,
0010
0010
0100
0001
1000
0001
0100
1000
,
0100
0010
0100
0010
0001
1000
1000
0001
,
0001
0010
0100
0100
1000
0001
1000
0010
,
0100
0010
1000
0100
0010
0001
0001
1000
,
0100
1000
0001
1000
0010
0001
0010
0100
,
0001
0010
0100
0010
0001
1000
1000
0100
,
0100
0010
0100
0001
0010
0001
1000
1000
,
1000
0010
0010
0001
0100
0100
1000
0001
,
0001
0010
0010
0100
0100
0001
1000
1000
,
0100
0001
1000
0100
1000
0001
0010
0010
,
0100
0000
1000
0010
1000
0000
0001
0000
1000
0100
1000
0000
0001
0000
0000
0000
,
1001
0010
0001
0100
0010
1000
0100
0010
,
0000
0000
0001
1000
0001
0000
0010
0000
0011
0000
0110
0000
1100
0000
0110
0000
,
0011
0000
1010
0000
0100
0001
0010
1000
,
1100
0010
0100
0001
0011
1000
0100
0010
,
1001
0010
1000
0001
0010
0100
1000
0001
,
0000
0000
0100
0010
0100
0000
0001
0000
0101
0000
1001
0000
1100
0000
1001
0000
,
0101
0000
1010
0000
1000
0100
0001
0010
,
0011
0000
1000
0000
0010
0000
0100
0000
1010
0000
0001
0000
0010
0000
0100
1000
,
0010
1010
1000
1100
0001
0011
0001
0101
,
1000
0110
0100
1010
0001
1100
0010
0101
,
0001
0011
0010
0110
0100
1100
1000
1010
,
0010
0000
0101
0000
1000
0000
0011
0000
0100
0000
0100
0000
0100
0000
0010
1000
,
0001
0011
0100
1001
0010
0110
0010
1010
,
1000
1100
0001
0101
0001
0011
0010
1001
,
0100
0011
0001
1100
1000
1010
0010
0110
,
1000
0000
1001
0000
0001
0000
0101
0000
0010
0000
0010
0000
0010
0000
0100
0001
,
1000
0000
0010
0000
0100
0000
0001
0010
0001
0000
1000
0000
0100
0000
0010
0001
,
1000
0010
0100
0001
0011
1001
1100
1001
,
0011
0000
0000
0000
1010
0000
0001
0100
0001
0000
0010
0000
0100
0000
1000
0000
,
1100
0001
0100
0010
0101
1000
0100
0010
,
0011
0000
0000
0000
;
