#TITLE:Bonafied Lovin';
#ARTIST:Chromeo;
#BANNER:Bonafied Lovin'-bn.png;
#BACKGROUND:Bonafied Lovin'-bg.png;
#JACKET:Bonafied Lovin'-jacket.png;
#MUSIC:Bonafied Lovin'.ogg;
#SAMPLESTART:42.3;
#SAMPLELENGTH:20;
#DISPLAYBPM:125;
#BPMS:0=124.4,4=124.915;
#BGCHANGES:0=Bonafied Lovin'.avi=1=0=0=0,
;

//---------------dance-single - ----------------
#NOTES:
     dance-single:
     :
     Beginner:
     1:
     :
0000
0000
0000
0000
,
0000
0000
0000
0000
,
0000
0000
0000
0000
,
0000
0000
0000
0000
,
0000
0000
0000
0000
,
0000
0000
0000
0000
,
0001
0000
0000
0000
,
1000
1000
0000
0000
,
0010
0000
1000
0000
,
0001
0001
0000
0000
,
1000
0000
0000
0000
,
0001
0001
0000
0000
,
0010
0000
0001
0000
,
1000
1000
0000
0000
,
0001
0000
0000
0000
,
0100
0000
0000
0000
,
1000
0000
0000
0000
,
0100
0000
0000
0000
,
0010
0000
0000
0000
,
0001
0000
0000
0000
,
0100
0000
0000
0000
,
1001
0000
0000
0000
,
0000
0001
0000
0010
,
0000
0010
0000
0000
,
0000
1000
0000
0010
,
0000
0010
0000
0000
,
0000
1000
0000
0100
,
0000
0100
0000
0000
,
0000
0100
0000
0000
,
1001
0000
0000
0000
,
1000
0000
0000
0010
,
0010
0000
0000
0000
,
0001
0000
0000
0010
,
0010
0000
0000
0000
,
0001
0000
0001
0000
,
1000
0000
1000
0000
,
0010
0000
0010
0000
,
0100
0000
0100
0000
,
1000
0000
1000
0000
,
0001
0000
0001
0000
,
0010
0000
0010
0000
,
0100
0000
0100
0000
,
0000
1000
0000
0010
,
0000
0010
0000
0000
,
0000
0001
0000
0010
,
0000
0010
0000
0000
,
0000
0001
0000
0100
,
0000
0100
0000
0000
,
0000
0100
0000
0000
,
1001
0000
0000
0000
,
0001
0000
0000
0010
,
0010
0000
0000
0000
,
1000
0000
0000
0010
,
0010
0000
0000
0000
,
1000
0000
0000
0100
,
0100
0000
0000
0000
,
0001
0000
1000
0000
,
0001
0000
1001
0000
,
0000
0000
0000
0000
;

//---------------dance-single - ----------------
#NOTES:
     dance-single:
     :
     Easy:
     4:
     :
0000
0000
0000
0000
,
0000
0000
0000
0000
,
0000
0000
0000
0000
,
0000
0000
0000
0000
,
0000
0000
0000
0000
,
0000
0000
0000
0000
,
1000
0000
0010
0000
,
1000
1000
0100
0000
,
0001
0000
1000
0000
,
0001
1000
0001
0000
,
0001
0000
0100
0000
,
0010
0010
0001
0000
,
0001
0000
1000
0000
,
0010
0001
0010
0000
,
0002
0000
0003
0000
,
0100
0000
0100
0000
,
2000
0000
3000
0000
,
0100
0000
0100
0000
,
0020
0000
0030
0000
,
0001
0000
0001
0000
,
0200
0000
0300
0000
,
1000
0000
1001
0000
,
0000
0001
0000
0010
,
0100
0000
0000
0000
,
0000
0001
0010
0001
,
0000
1000
0000
0001
,
0000
1000
0000
0010
,
0100
0000
0000
0000
,
0000
1000
0001
1000
,
1001
0000
0000
0000
,
1000
0100
0000
0100
,
0000
0010
0000
0100
,
0001
0100
0000
0010
,
0000
0100
0010
0000
,
0001
0001
0001
0000
,
1000
1000
1000
0000
,
0010
0010
0010
0000
,
0100
0100
0100
0000
,
1000
1000
0100
0000
,
0001
0001
0100
0000
,
0010
0010
0001
0000
,
0100
0100
0001
0000
,
0000
0001
0000
0010
,
0100
0000
0000
0000
,
0000
0001
0010
0001
,
0000
1000
0000
0001
,
0000
1000
0000
0010
,
0100
0000
0000
0000
,
0000
1000
0001
1000
,
1001
0000
0000
0000
,
1000
0100
0000
0100
,
0000
0010
0000
0100
,
0001
0100
0000
0010
,
0000
0100
0010
0000
,
0001
0100
0000
0100
,
0000
0010
0000
0100
,
1000
0100
0000
1000
,
0000
0001
1001
0000
,
0000
0000
0000
0000
;

//---------------dance-single - ----------------
#NOTES:
     dance-single:
     :
     Medium:
     6:
     :
0000
0000
0000
0000
,
0000
0000
0000
0000
,
0000
0000
0000
0000
,
0000
0000
0000
0000
,
0000
0000
0000
0000
,
0000
0000
0000
0000
,
1000
0000
0001
0000
,
1000
1000
0100
0100
,
0001
1000
0100
0000
1000
0000
0100
0000
,
0001
1000
0001
0000
,
0001
0000
0100
0000
,
0010
0010
0001
0001
,
1000
0001
0100
0000
0010
0000
0100
0000
,
0010
0001
1000
0000
,
0002
0000
0003
0000
,
0100
0000
0010
0100
,
2000
0000
3000
0000
,
0100
0000
1000
1000
,
0020
0000
0030
0000
,
0100
0000
0001
0010
,
0200
0000
0300
0000
,
0100
0000
1001
0000
,
0000
0010
0001
0100
,
0000
0000
1000
0000
0010
1000
0010
0000
,
0000
0100
0001
0010
,
0001
1000
0000
0000
,
0000
0010
1000
0100
,
0000
0000
0001
0000
0010
0001
0010
0000
,
0000
0100
0100
0010
,
1001
0000
0000
0000
,
1000
0100
0000
0100
,
0010
0001
0000
0001
,
0100
0010
0000
1000
,
0010
0100
1001
0000
,
0001
1000
0001
0000
1000
0000
0001
0000
,
1000
0001
1000
0000
0001
0000
0000
0000
,
0010
0100
0010
0000
0100
0000
0010
0000
,
0100
0010
0100
0000
0010
0000
0000
0000
,
0001
1000
0001
0000
1000
0000
0100
0000
,
1000
0001
1000
0000
0001
0000
0100
0000
,
0010
0100
0010
0000
0100
0000
0001
0000
,
0100
0010
0100
0000
0001
0000
0000
0000
,
0000
0100
1000
0010
,
0000
0000
0001
0000
0100
0001
0100
0000
,
0000
0010
1000
0100
,
1000
0001
0000
0000
,
0000
0100
0001
0010
,
0000
0000
1000
0000
0100
1000
0100
0000
,
0000
0010
0010
0100
,
1001
0000
0000
0000
,
1000
0100
0000
0100
,
0010
0001
0000
0001
,
0100
0010
0000
1000
,
0010
0100
1001
0000
,
0001
0100
0000
0100
,
0010
1000
0000
1000
,
0100
0010
0000
0001
,
0010
0100
1001
0000
,
0000
0000
0000
0000
;

//---------------dance-single - ----------------
#NOTES:
     dance-single:
     :
     Hard:
     9:
     :
0000
0000
0000
0000
,
0000
0000
0000
0000
,
0000
0000
0000
0000
,
0000
0000
0000
0000
,
0000
0000
0000
0000
,
0000
0000
0000
0000
,
1000
0100
1000
0000
0001
0100
0001
0000
,
1000
0100
1000
0001
0100
0000
0100
0000
,
0001
0010
0010
0000
1000
0100
0100
0000
,
0001
0010
0100
1000
0001
0000
1000
0000
,
0001
0010
0001
0000
0100
0010
0100
0000
,
0010
1000
0010
0100
0001
0000
1000
0000
,
0001
0100
0100
0000
1000
0010
0010
0000
,
1000
0010
0100
0001
1000
0000
0100
0000
,
0020
0000
0031
0000
,
0100
0010
1000
0100
,
2000
0000
3010
0000
,
0100
0000
0010
0000
1000
0001
1000
0000
,
0020
0000
1030
0000
,
0100
0010
0001
0100
,
0002
0000
0013
0000
,
0100
0000
0010
0000
0001
1000
0001
0000
,
0000
0010
0001
0100
0010
1000
0001
0000
,
0001
1000
0010
0100
0001
0010
0000
0000
,
0000
0010
1000
0100
0010
0001
1000
0000
,
1000
0001
0010
0100
1000
0010
0000
0000
,
0000
0010
0001
0100
0010
1000
0001
0000
,
0001
1000
0010
0100
0001
0010
0000
0000
,
0000
0100
1000
0010
0100
0001
1000
0000
,
1000
0001
0100
0010
1001
0000
0000
0000
,
0100
0000
1000
0000
0000
0001
0100
0000
,
0010
1000
0001
0000
,
0100
0010
1000
0001
,
0010
0100
1001
0000
,
0000
0000
1000
0000
0001
0000
1000
0000
0001
0000
1000
0001
0000
0000
1000
0000
,
0001
0000
1000
0000
0001
0000
1000
0001
0000
0000
0000
0000
0000
0000
0000
0000
,
0000
0000
0010
0000
0100
0000
0010
0000
0100
0000
0010
0100
0000
0000
0010
0000
,
0100
0000
0010
0000
0100
0000
0010
0100
0000
0000
0000
0000
0000
0000
0000
0000
,
0000
0000
0001
0000
1000
0000
0001
0000
1000
0000
0001
0100
0000
0000
0001
0000
,
1000
0000
0001
0000
1000
0000
0001
0100
0000
0000
0000
0000
0000
0000
0000
0000
,
0000
0000
0100
0000
0010
0000
0100
0000
0010
0000
0100
0001
0000
0000
0100
0000
,
0010
0000
0100
0000
0010
0000
0100
0001
0000
0000
0000
0000
0000
0000
0000
0000
,
0000
0010
1000
0100
0010
0001
1000
0000
,
1000
0001
0010
0100
1000
0010
0000
0000
,
0000
0010
0001
0100
0010
1000
0001
0000
,
0001
1000
0010
0100
0001
0010
0000
0000
,
0000
0010
1000
0100
0010
0001
1000
0000
,
1000
0001
0010
0100
1000
0010
0000
0000
,
0000
0100
0001
0010
0100
1000
0001
0000
,
0001
1000
0100
0010
1001
0000
0000
0000
,
0100
0000
1000
0000
0000
0001
0100
0000
,
0010
1000
0001
0000
,
0100
0010
1000
0001
,
0010
0100
1001
0000
,
0100
0000
0001
0000
0000
1000
0100
0000
,
0010
0001
1000
0000
,
0100
0010
0001
1000
,
0010
0100
1001
0000
,
0000
0000
0000
0000
;

//---------------dance-single - ----------------
#NOTES:
     dance-single:
     :
     Challenge:
     14:
     :
0000
0000
0000
0000
,
0000
0000
0000
0000
,
0000
0000
0000
0000
,
0000
0000
0000
0000
,
0000
0000
0000
0000
,
0000
0000
0000
0000
,
0001
0000
0010
0100
1000
0000
0010
0100
0001
0000
1000
0000
0010
0000
0100
0000
,
0001
0000
0010
0000
0100
0000
1000
0001
0000
0000
0000
0000
0000
0000
0100
0010
,
0100
0000
0001
0000
1001
0000
0000
0000
0100
0000
1000
0000
1001
0000
0000
0010
,
0100
0000
0100
0000
0010
0000
1000
0001
0000
0000
0000
1000
0010
0000
0100
0001
,
0100
0000
0010
1000
0001
0000
0010
0001
1000
0000
0100
0000
0010
0000
0001
0000
,
0100
0010
0100
0000
0001
0000
1000
0100
0000
0000
0000
0000
0000
1000
0001
1000
,
0001
0000
0100
0000
1010
0000
0000
0000
1000
0000
0100
0000
0011
0000
0000
1000
,
0001
0000
0001
0000
0010
0000
0001
1000
0000
0000
0000
0010
0100
0000
0001
1000
,
0001
0000
0100
0010
1000
0000
0001
0000
0010
0000
0100
1000
0000
0000
0020
0000
,
0000
0000
1030
0100
0010
0000
0001
1000
0001
0000
0100
0010
0000
0000
0000
0000
,
1000
0000
0100
0010
0001
0000
0100
0001
1000
0000
1000
0000
2000
0000
0000
0000
,
3001
0000
0010
0001
0100
0000
0010
1000
0100
0000
0010
0000
0001
0000
0000
0000
,
1001
0000
0100
0000
1000
0000
0010
1000
0100
0000
0010
0000
0002
0000
0000
0000
,
0013
0000
0100
1000
0100
0000
1000
0001
1000
0000
0010
0000
0100
0000
0000
0000
,
0110
0000
0001
0000
1000
0010
0100
0010
1000
0000
0001
0000
0001
0000
0100
0010
,
1000
0000
0001
0000
0100
0000
0001
0010
0000
0000
0000
0100
1000
0000
0001
0100
,
0010
0000
1000
0000
0100
0000
1000
0000
0010
0000
0100
0000
0001
0000
0000
0010
,
0100
1000
0001
0000
0000
0000
0100
0000
0100
0000
0010
0100
0000
0000
0001
1000
,
0100
0010
0010
0001
1000
0100
0200
0000
,
0310
0000
0000
0001
1000
0000
0010
1000
0010
0100
0001
1000
0000
0001
0100
0010
,
1000
0000
0100
0000
0001
0000
0010
0000
0001
0000
1000
0000
0010
0000
0000
0100
,
0001
1000
0001
0000
0000
0000
0010
0000
0010
0000
0100
0010
0000
0000
0001
1000
,
0001
0100
0100
0010
1000
0100
0200
0000
,
0310
0000
0001
1000
0000
0000
0001
0100
0001
0010
0100
1000
0000
0010
1000
0001
,
0200
0000
0010
0000
0010
0000
1000
0000
1000
0000
0001
0000
0301
0100
0010
0000
,
1000
0002
0000
0000
0010
0000
0100
0000
0100
0000
1000
0000
1003
0000
0001
0010
,
0200
0000
0000
0000
1000
0000
0010
0000
0010
0000
0001
0000
0301
0100
1000
0000
,
0001
0000
0000
0010
0001
0000
0100
0000
1000
0000
0010
0100
0010
0000
1000
0001
,
0100
0000
0010
0000
0010
0000
1000
0000
1000
0000
0001
0100
0000
0000
0001
0000
,
0010
0000
0010
0000
0010
0000
0100
1000
0000
0000
0000
0000
0000
0000
0001
1000
,
0001
0000
0100
0000
0100
0000
1000
0000
1000
0000
0001
0100
0000
0000
0010
0000
,
0100
0000
0100
0000
0100
0000
0010
1000
0000
0000
0000
0001
0010
0000
0001
0100
,
0010
0000
1000
0000
1000
0000
0100
0000
0100
0000
1000
0001
0000
0000
0010
0000
,
0001
0000
0001
0000
0001
0000
0100
1000
0000
0000
0000
0000
0000
0000
0010
0100
,
0010
0000
1000
0000
1000
0000
0001
0000
0001
0000
1000
0100
0000
0000
0010
0000
,
0100
0000
0100
0000
0100
0000
1000
0001
0000
0000
1000
0100
0010
0000
0001
0100
,
0010
0000
1000
0000
0100
0000
1000
0000
0010
0000
0100
0000
0001
0000
0000
0010
,
0001
1000
0100
0000
0000
0000
1000
0010
1000
0000
0100
0010
0001
0000
0100
0010
,
1000
0001
0001
0010
0100
0100
0200
0000
,
1300
0001
0010
0001
1000
0000
0010
0100
0010
1000
0100
0010
0001
0100
0001
1000
,
0010
0000
1000
0000
0001
0000
0010
0000
0001
0000
0100
0000
1000
0000
0000
0001
,
0010
0100
1000
0000
0000
0000
0001
0010
0001
0000
0010
0100
1000
0000
0010
0100
,
0010
1000
1000
0100
0001
0001
0002
0000
,
0013
0000
0001
1000
0001
0000
0100
0010
1000
0000
0100
0010
0002
0000
0000
0000
,
2003
0000
0000
0000
0010
0000
0010
0000
0010
0000
0100
0000
3001
1000
0100
0000
,
0010
0002
0000
0000
0100
0000
0010
0000
0010
0000
1000
0000
1003
0000
0001
0100
,
0020
0000
0000
0000
0100
0000
0001
0000
0001
0000
0000
0000
1030
0010
0100
0000
,
0001
0000
0010
0100
1000
0000
0010
0100
0010
1000
0100
0010
0001
0100
0001
1000
,
0100
0000
0000
0010
0001
0000
0100
0000
1000
0000
0001
0000
1000
0010
0100
0000
,
0001
1000
0100
0010
0000
0000
0001
0100
0001
0000
1000
0000
1000
0000
0010
0100
,
0010
1000
0100
0001
0000
0000
1000
0010
1000
0000
0001
0000
0001
0100
0010
0000
,
1000
0100
0010
0001
0000
0000
0100
0010
1000
0000
1001
0000
0110
0000
0001
1000
;

//---------------dance-double - ----------------
#NOTES:
     dance-double:
     :
     Easy:
     5:
     :
00000000
00000000
00000000
00000000
,
00000000
00000000
00000000
00000000
,
00000000
00000000
00000000
00000000
,
00000000
00000000
00000000
00000000
,
00000000
00000000
00000000
00000000
,
00000000
00000000
00000000
00000000
,
10000000
00000000
00010000
00000000
,
00010000
00001000
00000100
00000000
,
00000010
00000000
00000100
00000000
,
00001000
00010000
10000000
00000000
,
00010000
00000000
01000000
00000000
,
00010000
00001000
00000010
00000000
,
00000100
00000000
00000010
00000000
,
00001000
00100000
01000000
00000000
,
00020000
00000000
10030000
00000000
,
01000000
01000000
01000000
00000000
,
00200000
00000000
00301000
00000000
,
00000010
00000010
00000010
00000000
,
00000002
00000000
00000103
00000000
,
00001000
00001000
00001000
00000000
,
02000000
00000000
03100000
00000000
,
10000000
00010000
10010000
00000000
,
00000000
00010000
00000000
00100000
,
00001000
00010000
00000100
00000010
,
00000000
00000001
00001000
00000010
,
00000000
00001000
00010000
01000000
,
00000000
00010000
00000000
01000000
,
00001000
00010000
00000010
00000100
,
00000000
00000001
00000100
00001000
,
00011000
00000000
00000000
00000000
,
10000000
01000000
00000000
00010000
,
00000000
00000100
00000000
00000001
,
00000100
00001000
00000000
00010000
,
00000000
01000000
00100000
00000000
,
00010000
10000000
00010000
01000000
,
00001000
00100000
00001000
00000000
,
00010000
00001000
00010000
00000100
,
00000010
00000001
00000010
00000000
,
00001000
00000001
00001000
00000100
,
00010000
00000010
00010000
00000000
,
00001000
00010000
00001000
01000000
,
00100000
10000000
00100000
00000000
,
00000000
00001000
00000000
00000010
,
00010000
00001000
01000000
00100000
,
00000000
10000000
00010000
00100000
,
00000000
00010000
00001000
00000100
,
00000000
00001000
00000000
00000100
,
00010000
00001000
00100000
01000000
,
00000000
10000000
01000000
00010000
,
00011000
00000000
00000000
00000000
,
10000000
01000000
00000000
00010000
,
00000000
00000100
00000000
00000001
,
00000100
00001000
00000000
00010000
,
00000000
01000000
00100000
00000000
,
10000000
00100000
00000000
00010000
,
00000000
00000010
00000000
00000001
,
00000010
00001000
00000000
00010000
,
00000000
00100000
01000000
10010000
,
00000000
00000000
00000000
00000000
;

//---------------dance-double - ----------------
#NOTES:
     dance-double:
     :
     Medium:
     6:
     :
00000000
00000000
00000000
00000000
,
00000000
00000000
00000000
00000000
,
00000000
00000000
00000000
00000000
,
00000000
00000000
00000000
00000000
,
00000000
00000000
00000000
00000000
,
00000000
00000000
00000000
00000000
,
00000001
00001000
00000100
00010000
,
00001000
00000000
00001000
01000000
00100000
00000000
00000000
00000000
,
10000000
01000000
00100000
00000000
00001000
00000000
00010000
00000000
,
00001000
00000000
01000000
01000000
00100000
00000000
00000000
00000000
,
10000000
00010000
00100000
00001000
,
00010000
00000000
00010000
00000010
00000100
00000000
00000000
00000000
,
00000001
00000010
00000100
00000000
00010000
00000000
00001000
00000000
,
00010000
00000000
00000010
00000010
00000100
00000000
00000000
00000000
,
00000002
00001000
00000003
00001000
,
00010000
00000000
01000000
00100000
,
02000000
00010000
03000000
00010000
,
00001000
00000000
00000000
00000000
00000001
00001000
00000100
00000000
,
00000002
00000100
00000003
00000100
,
00001000
00010000
01000000
00100000
,
02000000
00010000
13000000
00010000
,
00001000
00000100
00001001
00000000
,
00000100
00001000
00010000
00100000
,
01000000
00000000
00100000
00000000
00010000
00100000
00010000
00000000
,
01000000
00000000
00010000
00000000
00001000
00000010
00000010
00000000
,
00000100
00000000
00000010
00001000
00001000
00000000
00000000
00000000
,
00000010
00001000
00010000
01000000
,
00100000
00000000
01000000
00000000
00010000
01000000
00010000
00000000
,
01000000
00000000
01000000
00010000
00001000
00000000
00000001
00000000
,
00001001
00000000
00000000
00000000
,
00000001
00000100
00000000
00001000
,
00010000
00001000
00000000
01000000
,
10000000
01000000
00000000
00010000
,
00001000
00010000
00011000
00000000
,
00001000
00010000
00000100
00000000
00010000
00000000
00001000
00000000
,
00010000
00001000
01000000
00000000
00001000
00000000
00000000
00000000
,
00100000
01000000
00010000
00000000
00001000
00000000
00010000
00000000
,
00001000
00000010
00000100
00000000
00001000
00000000
00000000
00000000
,
00010000
00001000
01000000
00000000
00001000
00000000
00010000
00000000
,
00001000
00010000
00000100
00000000
00010000
00000000
00000000
00000000
,
00000010
00000100
00001000
00000000
00010000
00000000
00001000
00000000
,
00010000
00100000
01000000
00000000
00010000
00000000
00000000
00000000
,
01000000
00010000
00001000
00000010
,
00000100
00000000
00000010
00000000
00001000
00000010
00001000
00000000
,
00000100
00000000
00001000
00000000
00010000
00100000
00100000
00000000
,
01000000
00000000
00100000
00010000
00010000
00000000
00000000
00000000
,
00100000
00010000
00001000
00000100
,
00000010
00000000
00000100
00000000
00001000
00000100
00001000
00000000
,
00000100
00000000
00000100
00001000
00010000
00000000
10000000
00000000
,
10010000
00000000
00000000
00000000
,
10000000
01000000
00000000
00010000
,
00001000
00010000
00000000
00000100
,
00000001
00000100
00000000
00001000
,
00010000
00001000
00011000
00000000
,
00000001
00000100
00000000
00001000
,
00010000
00001000
00000000
01000000
,
10000000
01000000
00000000
00010000
,
00001000
00010000
00011000
00000000
,
00000000
00000000
00000000
00000000
;

//---------------dance-double - ----------------
#NOTES:
     dance-double:
     :
     Hard:
     10:
     :
00000000
00000000
00000000
00000000
,
00000000
00000000
00000000
00000000
,
00000000
00000000
00000000
00000000
,
00000000
00000000
00000000
00000000
,
00000000
00000000
00000000
00000000
,
00000000
00000000
00000000
00000000
,
00000001
00000100
00000001
00001000
00000000
00000100
00001000
00000000
,
00010000
01000000
00100000
10000000
01000000
00000000
01000000
00000000
,
00010000
00001000
00001000
00000000
00000010
00000001
00000001
00000000
,
00000100
00000010
00001000
00100000
01000000
00000000
01000000
00000000
,
00100000
10000000
00010000
10000000
00000000
01000000
00010000
00000000
,
00001000
00000100
00000001
00000010
00000100
00000000
00000100
00000000
,
00001000
00010000
00010000
00000000
01000000
10000000
10000000
00000000
,
00100000
01000000
00010000
00000010
00000100
00000000
00000100
00000000
,
00002000
00000010
00000000
00000100
00003000
00000010
00000100
00000000
,
00001000
00010000
01000000
10000000
,
00200000
01000000
00000000
10000000
00300000
01000000
00010000
00000000
,
00001000
00000000
00000010
00000000
00000100
00000001
00001000
00000000
,
00020000
00100000
00000000
10000000
00030000
00100000
00010000
00000000
,
00000010
00000100
00001000
00000001
,
00000200
00001000
00000000
00000001
00000300
00000010
00001000
00000000
,
00010000
00010000
01000000
01000000
00010000
00001000
00000001
00000000
,
00000100
00001000
00010000
00100000
01000000
00010000
00001000
00000000
,
00000010
00001000
00010000
01000000
00100000
00010000
00001000
00000000
,
00000001
00000010
00000001
00000000
00001000
00000001
00000100
00000000
,
00001000
00010000
01000000
10000000
00010000
00000000
00000000
00000000
,
01000000
00010000
00001000
00000010
00000100
00001000
00010000
00000000
,
00100000
00010000
00001000
00000100
00000010
00001000
00010000
00000000
,
10000000
00100000
10000000
00100000
01000000
00000000
01000000
00000000
,
00010000
00001000
00000010
00000100
00001001
00000000
00000000
00000000
,
00000100
00000000
00010000
00000000
00000000
00100000
01000000
00000000
,
00010000
00001000
00000001
00000000
,
00000100
00000010
00001000
01000000
,
00100000
01000000
10010000
00000000
,
00000000
00000000
10000000
00000000
01000000
00000000
00010000
00000000
00001000
00000000
00000100
00000001
00000000
00000000
00000001
00000000
,
00000100
00000000
00001000
00000000
00010000
00000000
01000000
10000000
00000000
00000000
00000000
00000000
00000000
00000000
00000000
00000000
,
00000000
00000000
00010000
00000000
00001000
00000000
00100000
00000000
00001000
00000000
01000000
00001000
00000000
00000000
00010000
00000000
,
00001000
00000000
00010000
00000000
00000010
00000000
00010000
00001000
00000000
00000000
00000000
00000000
00000000
00000000
00000000
00000000
,
00000000
00000000
00000001
00000000
00000100
00000000
00001000
00000000
00010000
00000000
01000000
10000000
00000000
00000000
10000000
00000000
,
01000000
00000000
00010000
00000000
00001000
00000000
00000100
00000001
00000000
00000000
00000000
00000000
00000000
00000000
00000000
00000000
,
00000000
00000000
00001000
00000000
00010000
00000000
00000010
00000000
00010000
00000000
00000100
00010000
00000000
00000000
00001000
00000000
,
00010000
00000000
00001000
00000000
00100000
00000000
00001000
00010000
00000000
00000000
00000000
00000000
00000000
00000000
00000000
00000000
,
00000010
00001000
00010000
01000000
00100000
00010000
00001000
00000000
,
00000100
00001000
00010000
00100000
01000000
00010000
00001000
00000000
,
00000001
00000100
00000001
00000000
00001000
00000001
00000010
00000000
,
00001000
00010000
00100000
10000000
00010000
00000000
00000000
00000000
,
00100000
00010000
00001000
00000100
00000010
00001000
00010000
00000000
,
01000000
00010000
00001000
00000010
00000100
00001000
00010000
00000000
,
10000000
01000000
10000000
01000000
00100000
00000000
00100000
00000000
,
00010000
00001000
00000100
00000010
00001001
00000000
00000000
00000000
,
00000100
00000000
00010000
00000000
00000000
00100000
01000000
00000000
,
00010000
00001000
00000001
00000000
,
00000100
00000010
00001000
01000000
,
00100000
01000000
10010000
00000000
,
01000000
00000000
00001000
00000000
00000000
00000010
00000100
00000000
,
00001000
00010000
10000000
00000000
,
01000000
00100000
00010000
00000100
,
00000010
00000100
00000110
00001001
,
00000000
00000000
00000000
00000000
;
