#TITLE:Blown My Heart Away;
#SUBTITLE:;
#ARTIST:good-cool feat. Jeff Coote;
#TITLETRANSLIT:;
#SUBTITLETRANSLIT:;
#ARTISTTRANSLIT:;
#GENRE:;
#CREDIT:;
#BANNER:Blown My Heart Away-bn.png;
#BACKGROUND:Blown My Heart Away-bg.png;
#LYRICSPATH:;
#CDTITLE:;
#MUSIC:Blown My Heart Away.ogg;
#OFFSET:1.452000;
#SAMPLESTART:23.709000;
#SAMPLELENGTH:20.000000;
#LASTBEATHINT:0.917600;
#SELECTABLE:YES;
#DISPLAYBPM:124.000000;
#BPMS:0.000000=124.000000
;
#STOPS:
;
#BGCHANGES:;
#KEYSOUNDS:;
#ATTACKS:;

//---------------dance-single - ----------------
#NOTES:
     dance-single:
     :
     Hard:
     14:
     0.591738,0.613896,0.378198,0.216113,0.400710,460.000000,418.000000,42.000000,24.000000,0.000000,0.000000,0.591738,0.613896,0.378198,0.216113,0.400710,460.000000,418.000000,42.000000,24.000000,0.000000,0.000000:
0000
0000
0000
0000
,
0000
0000
0000
0000
,
0000
0000
0000
0000
,
0000
0000
0000
0000
,
0000
0000
0000
0000
,
0001
0010
1001
0100
0000
0010
0000
1000
,
0001
0010
0001
0100
0001
1000
0001
0100
,
0010
1000
0100
0010
0000
0001
0000
1000
,
0000
0000
0001
1000
0001
0000
0200
0000
0000
0000
0310
0000
0110
0000
0100
0000
,
0001
1000
1001
0100
0000
0010
0000
0001
,
0100
0010
1000
0010
0100
0010
1000
0001
,
0010
0100
1000
0001
0000
0100
0000
0010
,
1000
0001
1000
0001
1000
0000
0100
0000
0010
0000
0001
0000
0100
0010
0100
0010
,
0100
0001
1010
0200
0000
0301
0010
1000
,
0100
0010
0001
0100
0001
0010
1000
0000
,
0100
0010
0001
1000
0000
0001
0000
0100
,
1010
0000
0000
0101
0000
0000
1100
0000
0000
0010
0001
0000
1001
0000
0000
0000
,
0100
0010
1001
0100
0001
0010
0100
1000
,
0000
0010
1000
0002
0000
1003
0000
0010
,
0102
0000
1003
0001
0010
0100
1000
0001
,
0011
0000
0000
1100
0000
0000
0101
0000
0000
0010
1000
0000
0001
1000
0001
0000
,
0120
0000
1030
0001
0010
0000
0001
0100
,
0002
0000
1000
0000
1003
0000
0010
0000
0000
0000
0100
0000
0001
1000
0001
0000
,
0012
0000
0103
1000
1010
0001
1000
0200
,
0010
0000
0000
1000
0000
0000
0310
0000
0001
0100
0001
0000
1000
0010
1000
0000
,
2001
0000
3010
0100
0001
0000
0010
0100
,
2000
0000
0010
0000
3010
0000
0100
0000
0000
0000
0001
0000
1000
0100
1000
0000
,
1200
0000
0310
0001
0101
0010
1000
0001
,
0100
0010
0000
0100
0000
0001
1000
0000
0000
0010
1000
0000
0001
0100
0001
0100
,
0001
1000
0110
0001
0000
0010
1100
0000
,
0001
0000
0010
0000
0001
0000
1000
0000
0010
0100
0010
0000
0101
0000
1000
0000
,
0001
0000
0010
0001
0000
0001
1000
0000
0000
0000
0010
0000
1010
0000
0001
0000
,
0101
0000
0000
0110
0000
0000
0101
0000
0000
1000
0001
0000
1000
0000
0010
0100
,
0010
1000
1001
0100
0001
0010
0110
1000
,
0000
0000
0001
0000
0100
0000
0001
0000
1000
0100
1000
0000
1001
0000
0010
0000
,
0100
0000
0001
1000
0000
1000
0100
0000
0010
0001
0000
0001
0100
0000
0010
0000
,
1010
0000
0000
0101
0000
0000
0011
0000
0000
1000
0001
0000
1000
0010
1000
0010
,
1000
0000
0000
0000
0110
0000
0001
0000
0001
0000
0000
0000
0000
1000
0000
0010
,
0000
0000
0000
0000
0000
0000
0000
0000
0000
0000
0000
0000
1000
0000
0000
0000
0000
0000
0000
0000
0000
0000
0000
0000
0000
0000
0000
0000
0000
0000
0000
0000
0000
0000
0000
0000
0001
0000
0000
0000
0000
0000
0000
0000
0000
0000
0000
0000
0000
0000
0000
0000
0000
0000
1000
0000
0000
0000
0000
0000
0000
0000
0000
0000
0000
0000
0100
0000
0000
0000
0000
0000
0000
0000
0000
0000
0000
0000
0010
0000
0000
0000
0000
0000
0000
0000
0000
0000
0000
0000
0000
0000
0000
0000
0000
0000
0000
0000
0000
0000
0000
0000
0000
0000
0001
0000
0000
0000
0000
0000
0000
0000
0000
0000
0000
0000
1000
0000
0000
0000
0000
0000
0000
0000
0000
0000
0000
0000
0000
0000
0000
0000
0000
0000
0000
0000
0000
0000
0000
0000
0000
0000
0000
0000
0010
0000
0000
0000
0000
0000
0000
0000
0000
0000
0000
0000
0100
0000
0000
0000
0000
0000
0000
0000
0000
0000
0000
0000
0010
0000
0000
0000
0000
0000
0000
0000
0000
0000
0000
0000
0100
0000
0000
0000
0000
0000
0000
0000
0000
0000
0000
0000
,
0010
0000
0000
0000
0000
0000
0000
0000
1010
0000
0000
0000
0100
0000
0000
0000
0100
0000
0000
0000
0001
0000
1000
0000
0010
0000
1000
0000
0001
0000
0000
1000
,
0000
0100
0000
0000
0010
0000
0100
0000
0000
1000
0001
1000
0001
1000
0001
1000
,
0001
0010
1001
0100
0010
1000
0001
1000
,
0100
0000
0010
0000
0001
0000
0100
0000
0001
0000
0010
0000
1000
0001
0100
0000
,
0010
1000
0010
0100
0001
0010
0001
1000
,
0100
0000
0010
0000
0001
0000
2000
0000
0000
0010
0000
3010
1000
0000
0001
0100
,
0001
1000
0010
1000
0100
0010
0001
0100
,
0001
0000
0010
0000
0001
0000
0100
0000
0010
0000
1000
0000
0100
0010
0001
0000
,
0102
0000
0000
0000
1003
0000
1100
0000
0010
0000
0001
0000
0100
0000
0010
1000
,
0001
0000
0010
0100
0000
0100
1000
0000
0000
0001
0100
0010
0100
0001
1000
0100
,
0020
0000
0000
0000
0031
0000
0100
0000
1000
0000
0000
0000
0010
1000
0001
0000
,
0100
0000
0001
0010
0001
0000
1000
0000
0000
0010
1000
0000
0001
1000
0100
0000
,
1000
0000
0010
0100
0001
0000
1000
0000
0002
0000
0000
0023
0000
0000
0230
0000
,
2000
0300
0000
3002
0000
0000
2003
0000
0200
3000
0000
0000
0310
0001
0010
0001
,
2000
0000
0100
0000
3100
0000
1001
0000
0000
1000
0001
0000
0010
0100
1000
0000
,
0001
0000
0100
0010
0100
0000
0102
0000
0000
0000
1003
0000
0100
0010
0001
0000
,
1000
0010
0100
0000
0001
1000
0000
0001
0010
0000
0100
1000
0000
0001
0100
0000
,
1010
0000
0000
0101
0000
0000
0012
0000
0000
1000
0000
1003
0001
0100
0000
0000
;

//---------------dance-single - ----------------
#NOTES:
     dance-single:
     :
     Medium:
     10:
     0.428367,0.459916,0.252132,0.162085,0.103554,333.000000,305.000000,28.000000,18.000000,0.000000,0.000000,0.428367,0.459916,0.252132,0.162085,0.103554,333.000000,305.000000,28.000000,18.000000,0.000000,0.000000:
0000
0000
0000
0000
,
0000
0000
0000
0000
,
0000
0000
0000
0000
,
0000
0000
0000
0000
,
0000
0000
0000
0000
,
0001
0100
0010
1000
0000
1000
0000
0100
,
0000
0010
0000
0001
0000
1000
0001
0000
,
0001
1000
0100
1000
0000
0010
0000
0100
,
0000
0001
0000
0100
0000
0000
0110
0000
,
1000
0001
0100
0001
0000
0010
0000
0100
,
0000
1000
0000
1000
0000
0001
0000
0100
,
0001
0010
0001
1000
0000
1000
0000
0010
,
0000
0000
1000
0000
0000
0000
0100
0010
0100
0000
0000
0000
0000
0000
0000
0000
,
1000
0001
0100
0010
0000
0100
0000
0010
,
0000
1000
0000
0001
0000
0010
0100
0000
,
0100
1000
0001
0100
0000
0010
0000
1000
,
1100
0000
0000
0101
0000
0000
1100
0000
0000
1001
0000
0000
1001
0000
0000
0000
,
0010
1000
0100
0010
0000
0001
0000
0100
,
0000
0010
0000
0100
0000
0001
0000
1000
,
2010
0000
3001
0201
0000
0000
0310
1000
,
0100
0000
0000
0010
0000
0000
0001
0000
0000
0000
0000
0000
1000
0000
0001
0000
,
0020
0000
0031
0100
0000
0000
0010
1000
,
0002
0000
1003
0100
0000
1000
0001
1000
,
1020
0000
0130
0102
0000
0000
0013
0100
,
1000
0000
0000
0001
0000
0000
1000
0000
0000
0010
0100
0000
0001
0000
1000
0000
,
0200
0000
0310
0001
0000
0000
0100
0010
,
2000
0000
3001
1000
0000
0010
0100
0001
,
0012
0000
1003
1200
0000
0000
0310
0001
,
1000
0000
0000
0001
0000
0000
1000
0000
0000
0010
0100
0000
0001
0000
1000
0000
,
0100
0010
0001
1000
0000
0001
0101
0000
,
0010
1000
0010
0100
0001
1000
1001
0000
,
0010
1000
0010
0100
0000
0001
0010
0100
,
1100
0000
0000
0101
0000
0000
1100
0000
0000
0000
0010
0000
0110
0000
0000
0000
,
0100
0001
1000
0001
0000
0010
0100
1000
,
0000
0010
1000
0001
1000
0100
0110
0000
,
0010
0001
0010
0100
0000
1000
1001
0000
,
0010
0000
0000
1000
0000
0000
0001
0000
0000
0000
0000
0000
1000
0100
1000
0100
,
1000
0000
0101
0010
0010
0000
1000
0100
,
1000
0010
0100
0001
0010
0100
1000
0001
,
0100
0000
1010
0001
0001
0000
0010
0001
,
1000
0000
0100
0000
0001
0000
0100
0000
0000
0000
1000
0000
0010
0100
0010
0100
,
0010
1000
0100
0010
0001
0100
0001
0010
,
0001
1000
0001
0010
0000
0010
0100
1000
,
0001
0100
0010
1000
0100
1000
0001
0100
,
0010
1000
0001
1000
0000
0000
0000
0000
,
0010
1000
0100
0010
0001
0100
0001
1000
,
0100
0010
0100
1000
0010
0100
0001
0000
,
0012
0000
1003
1200
0000
0000
0310
0001
,
1000
0000
0000
0010
0000
0000
1000
0000
0000
0001
0000
0000
0100
0010
0100
0000
,
0002
0000
1000
1003
0000
0000
0010
0100
,
0002
0000
1000
1003
0000
0100
0010
0001
,
0201
0000
0000
0000
0310
0000
1000
0000
0100
0000
0000
0010
0000
0000
0001
0000
,
1000
0000
0000
0001
0000
0000
1000
0000
0200
0000
0000
0000
0310
0000
0001
0000
,
2000
0000
3001
0100
0010
0000
1000
0100
,
0020
0000
0031
1000
0000
0010
0100
0000
,
0001
0000
0010
0000
0000
0001
0000
0000
0100
0000
0000
0010
0000
0000
1000
0000
,
1100
0000
0000
0101
0000
0000
1100
0000
0000
0001
0000
0000
1000
0000
0000
0000
;

//---------------dance-single - ----------------
#NOTES:
     dance-single:
     :
     Easy:
     7:
     0.306160,0.332161,0.306160,0.108057,0.000000,238.000000,204.000000,34.000000,12.000000,0.000000,0.000000,0.306160,0.332161,0.306160,0.108057,0.000000,238.000000,204.000000,34.000000,12.000000,0.000000,0.000000:
0000
0000
0000
0000
,
0000
0000
0000
0000
,
0000
0000
0000
0000
,
0000
0000
0000
0000
,
0000
0000
0000
0000
,
0001
1001
0010
1000
,
0100
0010
0001
1000
,
0001
0010
0001
0100
,
0010
1000
0100
0110
,
0001
1001
0010
0001
,
0100
0010
1000
0100
,
1000
0001
0010
0100
,
0010
0001
1000
0000
,
1001
0100
0001
0010
,
0001
0100
0010
1000
,
0100
0010
0100
1000
,
1100
0101
0010
1001
,
0100
1001
0010
1000
,
0100
1000
0010
0100
,
0101
0010
1100
0001
,
1001
0110
1000
0001
,
0200
0010
1000
0310
,
0002
0010
1000
0013
,
0101
0010
1100
0010
,
1001
0100
0001
1000
,
1200
0001
0010
1300
,
0002
0100
0010
0103
,
0101
0010
1100
0010
,
0110
0001
1000
0100
,
0010
1001
0100
0001
,
0010
0001
1000
0020
,
1030
0100
0001
0110
,
1000
0010
0100
1001
,
0010
1001
1000
0110
,
0001
0010
1000
0200
,
0310
0100
1000
0110
,
0010
1000
0100
0001
,
0101
0010
1000
0000
,
0001
0010
0100
0000
,
1000
0110
0000
0001
,
0100
0100
0100
0010
,
1000
0101
0010
1000
,
0100
0010
0001
0100
,
0001
0010
0001
1000
,
1100
0101
0010
0100
,
0001
0010
0001
0100
,
1000
0010
0001
1000
,
0101
1000
1100
0001
,
1001
0010
0100
0001
,
2000
0010
0001
3010
,
0002
0010
0100
1003
,
0020
1000
0001
1000
,
0001
0100
0130
0010
,
2000
0001
0100
3010
,
0002
0010
1000
0103
,
0010
1000
0100
0010
,
0001
2000
3010
1001
;

//---------------dance-single - ----------------
#NOTES:
     dance-single:
     :
     Beginner:
     3:
     0.131211,0.178856,0.018009,0.072038,0.000000,102.000000,100.000000,2.000000,8.000000,0.000000,0.000000,0.131211,0.178856,0.018009,0.072038,0.000000,102.000000,100.000000,2.000000,8.000000,0.000000,0.000000:
// measure 0
0000
0000
0000
0000
,  // measure 1
0000
0000
0000
0000
,  // measure 2
0000
0000
0000
0000
,  // measure 3
0000
0000
0000
0000
,  // measure 4
0000
0000
0000
0000
,  // measure 5
0001
0000
1000
0000
,  // measure 6
0001
0000
0010
0000
,  // measure 7
0100
0000
1000
0000
,  // measure 8
0001
0000
0100
0000
,  // measure 9
0010
0000
1000
0000
,  // measure 10
0010
0000
0100
0000
,  // measure 11
0001
0000
0010
0000
,  // measure 12
0100
0000
1000
0000
,  // measure 13
0001
0000
0001
0000
,  // measure 14
1000
0000
1000
0000
,  // measure 15
0010
0000
1000
0000
,  // measure 16
0100
0100
0100
0000
,  // measure 17
1000
0000
0001
0000
,  // measure 18
1000
0000
0010
0000
,  // measure 19
0100
0000
0100
0000
,  // measure 20
0001
0000
0000
0000
,  // measure 21
0020
0000
0030
0000
,  // measure 22
0200
0000
0300
0000
,  // measure 23
1000
0000
0001
0000
,  // measure 24
1000
0000
0000
0010
,  // measure 25
0020
0000
0030
0000
,  // measure 26
0200
0000
0300
0000
,  // measure 27
0001
0000
1000
0000
,  // measure 28
0100
0000
0000
0010
,  // measure 29
0010
0000
0001
0000
,  // measure 30
1000
0000
0001
0000
,  // measure 31
0100
0000
0010
0000
,  // measure 32
1000
1000
1000
0000
,  // measure 33
0001
0000
0010
0000
,  // measure 34
0001
0000
0100
0000
,  // measure 35
0010
0000
1000
0000
,  // measure 36
0001
0001
0001
0000
,  // measure 37
1001
0000
0000
0000
,  // measure 38
0100
0100
0100
0000
,  // measure 39
0000
0110
0000
0100
,  // measure 40
0100
0100
0000
0000
,  // measure 41
1000
0000
0010
0000
,  // measure 42
1000
0000
0100
0000
,  // measure 43
0010
0000
0010
0000
,  // measure 44
0001
0001
0001
0000
,  // measure 45
0100
0000
0001
0000
,  // measure 46
0010
0000
0100
0000
,  // measure 47
1000
0000
1000
0000
,  // measure 48
0001
0000
0000
0100
,  // measure 49
0200
0000
0300
0000
,  // measure 50
0020
0000
0030
0000
,  // measure 51
2000
0000
3000
0000
,  // measure 52
0002
0000
0003
0000
,  // measure 53
0100
0100
0000
0000
,  // measure 54
0001
0001
0000
0000
,  // measure 55
1000
0000
0010
0000
,  // measure 56
1000
1000
0000
0001
;
