#TITLE:Block Rockin' Beats;
#ARTIST:The Chemical Brothers;
#BANNER:Block Rockin' Beats.png;
#BACKGROUND:Block Rockin' Beats-bg.png;
#JACKET:Block Rockin' Beats-jacket.png;
#MUSIC:Block Rockin' Beats.ogg;
#SAMPLESTART:17.391;
#SAMPLELENGTH:20;
#DISPLAYBPM:109;
#BPMS:0=117.647,4=109.4;
#BGCHANGES:7.75=Block Rockin' Beats.avi=1=1=0=0=StretchNoLoop==CrossFade==,
172=Block Rockin' Beats-bg.png=1=1=0=0=StretchNoLoop==CrossFade==,
;

//---------------dance-single - ----------------
#NOTES:
     dance-single:
     :
     Beginner:
     3:
     :
0000
0000
0000
0000
,
0000
0000
0000
0000
,
0000
0000
0000
0000
,
0000
0000
0000
0000
,
1001
0000
0000
0000
,
1000
0000
0000
0000
,
0001
0000
0000
0000
,
0010
0000
0000
0000
,
0100
0000
0000
0000
,
1000
1000
0000
0000
,
0010
0010
0000
0000
,
0100
0100
0000
0000
,
0001
0001
0001
0000
,
1000
1000
0000
0000
,
0001
0001
0000
0000
,
0010
0010
0000
0000
,
0100
0100
0100
0000
,
1001
0000
0000
0000
,
1000
0000
0000
0000
,
1001
0000
0000
0000
,
0001
0000
0000
0000
,
1000
1000
1000
0000
,
0001
0001
0001
0000
,
0100
0100
0100
0000
,
0010
0010
0010
0000
,
1000
0000
0100
0000
,
1000
0000
0100
0000
,
0010
0000
0001
0000
,
0010
0000
0001
0000
,
1000
0000
0000
0000
,
1000
0000
0001
0000
,
0001
0000
1000
0000
,
1000
0000
0000
0000
,
1000
0000
0001
0000
,
0100
0000
0100
0000
,
0001
0000
1000
0000
,
0100
0000
0000
0000
,
1001
0000
0000
0000
,
1001
0000
0000
0000
,
1001
0000
0000
0000
,
1001
0000
0000
0000
,
0001
0000
0001
0000
,
1000
1000
1000
0000
,
0001
0001
0001
0000
,
1001
0000
0000
0000
;

//---------------dance-single - ----------------
#NOTES:
     dance-single:
     :
     Easy:
     5:
     :
0000
0000
0000
0000
,
0000
0000
0000
0000
,
0000
0000
0000
0000
,
0000
0000
0000
0000
,
2000
0000
0000
3000
,
0100
0000
0010
0000
,
0001
0000
0100
0000
,
1000
0000
0010
0000
,
0002
0000
0000
0003
,
1000
1000
0001
0001
,
0002
0003
2000
3000
,
0010
0010
0100
0100
,
0200
0300
0020
0030
,
1000
1000
0100
0100
,
2000
3000
0200
0300
,
0001
0001
0100
0100
,
0002
0003
0200
0300
,
1000
0001
1000
0000
,
0010
0001
0010
0000
,
0001
1000
0001
0000
,
0100
1000
0100
1000
,
0100
0000
0010
0100
,
0010
0000
1000
0100
,
1000
0000
0001
0100
,
0001
0000
1000
0000
,
0001
0000
1000
0001
,
1000
0000
0010
0100
,
0010
0000
0001
0001
,
1000
1000
0001
1000
,
2001
0000
3010
0000
,
0120
0000
1030
0000
,
1002
0000
0013
0000
,
0200
0300
0020
0030
,
0001
0001
1000
1000
,
2000
3000
0002
0003
,
0100
0100
0010
0010
,
0020
0000
0000
0030
,
0100
0100
0001
0001
,
0002
0003
0200
0300
,
0010
0010
1000
1000
,
2000
3000
0020
0030
,
0010
0000
1000
0001
,
1001
0000
0010
0100
,
1001
0000
0001
1000
,
1001
0000
0000
0000
;

//---------------dance-single - ----------------
#NOTES:
     dance-single:
     :
     Medium:
     8:
     :
0000
0000
0000
0000
,
0000
0000
0000
0000
,
0000
0000
0000
0000
,
0000
0000
0000
0000
,
0010
0000
0001
0000
1000
0001
1000
0001
,
0100
0001
0100
0001
,
1000
0100
1000
0100
,
0010
0100
0010
0100
,
0001
0000
0010
0000
0100
0100
0100
1000
,
0001
1000
1000
0001
,
0001
0000
0100
0000
0001
0010
0001
0010
,
0100
0000
0100
0000
0100
0000
1000
0010
,
1000
0000
0001
0000
0100
0100
0001
0001
,
0100
0001
0100
1000
,
0100
0000
1000
0000
0100
1000
0100
1000
,
0100
0000
0010
0000
0001
0010
0001
0010
,
0001
0000
0100
0000
0010
0010
0010
0100
,
0110
0000
0000
0000
0010
1000
0100
0000
,
0010
0000
0100
0000
0010
0001
0100
0000
,
1001
0000
0000
0000
0001
0010
0001
0000
,
1000
0000
0100
0000
0010
0010
0010
0001
,
0100
0000
0010
0000
0100
1000
0010
0010
,
0100
0000
0001
0000
0010
0001
0010
0100
,
1000
0000
0010
0000
0010
0100
0010
0000
,
1000
0000
0001
0000
0010
0100
1000
0100
,
0010
0000
0100
0000
0010
0001
0010
0001
,
0100
0000
0010
0000
0100
0000
0010
1000
,
0100
0000
0100
0000
0001
0100
0001
0100
,
0010
0000
0001
0000
1000
0100
1000
0100
,
1001
0000
0100
0000
0001
1000
0100
1000
,
1001
0000
0001
0000
0001
1000
0100
1000
,
1100
0000
1000
0000
0001
0100
0001
0010
,
0100
0000
0010
0000
0001
0100
0010
1000
,
0100
0000
1000
0000
1000
0100
0010
0001
,
0001
0000
0100
0000
0001
0100
0010
0100
,
0001
0000
1000
0000
0100
1000
0100
1000
,
0001
0000
0010
0000
1000
1000
1000
0001
,
1001
0000
1100
0000
0100
1000
0100
1000
,
0010
0000
0100
0000
0001
0010
0001
0010
,
0011
0000
1000
0000
0001
1000
0001
1000
,
1001
0000
0010
1000
0001
0100
0010
1000
,
0001
0000
0100
0000
0010
0010
0010
0010
,
1000
0000
0001
0000
0010
0010
0010
0010
,
0001
0000
1000
0000
0100
0100
0100
0100
,
1001
0000
0000
0000
;

//---------------dance-single - ----------------
#NOTES:
     dance-single:
     :
     Hard:
     12:
     :
0000
0000
0000
0000
,
0000
0000
0000
0000
,
0000
0000
0000
0000
,
0000
0000
0000
0000
,
1000
0000
1100
0000
0100
1000
1000
0010
,
0100
0000
0000
0000
0001
0000
0000
0100
0000
0000
0010
0000
1000
0000
0010
0000
,
0100
0000
0000
0000
0001
0000
0000
1000
0000
0000
0100
0000
0001
0000
0100
0000
,
1000
0100
0000
1000
0100
0000
0010
0001
0000
0010
0001
0000
1000
0000
0001
0000
,
0100
0010
0000
0100
0010
0000
1000
0001
0000
1000
0001
0000
0010
0000
0100
0000
,
1000
0100
0000
0100
1000
0000
0010
0100
0000
0100
0010
0000
0100
0000
0001
0000
,
0010
0001
0000
0001
0010
0000
0100
0010
0000
0010
0100
0000
1000
0000
0001
0000
,
1000
0100
0000
0010
0001
0000
0100
0010
0000
1000
0100
0000
0010
0000
0100
0000
,
1000
0010
0000
0100
0001
0000
0010
0100
0000
1000
0001
0000
0100
0000
0010
0000
,
0100
0000
0000
0001
1000
0000
0000
0001
0000
0000
0100
0000
0010
0000
0100
0000
,
0010
0000
0000
1000
0001
0000
0000
1000
0000
0000
0010
0000
0100
0000
0010
0000
,
0100
0000
0000
0001
0010
0000
0000
0100
0000
0000
1000
0000
0001
0000
0100
0000
,
0001
1000
0000
0010
0100
0000
0001
0000
0010
0000
0100
0000
0010
0000
0001
0000
,
1000
0000
0000
0001
0100
0000
0000
0010
0000
1000
0010
0000
0100
0000
0100
0000
,
0001
0000
0000
1000
0100
0000
0000
0010
0000
0001
0010
0000
0100
0000
0100
0000
,
1100
0000
0000
0001
0100
0000
0000
0010
0000
1000
0010
0000
0100
0000
0100
0000
,
0010
0000
1000
0000
0010
0001
0100
1000
,
1100
0000
0000
0000
0010
0000
0000
0001
0000
0010
0001
0000
0100
0000
0010
0000
,
1000
0000
0000
0000
0010
0000
0000
1000
0000
0010
1000
0000
0100
0000
0010
0000
,
0001
0000
0000
0000
0100
0000
0000
0001
0000
0100
0001
0000
1000
0000
0001
0000
,
0010
0000
0000
0000
0100
0000
0000
1000
0000
0000
1000
0000
0100
0000
0010
0000
,
0001
0000
0000
0000
0100
0000
0000
0010
0000
0000
0000
0000
1010
0000
1000
0000
,
0100
0000
0000
0000
1000
0000
0000
0100
0000
0000
0000
0000
0011
0000
0001
0000
,
0100
0000
0000
0000
0001
0000
0000
0100
0000
0000
0000
0000
1010
0000
1000
0000
,
0100
0000
0000
0000
1000
0000
0000
0010
0000
0000
0100
0000
0001
0000
0100
0000
,
0210
0000
0000
0000
0301
0000
0100
0001
0000
0010
0100
0000
1000
0000
0100
0000
,
0210
0000
0000
0000
1300
0000
0100
1000
0000
0010
0100
0000
0001
0000
0100
0000
,
0210
0000
0000
0000
0301
0000
0100
0001
0000
0010
0100
0000
1000
0000
0100
0000
,
1000
0100
0000
0010
0001
0000
0100
0010
0100
0001
0100
0010
0100
0001
0100
0000
,
0010
1000
0000
0100
0010
0000
0001
0010
0000
0100
1000
0000
0010
0100
0010
0000
,
0100
0001
0000
0010
0100
0000
1000
0010
0000
1000
0100
0000
0010
0100
0010
0000
,
0010
0100
0000
1000
0010
0000
0100
0001
0000
0001
0100
0000
0010
0000
1000
0000
,
0110
0110
1001
0000
1001
0100
1000
0010
,
0101
0000
0000
1000
0100
0000
0000
0011
0000
0000
1100
0000
1000
0000
0100
0000
,
1000
0000
0000
0001
0100
0000
0000
1010
0000
0000
0101
0000
0001
0000
0100
0000
,
0001
0000
0000
1000
0100
0000
0000
1100
0000
0000
0011
0000
0010
0000
0001
0000
,
1000
0000
0100
0000
1000
0000
0100
0000
0010
0000
0001
0000
0010
0001
0010
0000
,
0001
0000
0000
0000
1000
0000
0000
0100
0000
0000
0010
0000
0001
0000
0010
0000
,
0110
0000
0000
0000
1000
0000
0000
0010
0000
0000
1000
0000
0010
0000
0100
0000
,
0110
0000
0000
0000
0001
0000
0000
0010
0000
0000
0001
0000
0010
0000
0100
0000
,
1001
0000
0000
0000
;

//---------------dance-single - ----------------
#NOTES:
     dance-single:
     :
     Challenge:
     16:
     :
0000
0000
0000
0000
,
0000
0000
0000
0000
,
0000
0000
0000
0000
,
0000
0000
0000
0000
,
0010
0000
0000
0000
1000
0000
0100
0000
1000
0001
1000
0001
1000
0000
0000
0000
0011
0000
0000
0000
0110
0000
0000
0000
1100
0000
0000
0000
1001
0000
0000
0000
,
0010
1000
0000
0010
1000
0000
0010
1000
0000
0010
1000
0000
0100
0100
0010
0000
,
0001
0100
0000
0001
0100
0000
0001
0100
0000
0001
0100
0000
0010
0010
1000
0000
,
0100
1000
0000
0100
1000
0000
0100
1000
0000
0100
1000
0000
0001
0001
0100
0000
,
0010
0000
0000
0000
1000
0000
0100
0000
1000
0001
1000
0001
1000
0000
0010
0100
0010
0000
1000
0000
0010
0000
0100
0000
0001
0000
0010
0000
0100
0000
1000
0000
,
0001
0010
0000
0010
1000
0000
0001
0100
0000
0100
1000
0000
0010
0100
0001
1000
,
0100
0010
0000
0010
0001
0000
1000
0001
0000
1000
0100
0000
1000
0010
0100
0001
,
1000
0100
0000
0100
0001
0000
1000
0010
0000
0010
0001
0000
1000
0001
0010
0100
,
1000
0000
0000
0000
0010
0000
0100
0000
0001
0010
0001
0010
0001
0000
1000
0100
1000
0000
0001
0000
0100
0000
0010
0000
1000
0000
0001
0000
0100
0000
0010
0000
,
1000
0100
0000
0010
0001
0000
0100
0110
0000
0010
0110
0000
1000
0001
0010
0100
,
1000
0001
0000
0010
0100
0000
1000
1001
0000
0001
1001
0000
0100
0010
1000
0001
,
0010
0001
0000
0001
0100
0000
0010
1010
0000
1000
1010
0000
0001
0100
0010
1000
,
0010
0000
0000
0000
1000
0000
0100
0000
0010
0001
0010
0001
0010
0000
0001
1000
0001
0000
0100
0000
0010
0000
0100
0000
0001
0000
0010
0000
0100
0000
1000
0000
,
1001
0000
0010
0100
0001
0000
1000
0100
0000
0100
1000
0010
0100
0000
0001
1000
,
0110
0000
0000
0000
0000
0000
1000
0000
0000
0010
0000
0000
0100
0000
0000
0000
0000
0000
0001
0000
0000
0010
0000
0000
0000
0000
0000
0010
0000
0000
0001
0000
0000
1000
0000
0000
0001
0000
0000
0000
0000
0000
1000
0000
0100
0000
0010
0000
,
0001
0000
0100
0001
0010
0000
0001
1000
0000
1000
0010
0100
0001
0000
1000
0100
,
0010
0000
0000
0000
0001
0000
1000
0000
0010
0100
0010
0100
0010
0000
1000
0001
1000
0000
0010
0000
0100
0000
0001
0000
0010
0000
0100
0000
1000
0000
0001
0000
,
0100
0001
0010
0001
0100
0000
0010
1000
0000
1000
0001
0000
0010
0100
0010
0001
,
0100
0010
1000
0010
0100
0000
0001
1000
0000
1000
0001
0000
0010
0001
1000
0100
,
1000
0010
0100
0010
1000
0000
0001
0010
0000
0001
1000
0000
0001
0010
0100
1000
,
0010
1000
0001
1000
0100
0000
0010
0001
0000
1000
0001
0000
1000
0010
0100
0001
,
0010
0100
1000
0010
1000
0000
0001
0100
0000
0100
0010
0000
1000
0001
0010
0001
,
0010
0100
0010
0100
1000
0000
0001
1000
0000
0001
0010
0000
0100
0010
0001
1000
,
0010
0100
0010
1000
0100
0000
0010
0001
0000
0001
1000
0000
0001
0010
0100
1000
,
0010
0000
0100
0000
1000
0000
0100
0000
0001
0000
0100
0000
1000
0000
0001
0100
0001
0000
0010
0000
1000
0000
0010
0000
0001
0000
0100
0000
1000
0000
0010
0000
,
0200
0010
0000
1000
1300
0000
0102
1000
0000
0100
0100
0000
1003
0010
0100
0001
,
0020
0100
0000
0001
0031
0000
2010
0100
0000
0001
0001
0000
3010
1000
0001
0100
,
0002
1000
0000
0100
0103
0000
0021
1000
0000
0001
0001
0000
0130
0010
0001
1000
,
0010
0000
0001
0000
0100
0000
0001
0000
0100
0000
1000
0000
0010
0001
0010
0100
0010
0000
1000
0000
0100
0000
0001
0000
1000
0000
0001
0000
1000
0000
0100
0000
,
0010
0001
0010
0100
1000
0000
0010
1000
0100
0010
0001
0000
0100
0001
0010
1000
,
0010
0001
0100
0010
1000
0000
0001
1000
0100
0010
0001
0000
1000
0010
1000
0001
,
1000
0100
0010
0100
0001
0000
0010
0100
0010
0001
1000
0000
0010
0100
0001
1000
,
0010
0000
0000
0000
1000
0000
0100
0000
1000
0001
1000
0001
1000
0000
0000
0000
0011
0000
0000
0000
0110
0000
0000
0000
1100
0000
0000
0000
1001
0000
0000
0000
,
0110
1000
0010
0100
0001
0000
0010
0001
0000
1000
0100
0001
0100
0010
0100
1000
,
0010
1000
0001
0100
0010
0000
1000
0001
0000
0010
0100
1000
0100
0001
0100
0010
,
0100
0001
0010
0001
1000
0000
0100
0010
0000
1000
0100
0010
0100
1000
0100
0001
,
0100
1000
0001
1000
0001
0000
0100
0010
0000
1000
0100
0010
0001
0010
0100
1000
,
0010
0100
0010
1000
0100
0010
0001
1000
0000
0010
0100
0010
0100
1000
0100
0001
,
0010
0100
0010
0001
0100
0010
0100
1000
0000
0010
0100
1000
0100
0001
0100
0010
,
1000
0100
0010
0001
0100
0010
0100
0001
0000
0010
0100
0001
0100
0010
0100
1000
,
0001
0000
0000
0000
;

//---------------dance-double - ----------------
#NOTES:
     dance-double:
     :
     Easy:
     6:
     :
00000000
00000000
00000000
00000000
,
00000000
00000000
00000000
00000000
,
00000000
00000000
00000000
00000000
,
00000000
00000000
00000000
00000000
,
00000001
00000000
00001000
00000000
,
00010000
00000000
00000000
00000000
,
10000000
00000000
00010000
00000000
,
00001000
00000000
00000000
00000000
,
00000001
00000000
00001000
00000000
,
00000001
00000100
00000001
00000100
,
00001000
00010000
00001000
00010000
,
01000000
10000000
01000000
10000000
,
01000000
00000000
10000000
00000000
,
01000000
00010000
01000000
00010000
,
00001000
00000100
00001000
00000100
,
00000001
00000010
00000001
00000010
,
00000001
00000000
00000010
00000000
,
00001001
00000000
00000100
00000100
,
00001000
00001000
00010000
01000000
,
10010000
00000000
10000000
10000000
,
00010000
00000000
10000000
00000000
,
10000000
01000000
10000000
01000000
,
00010000
00001000
00010000
00001000
,
00000100
00000001
00000100
00000001
,
00000100
00000000
00000001
00000000
,
00000100
00001000
00000100
00001000
,
00010000
01000000
00010000
01000000
,
10000000
00010000
10000000
00010000
,
10000000
00000000
00010000
00000000
,
10000000
01000000
10000000
00000000
,
00010000
00001000
00010000
00000000
,
00000100
00000001
00000100
00000000
,
00001000
00010000
00001000
00000000
,
10000000
01000000
10000000
01000000
,
00010000
00001000
00010000
00001000
,
00000100
00000001
00000100
00000001
,
00002002
00000000
00000000
00003003
,
00000001
00000100
00000001
00000100
,
00001000
00010000
00001000
00010000
,
01000000
10000000
01000000
10000000
,
01000000
00000000
10000000
00000000
,
01000000
00010000
01000000
00010000
,
00001000
00010000
00001000
00010000
,
00000100
00001000
00000100
00001000
,
00011000
00000000
00000000
00000000
;

//---------------dance-double - ----------------
#NOTES:
     dance-double:
     :
     Medium:
     8:
     :
00000000
00000000
00000000
00000000
,
00000000
00000000
00000000
00000000
,
00000000
00000000
00000000
00000000
,
00000000
00000000
00000000
00000000
,
00100000
00000000
00010000
00000000
10000000
01000000
10000000
00010000
,
01000000
00001000
00010000
00001000
,
00000010
00000001
00000100
00001000
,
00010000
00001000
01000000
00010000
,
00100000
00000000
01000000
00000000
10000000
10000000
10000000
00010000
,
01000000
00001000
00010000
00000100
,
00001000
00000000
00000010
00000000
00001000
00000100
00000001
00000100
,
00001000
00000000
00000100
00000000
00010000
00000000
00001000
00010000
,
01000000
00000000
10000000
00000000
01000000
01000000
00100000
00100000
,
01000000
00010000
10000000
01000000
,
00010000
00000000
00001000
00000000
00010000
00001000
00010000
00001000
,
00010000
00000000
00000010
00000000
00000100
00000001
00000100
00000001
,
00000100
00000000
00000010
00000000
00001000
00000100
00001000
00000100
,
00010100
00000000
00000000
00000000
00001000
00010000
00100000
00000000
,
10000000
00000000
01000000
00000000
00100000
00010000
01000000
00000000
,
10010000
00000000
00000000
00000000
01000000
00010000
00001000
00000000
,
00000100
00000000
00000010
00000000
00001000
00001000
00001000
00000000
,
00000100
00000000
00000010
00000000
00000100
00001000
00000010
00000010
,
00000100
00000000
00000001
00000000
00000100
00001000
00010000
00001000
,
00010000
00000000
00001000
00000000
00010000
01000000
00100000
00000000
,
01000000
00000000
10000000
00000000
00100000
01000000
00010000
01000000
,
00100000
00000000
10000000
00000000
01000000
00010000
00001000
00010000
,
00001000
00000000
00010000
00000000
00000010
00000000
00001000
00000100
,
00000010
00000000
00000001
00000000
00000100
00000010
00000100
00000010
,
00001000
00000000
00000100
00000000
00010000
00001000
00010000
00001000
,
00011000
00000000
00001000
00000000
00100000
00010000
01000000
00010000
,
10010000
00000000
00100000
00000000
00010000
10000000
01000000
10000000
,
11000000
00000000
01000000
00000000
00010000
00001000
00010000
00000000
,
00000100
00001000
00000010
00000100
00000001
00001000
00000100
00000000
,
00000001
00000000
00000100
00000000
00001000
00010000
00001000
00010000
,
01000000
00000000
10000000
00000000
00100000
01000000
00010000
01000000
,
10000000
00000000
01000000
00000000
00010000
10000000
01000000
10000000
,
11000000
00000000
00010000
00000000
00001000
00000100
00000001
00000010
,
00000011
00000000
00001100
00000000
00000010
00000001
00000010
00000001
,
00000100
00000000
00001000
00000000
00010000
00001000
00010000
00001000
,
00011000
00000000
00100000
00000000
00010000
00100000
00010000
00100000
,
00110000
00000000
00100000
10000000
00010000
01000000
00100000
10000000
,
01000000
00000000
00010000
00000000
00001000
00010000
00001000
00010000
,
00000100
00000000
00001000
00000000
00000010
00000100
00000010
00000100
,
00000001
00000000
00001000
00000000
00000001
00001000
00000001
00001000
,
00001001
00000000
00000000
00000000
;

//---------------dance-double - ----------------
#NOTES:
     dance-double:
     :
     Hard:
     12:
     :
00000000
00000000
00000000
00000000
,
00000000
00000000
00000000
00000000
,
00000000
00000000
00000000
00000000
,
00000000
00000000
00000000
00000000
,
00010000
00000000
00011000
00000000
00001000
00100000
00010000
10000000
,
00100000
00000000
00000000
00000000
01000000
00000000
00000000
00100000
00000000
00000000
10000000
00000000
01000000
00000000
00010000
00000000
,
00001000
00000000
00000000
00000000
00010000
00000000
00000000
00001000
00000000
00000000
00000100
00000000
00000001
00000000
00000010
00000000
,
00000001
00000100
00000000
00000001
00000100
00000000
00000010
00001000
00000000
00000010
00001000
00000000
00000100
00000000
00010000
00000000
,
00001000
00100000
00000000
00001000
00100000
00000000
00010000
10000000
00000000
00010000
10000000
00000000
01000000
00000000
00100000
00000000
,
00100000
01000000
00000000
01000000
00010000
00000000
00010000
00001000
00000000
00000010
00000001
00000000
00000100
00000000
00001000
00000000
,
00010000
00001000
00000000
00001000
00000100
00000000
00000100
00000010
00000000
00001000
00000001
00000000
00000100
00000000
00001000
00000000
,
00010000
00001000
00000000
00010000
00001000
00000000
00100000
00010000
00000000
10000000
00010000
00000000
01000000
00000000
00010000
00000000
,
10000000
00100000
00000000
10000000
00100000
00000000
01000000
00010000
00000000
00100000
00010000
00000000
10000000
00000000
01000000
00000000
,
00010000
00000000
00000000
00001000
00010000
00000000
00000000
00001000
00000000
00000000
00000100
00000000
00000010
00000000
00001000
00000000
,
00000100
00000000
00000000
00001000
00000001
00000000
00000000
00000010
00000000
00000000
00000100
00000000
00000010
00000000
00000001
00000000
,
00000100
00000000
00000000
00001000
00010000
00000000
00000000
01000000
00000000
00000000
10000000
00000000
00100000
00000000
10000000
00000000
,
01000000
00100000
00000000
00010000
01000000
00000000
00100000
00000000
10000000
00000000
01000000
00000000
00010000
00000000
00001000
00000000
,
00000100
00000000
00000000
00000001
00001000
00000000
00000000
00000100
00000000
00000000
00001000
00000000
00000010
00000000
00000100
00000000
,
00001000
00000000
00000000
00010000
00001000
00000000
00000000
00100000
00000000
00010000
10000000
00000000
01000000
00000000
00100000
00000000
,
00110000
00000000
00000000
10000000
01000000
00000000
00000000
00100000
00000000
00010000
00001000
00000000
00000100
00000000
00000010
00000000
,
00000100
00000000
00000001
00000000
00000100
00000010
00001000
00000001
,
00001001
00000000
00000000
00000000
00000100
00000000
00000000
00001000
00000000
00000100
00001000
00000000
00000010
00000000
00000100
00000000
,
00001000
00000000
00000000
00000000
00010000
00000000
00000000
00001000
00000000
00010000
00001000
00000000
00100000
00000000
01000000
00000000
,
10000000
00000000
00000000
00000000
01000000
00000000
00000000
00100000
00000000
00010000
10000000
00000000
01000000
00000000
00010000
00000000
,
00001000
00000000
00000000
00000000
00010000
00000000
00000000
01000000
00000000
00000000
10000000
00000000
00100000
00000000
00010000
00000000
,
00001000
00000000
00000000
00000000
00000010
00000000
00000000
00000001
00000000
00000000
00000000
00000000
00001010
00000000
00001000
00000000
,
00000001
00000000
00000000
00000000
00000100
00000000
00000000
00001000
00000000
00000000
00000000
00000000
00011000
00000000
00010000
00000000
,
00001000
00000000
00000000
00000000
01000000
00000000
00000000
00010000
00000000
00000000
00000000
00000000
10100000
00000000
00100000
00000000
,
10000000
00000000
00000000
00000000
00010000
00000000
00000000
10000000
00000000
00000000
00000000
00000000
01000000
00000000
00010000
00000000
,
00002000
00000000
00000000
00000000
00013000
00000000
00000010
00001000
00000000
00000100
00001000
00000000
00000010
00000000
00000100
00000000
,
00000002
00000000
00000000
00000000
00000103
00000000
00001000
00010000
00000000
00010000
00001000
00000000
00010000
00000000
01000000
00000000
,
20000000
00000000
00000000
00000000
30100000
00000000
00010000
00100000
00000000
10000000
01000000
00000000
00010000
00000000
00001000
00000000
,
00000010
00000100
00000000
00001000
00000010
00000000
00000100
00000010
00001000
00000010
00000100
00000010
00001000
00000010
00000100
00000000
,
00000010
00001000
00000000
00000100
00000010
00000000
00000001
00000100
00000000
00001000
00010000
00000000
00001000
00010000
00001000
00000000
,
00010000
01000000
00000000
10000000
00100000
00000000
01000000
00010000
00000000
00100000
00001000
00000000
00010000
00001000
00010000
00000000
,
00001000
00000010
00000000
00000001
00000100
00000000
00000010
00001000
00000000
00000010
00000100
00000000
00001000
00000000
00010000
00000000
,
01000000
00100000
10010000
00000000
10010000
10000000
00100000
00010000
,
00001000
00000000
00000000
00000000
00000010
00000000
00000000
00000110
00000000
00000000
00000010
00000000
00000001
00000000
00000100
00000000
,
00001000
00000000
00000000
00000000
00010000
00000000
00000000
00011000
00000000
00000000
00010000
00000000
00100000
00000000
10000000
00000000
,
01000000
00000000
00000000
00000000
00100000
00000000
00000000
11000000
00000000
00000000
01000000
00000000
00010000
00000000
00001000
00000000
,
00000100
00000000
00000001
00000000
00000010
00000000
00001000
00000000
00000010
00000000
00000001
00000000
00001000
00000001
00001000
00000000
,
00000100
00000000
00000000
00000000
00010000
00000000
00000000
00001000
00000000
00000000
00010000
00000000
01000000
00000000
10000000
00000000
,
10100000
00000000
00000000
00000000
01000000
00000000
00000000
00010000
00000000
00000000
00001000
00000000
00000010
00000000
00000001
00000000
,
00000101
00000000
00000000
00000000
00001000
00000000
00000000
00000100
00000000
00000000
00000010
00000000
00000001
00000000
00000100
00000000
,
00001001
00000000
00000000
00000000
;
