#TITLE:Black Skinhead;
#ARTIST:Kanye West;
#BANNER:Black Skinhead-bn.png;
#BACKGROUND:Black Skinhead-bg.png;
#JACKET:Black Skinhead-jacket.png;
#MUSIC:Black Skinhead.ogg;
#SAMPLESTART:92.25;
#SAMPLELENGTH:20;
#DISPLAYBPM:130;
#BPMS:0=130.2,23.66667=140.2,24=130.2,87.66666=110.2,88=130.2,111.66666=110.2,112=130.2,167.66667=110.2,168=130.2,199.66667=110.2,200=130.2,227.66667=110.2,228=130.2;
#BGCHANGES:;

//---------------dance-single - ----------------
#NOTES:
     dance-single:
     :
     Beginner:
     3:
     :
0000
0000
0000
0000
,
0000
0000
0000
0000
,
2000
0000
3000
0000
,
0002
0000
0003
0000
,
1000
0000
0001
0000
,
2000
0000
3000
0000
,
0001
0000
0100
0000
,
0010
0000
1000
0000
,
0100
0000
0010
0000
,
0001
0000
1000
1000
,
1000
0000
0001
0000
,
1000
0000
0100
0000
,
0020
0000
0030
0000
,
0200
0000
0300
0000
,
1000
0000
0001
0000
,
1000
0000
0010
0000
,
0100
0000
0001
0000
,
0010
0000
0010
0000
,
0100
0000
1000
0000
,
0001
0000
1000
0000
,
0001
0000
0010
0000
,
0100
0000
1000
0000
,
0010
0010
0000
0000
,
0100
0100
0000
0000
,
0001
0001
0000
0000
,
1000
1000
0000
0000
,
0020
0000
0030
0000
,
0200
0000
0300
0000
,
0010
0000
0100
0000
,
0001
0000
1000
0000
,
1001
0000
0000
0000
,
1000
1000
1000
0000
,
1001
0000
0000
0000
,
0001
0001
0001
0000
,
1001
0000
0100
0000
,
1001
0000
0010
0000
,
1001
0000
0100
0000
,
0010
0010
0010
0000
,
2000
0000
3000
0000
,
0002
0000
0003
0000
,
0200
0000
0300
0000
,
0010
0000
0000
0000
,
1000
1000
0000
0000
,
0100
0100
0000
0000
,
0010
0010
0000
0000
,
0001
0001
0000
0000
,
2000
0000
3000
0000
,
0020
0000
0030
0000
,
1000
0000
0001
0000
,
0100
0000
0010
0000
,
0110
0000
0000
0000
,
1000
1000
1000
0000
,
0110
0000
0000
0000
,
0010
0010
0010
0000
,
0110
0000
0001
0000
,
0110
0000
0100
0000
,
0110
0000
1000
0000
,
0001
0001
0001
0000
,
0020
0000
0030
0000
,
0002
0000
0003
0000
,
0200
0000
0300
0000
,
0020
0000
0030
0000
,
2000
0000
3000
0000
,
0002
0000
0003
0000
,
0020
0000
0030
0000
,
0200
0000
0300
0000
,
2000
0000
3000
0000
,
0020
0000
0030
0000
,
0200
0000
0300
0000
,
0020
0030
0000
0000
;

//---------------dance-single - ----------------
#NOTES:
     dance-single:
     :
     Easy:
     7:
     :
0000
0000
0000
0000
,
0000
0000
0000
0000
,
1000
1000
1000
1001
,
0001
0001
0001
1001
,
1000
1001
0001
1001
,
1000
0001
1000
1001
,
0110
0000
1000
0100
,
1000
0010
0100
0001
,
0010
0001
1000
0100
,
1000
0010
0100
0001
,
1001
0010
1000
0100
,
0110
0001
0100
1000
,
0010
0010
0100
0100
,
0010
0100
0010
0100
,
0001
0100
2000
3000
,
0010
1000
0002
0003
,
1000
0100
0020
0030
,
0001
0001
1000
1000
,
0010
1000
0100
0001
,
0010
0001
0100
1000
,
0001
0010
0001
1000
,
0010
0100
0010
1000
,
0001
0101
0000
0010
,
1000
1100
0000
0001
,
0100
0101
0000
0010
,
1000
1100
0000
0001
,
1000
1000
1000
1001
,
0001
0001
0001
1001
,
1000
1001
0001
1001
,
1000
0001
1000
1001
,
2010
0001
0000
3001
,
0100
0010
0100
0001
,
0012
1000
0000
1003
,
0001
0100
0010
1000
,
2100
0000
0001
3001
,
0102
0000
0010
0013
,
1001
0010
1000
0100
,
1000
1000
0001
1000
,
0001
0010
0100
1000
,
0010
0100
0010
0100
,
0001
1000
0100
0010
,
0002
0000
1003
0001
,
0010
0011
0000
1000
,
0010
1010
0000
0100
,
0001
0011
0000
0100
,
1000
1010
0000
0100
,
1000
1000
1000
1001
,
0001
0001
0001
1001
,
1000
1001
0001
1001
,
1000
0001
1000
1001
,
0201
0010
0000
0310
,
1000
0100
1000
0001
,
1020
0100
0000
0130
,
0010
0100
0001
1000
,
2100
0000
0010
3010
,
0021
0000
0100
0130
,
0110
0001
0100
1000
,
0010
0010
1000
0001
,
1000
0100
0001
0100
,
1000
1000
0001
0001
,
0010
0001
0010
0100
,
1000
0010
1000
0001
,
0100
0100
0010
0100
,
0001
0010
0001
0100
,
1000
0010
1000
0001
,
1000
0100
0010
0010
,
0100
1000
0010
0001
,
0100
0001
0010
0100
,
1000
0010
1000
0001
,
0010
0000
0000
0000
;

//---------------dance-single - ----------------
#NOTES:
     dance-single:
     :
     Medium:
     12:
     :
0000
0000
0000
0000
,
0000
0000
0000
0000
,
1000
0000
1000
0001
0000
0001
1000
0000
0001
0200
0000
0000
,
0301
0000
0001
1000
0000
1000
0001
0000
1000
0200
0000
0000
,
0310
0000
0010
0200
0000
0000
0310
0000
0010
0200
0000
0000
,
1300
0000
1000
0001
0000
0001
1000
0000
0010
0200
0000
0000
,
0301
0000
0000
0010
0000
0001
0000
0000
1000
0010
0000
0100
,
0001
0000
0000
0010
0000
0100
0000
0000
1000
0001
0000
1000
,
0100
0000
0000
1000
0000
0010
0000
0000
1000
0100
0000
0010
,
0001
0000
0000
0100
0000
0000
0010
1000
0010
1000
0010
1000
,
0010
0000
0100
0001
0000
1000
0100
0000
0000
0110
0000
0000
,
0010
0000
0001
1000
0000
0001
0100
0000
0000
1001
0000
0000
,
0020
2030
3002
0203
,
0302
0023
0230
2300
,
3001
0000
0100
0001
0000
1000
0000
0000
0010
0000
0000
1000
,
0100
0000
0010
0001
0000
1000
0000
0000
0001
1000
0000
1000
,
0100
0000
0010
0001
0000
0100
0000
0000
0010
0000
0000
1000
,
0001
0000
0000
1000
0000
0000
0001
0100
0001
0100
0001
0100
,
0001
0000
0000
1000
0000
0100
0000
0000
1000
0001
0000
0010
,
0001
0000
0100
0010
0000
1000
0000
0000
0001
0000
0000
0100
,
0001
0000
0010
0001
0000
1000
0000
0000
0010
1000
0000
0001
,
0100
0000
0000
0010
0000
0000
1000
0001
1000
0001
1000
0001
,
1000
0000
0000
0101
0000
0000
0000
0010
0100
1000
0000
0000
,
0001
0000
0000
1100
0000
0000
0000
0100
0010
0001
0000
0000
,
0100
0000
0000
1010
0000
0000
0000
0001
1000
0100
0000
0000
,
0010
0000
0000
0011
0000
0000
0000
1000
0001
0010
0000
0000
,
1000
0000
1000
0100
0000
0100
0010
0000
0010
0002
0000
0000
,
0103
0000
0100
0001
0000
0001
1000
0000
1000
0020
0000
0000
,
1030
0000
0001
0200
0000
0000
0301
0000
1000
0200
0000
0000
,
0310
0000
0010
0100
0000
0100
1000
0000
0001
1000
0000
0001
,
0100
0000
0000
0010
0000
1000
0000
0000
0101
0000
0000
0001
,
1000
0000
0100
1000
0000
0010
0100
0000
0001
1000
0000
0100
,
0010
0000
0000
0001
0000
1000
0000
0000
1100
0000
0000
0010
,
0100
0000
0001
0100
0000
0010
1000
0000
0100
1000
0000
0001
,
0100
0000
0000
0010
0000
0000
1000
0001
1000
0100
0000
0000
,
0010
0000
0000
0001
0000
0000
0100
0001
1000
0010
0000
0000
,
1000
0000
0000
0001
0000
0000
0010
0100
0010
0001
0000
0000
,
1000
0000
0010
1000
0000
0010
1000
0001
0100
0010
0000
0000
,
2000
3200
0320
0032
,
0203
0320
2030
3002
,
0023
0230
2300
3002
,
0203
0000
0000
0300
0000
0000
0001
0010
0001
0010
0001
0010
,
0001
0000
0000
1100
0000
0000
0000
1000
0010
0100
0000
0000
,
0010
0000
0000
1010
0000
0000
0000
0100
0001
1000
0000
0000
,
0100
0000
0000
0011
0000
0000
0000
0001
1000
0010
0000
0000
,
1000
0000
0000
1100
0000
0000
0000
0100
0010
0001
0000
0000
,
1000
0000
1000
0001
0000
0001
1000
0000
0100
0020
0000
0000
,
0031
0000
0100
0001
0000
0100
0010
0000
1000
0002
0000
0000
,
0013
0000
0001
2000
0000
0000
3001
0000
0100
0020
0000
0000
,
1030
0000
1000
0001
0000
0001
0010
0000
0010
0100
0000
0100
,
1000
0000
0000
0001
0000
1000
0000
0000
0110
0000
0000
0010
,
1000
0000
1000
0100
0000
0100
0010
0000
0010
0001
0000
1000
,
0001
0000
0000
1000
0000
0100
0000
0000
1001
0000
0000
0010
,
0001
0000
0100
0001
0000
0010
0100
0000
1000
0001
0000
1000
,
0010
0000
0000
0100
0000
0000
0001
0010
0100
1000
0000
0000
,
0010
0000
0000
1000
0000
0000
0001
0100
0010
1000
0000
0000
,
0100
0000
0000
0010
0000
0000
0100
1000
0001
0010
0000
0000
,
0001
0000
0100
0010
0000
0100
0001
1000
0010
0100
0000
0000
,
0002
0023
0230
2300
,
3020
0230
0302
2003
,
3200
2300
3002
0203
,
0302
0023
0230
2300
,
3010
1000
0001
0011
,
1000
0010
0100
0101
,
0010
1000
0001
1010
,
1000
0100
0001
0110
,
0001
0000
0010
0001
0000
0000
2000
0000
0000
3020
0000
0000
,
0130
0000
0001
1000
0000
0000
0200
0000
0000
0320
0000
0000
,
0032
2003
3020
2030
,
3010
0000
0000
0000
;

//---------------dance-single - ----------------
#NOTES:
     dance-single:
     :
     Hard:
     15:
     :
0000
0000
0000
0000
,
0000
0000
0000
0000
,
1000
0100
0010
0001
0010
0100
1000
0100
0010
0002
0000
0000
,
1003
0100
0010
0001
0010
0100
1000
0100
0010
0002
0000
0000
,
1003
0100
0010
0002
0000
0000
1003
0100
0010
0002
0000
0000
,
1003
0100
0010
0001
0010
0100
1000
0100
0010
0002
0000
0000
,
0103
0000
0010
1000
0010
0100
0001
0000
1000
0100
0000
1000
,
0001
0000
0100
0010
1000
0001
0010
0000
0001
0100
0000
0010
,
1000
0000
0100
0010
0100
1000
0001
0000
0100
0001
0000
1000
,
0001
0010
0100
0010
0001
1000
0010
0100
0010
0100
0010
0100
,
0001
0000
0000
0010
0001
1000
0100
0000
1000
0010
0000
0100
,
0001
0000
0010
0100
1000
0010
1000
0001
0100
0010
0000
1000
,
0001
0100
0001
0100
0010
1000
0100
1000
0001
1000
0001
0100
,
0010
1000
0001
1000
0100
0010
0001
0100
0010
1000
0000
0000
,
0001
0010
0100
1000
0010
1000
0001
0000
0100
0010
0000
1000
,
0001
0010
0100
0010
0001
0100
0010
0000
1000
0100
0000
1000
,
0001
0100
0010
1000
0100
0010
0100
0000
1000
0001
0000
0010
,
0100
1000
0001
1000
0010
0100
0001
1000
0001
1000
0001
1000
,
0100
0010
0001
0100
0010
1000
0001
0000
0010
0001
0000
1000
,
0100
0010
0001
0010
0001
1000
0010
0000
1000
0100
0000
0000
,
0010
0001
0010
0100
1000
0001
1000
0000
0010
0000
0100
0001
,
1000
0000
0100
0010
0001
0100
0001
0010
0100
0010
0100
0010
,
0001
0100
0010
1000
0001
0000
0000
1000
0100
0010
0001
0100
,
0010
0100
0001
1000
0000
0000
0000
0100
1000
0010
0100
0001
,
1000
0100
0010
0001
0100
0000
0000
0001
1000
0001
0100
0000
,
0010
1000
0010
1000
0001
0000
0000
0010
0100
1000
0001
0000
,
1000
0100
0010
0001
0010
0100
1000
0100
0010
0002
0000
0000
,
1003
0100
0010
0001
0010
0100
1000
0100
0010
0002
0000
0000
,
1003
0100
0010
0002
0100
0000
1003
0100
0010
0002
0100
0000
,
1003
0100
0010
0001
0100
0010
1000
0001
0010
0100
1000
0001
,
0100
0000
0010
1000
0000
0001
0000
0000
0011
0000
0000
0100
,
1000
0010
1000
0100
0010
0001
0100
0010
1000
0001
0000
0100
,
0010
0000
1000
0001
0000
0100
0000
0000
1010
0000
0000
0100
,
1000
0010
0100
0001
0010
0100
1000
0001
1000
0010
0000
0100
,
0001
0000
0010
0001
0100
0010
1000
0001
1000
0100
0000
0010
,
0001
0000
0100
0001
1000
0100
0010
0100
1000
0001
0000
0100
,
0010
1000
0001
1000
0100
0010
0001
0100
0010
2000
0000
0000
,
3001
0100
0010
1000
0000
1000
0100
0010
0001
1000
0000
0000
,
0101
0101
1100
1100
,
0101
1100
0101
1100
,
0002
0203
0320
2030
,
3002
0000
0000
2003
0000
0000
3010
0100
0010
0100
0010
0100
,
0001
0010
0100
0010
0001
0000
0000
1000
0001
0100
0010
1000
,
0100
0010
0001
1000
0000
0000
0000
0001
1000
0010
1000
0100
,
0010
0100
1000
0001
1000
0000
0000
0001
0100
0010
1000
0000
,
0100
0010
0100
1000
0001
0000
0000
0010
0001
1000
0100
0000
,
0001
0010
0100
1000
0100
0010
0001
0010
0100
2000
0000
0000
,
3001
0010
0100
1000
0100
0010
0001
0010
0100
2000
0000
0000
,
3001
0010
0100
2000
0010
0000
3001
0010
0100
2000
0010
0000
,
3001
0010
0100
1000
0010
0100
0001
0100
0010
1000
0100
0010
,
0001
0000
1000
0001
0000
0100
0000
0000
1010
0000
0000
0001
,
1000
0001
0010
0001
0100
0010
0100
0001
1000
0100
0000
0010
,
0001
0000
1000
0100
0000
0010
0000
0000
0011
0000
0000
1000
,
0001
1000
0010
0100
0010
1000
0100
0010
0001
1000
0000
0001
,
0100
0000
0010
1000
0100
1000
0001
0010
0100
1000
0000
0001
,
1000
0000
0010
0100
0010
1000
0100
0010
0001
1000
0000
0010
,
0100
0001
0010
0001
0010
0100
1000
0010
0100
0002
0000
0000
,
1003
0100
0010
0001
0000
0100
0010
1000
0001
0100
0000
0000
,
1001
1001
0110
0110
,
1001
0110
1001
0110
,
2000
3020
0230
0302
,
2003
3200
0320
0032
,
0103
0000
0001
0010
0000
1000
0010
0000
0000
0110
0000
0000
,
0001
0000
1000
0100
0000
0001
0100
0000
0000
0110
0000
0000
,
0010
0000
1000
0100
0000
1000
0001
0000
0000
0011
0000
0000
,
0100
0000
0001
0010
0000
0001
1000
0000
0000
1100
0000
0000
,
0001
0000
0010
0001
0000
0010
0100
0000
0000
1100
0000
0000
,
0010
0000
1000
0001
0000
1000
0100
0000
0000
1001
0000
0000
,
2000
3020
0230
0302
,
0023
0030
0000
0000
;
