#VERSION:0.83;
#TITLE:BillyRock;
#SUBTITLE:;
#ARTIST:Big Idea;
#TITLETRANSLIT:;
#SUBTITLETRANSLIT:;
#ARTISTTRANSLIT:;
#GENRE:;
#ORIGIN:;
#CREDIT:;
#BANNER:BillyRock-bn.png;
#BACKGROUND:BillyRock-bg.png;
#PREVIEWVID:;
#JACKET:BillyRock-jacket.png;
#CDIMAGE:;
#DISCIMAGE:;
#LYRICSPATH:;
#CDTITLE:;
#MUSIC:BillyRock.ogg;
#OFFSET:0.000000;
#SAMPLESTART:0.000000;
#SAMPLELENGTH:20.000000;
#SELECTABLE:YES;
#DISPLAYBPM:158.000000;
#BPMS:0.000=158.000;
#STOPS:;
#DELAYS:;
#WARPS:;
#TIMESIGNATURES:0.000=4=4;
#TICKCOUNTS:0.000=4;
#COMBOS:0.000=1;
#SPEEDS:0.000=1.000=0.000=0;
#SCROLLS:0.000=1.000;
#FAKES:;
#LABELS:0.000=Song Start;
#BGCHANGES:;
#KEYSOUNDS:;
#ATTACKS:
;

//---------------dance-single - ----------------
#NOTEDATA:;
#CHARTNAME:;
#STEPSTYPE:dance-single;
#DESCRIPTION:;
#CHARTSTYLE:;
#DIFFICULTY:Hard;
#METER:16;
#RADARVALUES:1.033893,1.065701,0.158811,0.022687,1.514378,638.000000,624.000000,14.000000,2.000000,0.000000,0.000000,0.000000,0.000000,0.000000,1.033893,1.065701,0.158811,0.022687,1.514378,638.000000,624.000000,14.000000,2.000000,0.000000,0.000000,0.000000,0.000000,0.000000;
#CREDIT:;
#DISPLAYBPM:158.000000;
#NOTES:
0000
0000
0000
0000
,
0000
0000
0000
0000
,
1000
0000
0010
1000
0100
0010
0001
0100
0010
0000
1000
0001
0000
0000
0000
0000
,
0010
0000
0001
1000
0001
0100
0010
1000
0100
0000
0010
0001
0000
0000
0000
0000
,
0101
0010
1000
0100
1010
0001
1000
0100
,
0011
0000
0100
0000
1010
0000
0100
0000
0101
0000
1000
0000
1100
0000
0001
0100
,
0010
0000
1000
0001
0000
0001
0010
0000
0010
0100
0000
0100
1000
0010
0100
0001
,
1000
0000
0010
0000
0100
0000
0001
0010
0001
0100
0000
0010
1000
0000
0100
0000
,
0010
0000
0001
1000
0000
0001
0100
0000
0010
1000
0000
0010
0100
0001
1000
0100
,
0010
0000
0001
0100
0000
0100
0010
0000
1000
0100
0000
1000
0001
0000
1000
0010
,
0100
0000
0001
0010
0000
0001
1000
0000
0100
0010
0000
0010
0001
1000
0010
0100
,
0001
0000
1000
0001
0000
0001
0010
0000
0100
1000
0000
1000
0002
0000
0000
0000
,
0103
0000
0001
0000
0010
0000
0001
0000
1000
0010
0000
1000
0100
0000
0010
0001
,
1000
0000
0001
0100
0000
0100
0001
0000
0010
0100
0000
0100
1000
0000
0001
0100
,
0001
0000
0010
0100
1000
0000
0001
0000
1000
0010
0000
0100
0001
0000
0010
0000
,
0001
0000
1000
0100
1000
0000
0010
0000
0100
0001
0000
0001
1000
0010
0100
0000
,
0001
0000
0010
0100
0010
0001
0100
0010
1000
0000
0100
1000
0000
1000
0001
0000
,
0100
0000
0001
1000
0001
0010
0100
1000
0010
0100
0001
1000
0000
0000
0100
0010
,
0001
0000
1000
0001
0100
0010
0100
0001
0010
0000
0100
1000
0000
0001
1000
0000
,
0010
0000
0100
0001
0010
0100
1000
0000
0001
0100
0001
0100
0000
0000
0010
0000
,
1010
0000
0001
0000
0100
0010
1000
0000
0101
0000
0010
0000
0100
0001
1000
0000
,
1100
0000
0010
0000
0101
0000
0010
0000
1001
0000
0100
0000
1010
0000
0001
1000
,
0100
0000
0010
0000
0001
0100
0001
0000
1000
0000
0001
0000
0100
0010
1000
0000
,
0110
0000
0001
0100
0010
1000
0100
0000
1000
0010
0100
0010
1000
0001
0000
0000
,
1001
0000
0001
0010
0000
0100
1000
0000
0010
0100
0000
0010
1000
0001
0100
0010
,
1000
0000
0100
0010
0000
0010
0001
0000
1000
0001
0000
0001
0100
0000
0010
1000
,
0010
0000
1000
0001
0000
1000
0100
0000
0010
0001
0000
0001
0100
0010
1000
0001
,
0100
0000
0010
0100
0000
0010
1000
0000
0001
0010
0000
0001
0100
0000
0010
0000
,
1000
0000
0100
1000
0000
0001
0100
0000
0010
0100
0000
0010
1000
0001
0010
0100
,
1000
0000
0100
0010
0000
0010
0001
0000
1000
0010
0000
0010
0100
0000
0001
1000
,
0001
0000
0010
0001
0000
0001
0100
0000
0010
1000
0000
0100
1000
0001
1000
0010
,
0100
0000
0001
0010
0000
0001
0100
0000
0010
1000
0000
0100
1000
0000
0001
0000
,
0100
0010
0000
0010
0100
0010
0000
1000
0000
0001
0010
0000
0100
1000
0000
1000
,
0001
0100
0000
0100
0010
1000
0000
0001
0000
0010
0001
0100
0010
1000
0000
0001
,
0100
0010
0000
0010
0100
0010
0000
1000
0000
0001
0010
0000
0001
0100
0000
0100
,
0010
1000
0000
0100
1000
0001
0100
0010
0000
0010
1000
0000
0001
0100
0000
0010
,
0100
0001
0000
0001
0010
0100
1000
0001
0000
1000
0010
0000
0100
0001
0000
0001
,
0000
0010
0000
0001
0100
0010
0000
1000
0000
0100
0010
0001
0000
1000
0000
1000
,
0001
1000
0000
0001
0100
0010
1000
0100
0000
0010
0001
0000
0100
0001
0000
1000
,
0000
0001
0000
0010
0100
1000
0000
0001
0000
0100
0010
0000
2000
0000
0000
0000
,
3001
0000
0100
0000
0001
0010
0100
1000
0001
0010
0100
1000
0001
0010
0100
1000
,
0010
0000
0100
0000
0001
0010
0100
1000
0001
0010
0100
1000
0001
0010
0100
1000
,
0010
0000
1000
0000
0001
0010
0100
1000
0001
0010
0100
1000
0001
0010
0100
1000
,
0100
0000
0001
0000
0100
0000
1000
0000
0100
0010
0001
0010
0001
1000
0010
0000
,
0100
0000
0001
0000
0010
0000
0001
0000
1000
0010
0100
0010
1000
0100
0010
0100
,
1000
0000
0001
0000
1000
0100
0010
0001
1000
0100
0010
0001
1000
0100
0010
0001
,
0100
0010
0100
0010
1000
0001
1000
0001
0100
0010
0100
0010
1000
0001
1000
0001
,
0100
0001
0100
0001
0100
0010
0000
0000
1000
0001
0000
0001
1000
0001
0000
0001
,
0100
0010
1000
0000
0001
0100
0000
0001
0100
0001
0000
0100
0001
1000
0000
0010
,
0100
0000
0001
0010
0100
0010
0001
1000
0010
0000
1000
0100
0000
1000
0100
0000
,
0010
0000
0001
1000
0001
0100
0010
1000
0100
0010
0001
0100
0000
0000
0010
1000
,
0010
0000
0100
0001
0010
0100
0010
0001
1000
0010
1000
0001
0000
1000
0100
0000
,
0010
0000
0001
1000
0001
0100
0010
1000
0100
0000
0010
0000
0001
0000
0100
0010
,
1000
0000
0001
0000
1000
0010
0100
0000
0001
0000
0010
0000
0100
0010
0001
0000
,
1000
0000
0010
0000
1000
0001
0100
0010
1000
0000
0100
0000
0010
0001
0100
0010
,
1000
0000
0100
0000
1000
0001
0100
0000
0001
0000
0010
0000
0100
1000
0001
0000
,
0100
0000
0001
0000
0010
0100
1000
0000
0001
0000
0100
0000
0010
1000
0001
0100
;

//---------------dance-single - ----------------
#NOTEDATA:;
#CHARTNAME:;
#STEPSTYPE:dance-single;
#DESCRIPTION:;
#CHARTSTYLE:;
#DIFFICULTY:Medium;
#METER:12;
#RADARVALUES:0.623901,0.581291,0.113437,0.068062,0.226873,385.000000,375.000000,10.000000,6.000000,0.000000,0.000000,0.000000,0.000000,0.000000,0.623901,0.581291,0.113437,0.068062,0.226873,385.000000,375.000000,10.000000,6.000000,0.000000,0.000000,0.000000,0.000000,0.000000;
#CREDIT:;
#DISPLAYBPM:158.000000;
#NOTES:
0000
0000
0000
0000
,
0000
0000
0000
0000
,
1000
0000
0001
0000
1000
0000
0100
0000
0010
0000
0000
0010
0000
0000
0000
0000
,
0001
0000
0100
0000
0001
0000
1000
0000
0010
0000
0000
0010
0000
0000
0000
0000
,
0100
0001
1000
0000
0100
1000
0001
0000
,
0100
0001
0010
0001
1000
0010
1000
0100
,
0010
0000
0000
0001
0000
0000
0100
0000
0000
0010
0000
0000
1000
0000
0001
0000
,
1000
0100
0001
0000
0010
0001
0010
0100
,
1000
0000
0000
0010
0000
0000
1000
0000
0000
0001
0000
0000
0010
0000
0100
0000
,
1000
0000
0000
0010
0000
0000
1000
0000
0100
0000
0010
0000
0001
0000
0000
0000
,
0100
0000
0000
0010
0000
0000
1000
0000
0000
0001
0000
0000
0010
0000
0100
0000
,
1000
0000
0000
0010
0000
0000
1000
0000
0000
0001
0000
0000
0200
0000
0000
0000
,
0310
0000
1000
0000
0100
0000
0010
0000
0000
0001
0000
0000
1000
0000
0000
0000
,
0001
0000
0000
0100
0000
0000
0010
0000
0000
1000
0000
0000
0100
0000
0000
0000
,
1000
0000
0000
1000
0000
0000
0001
0000
0000
0100
0000
0000
0010
0000
0000
0000
,
0100
0000
0001
0000
0010
0000
0001
0000
0000
1000
0000
0000
0100
0000
0000
0000
,
1000
0000
0001
0000
1000
0000
0010
0000
0100
0000
0000
0100
0000
0000
0001
0000
,
0010
0000
0001
0000
0010
0000
0100
0000
1000
0000
0000
1000
0000
0000
0001
0000
,
0100
0000
0010
0000
0100
0000
0001
0000
1000
0000
0000
1000
0000
0000
1000
0000
,
0100
0000
0010
0000
0001
0000
1000
0000
0010
0000
0000
0100
0000
0000
0000
0000
,
0001
0010
0001
0100
0010
1000
0001
0000
,
0110
1001
0110
1001
,
0100
0001
0010
0100
1000
0001
1000
0000
,
1010
0001
0100
0101
0000
0010
2000
0000
,
3001
0100
0001
0010
0001
0100
0010
1000
,
0100
0010
0001
0100
0010
1000
0001
0100
,
0001
1000
0001
0010
0100
0010
0001
1000
,
0010
0000
0000
0100
0000
0000
0010
0000
1000
0000
0100
0000
0001
0000
0000
0000
,
0010
0001
1000
0001
0100
0010
1000
0100
,
0010
0100
1000
0100
0010
0001
1000
0001
,
0100
0010
1000
0010
1000
0100
0010
0001
,
1000
0000
0000
0100
0000
0000
0010
0000
0001
0000
1000
0000
0001
0000
0000
0000
,
1001
0000
0000
0000
0100
0000
0000
0010
0000
0000
1000
0000
0001
0000
0000
0010
,
0000
0100
1000
0010
1000
0001
1000
0100
,
0110
0000
0000
0000
0001
0000
0000
0100
0000
0000
0010
0000
1000
0000
0000
0001
,
0000
0010
0001
0100
0010
1000
0002
0000
,
0103
0000
0001
0000
0010
0000
0000
0001
0000
0000
1000
0000
0010
0000
0000
0100
,
0000
0001
1000
0001
0010
0100
1000
0010
,
0100
0001
0010
0001
1000
0010
1000
0100
,
0010
0001
1000
0001
0100
0010
2000
0000
,
3100
1000
0100
1000
0100
1000
0100
1000
,
0001
0100
0001
0100
0001
0100
0001
0100
,
0001
0010
0001
0010
0001
0010
0001
0010
,
0002
0000
0000
2003
0000
0000
3010
0000
1000
0000
0100
0000
1000
0000
0001
0000
,
0100
0010
0100
0010
0100
0010
0100
0010
,
1000
0001
1000
0001
1000
0001
1000
0001
,
1000
0010
1000
0010
1000
0010
1000
0010
,
1001
0000
0000
0000
1000
0100
0000
0000
1000
0010
0000
0000
1000
0001
0000
0000
,
0110
0000
0000
0000
0001
0010
0000
0000
0001
0100
0000
0000
0001
1000
0000
0000
,
0010
0000
1000
0000
0100
0000
0010
0000
0001
0000
0000
0001
0000
0000
0001
0000
,
0100
0000
0001
0000
1000
0000
0010
0000
0100
0000
0000
0100
0000
0000
0100
0000
,
0010
0000
1000
0000
0001
0000
0010
0000
0100
0000
0000
0100
0000
0000
0100
0000
,
1000
0001
1000
0010
0100
0001
0010
0000
,
0001
0100
1000
0000
0001
0010
1000
0000
,
0100
0010
0001
0000
0100
0001
1000
0000
,
0010
0100
0001
0100
0010
1000
0100
1000
,
0001
0000
0100
0000
0001
0000
1000
0000
0001
0000
0010
0000
0001
0000
1000
0100
;

//---------------dance-single - ----------------
#NOTEDATA:;
#CHARTNAME:;
#STEPSTYPE:dance-single;
#DESCRIPTION:;
#CHARTSTYLE:;
#DIFFICULTY:Easy;
#METER:7;
#RADARVALUES:0.397028,0.515002,0.385684,0.136124,0.000000,245.000000,211.000000,34.000000,12.000000,0.000000,0.000000,0.000000,0.000000,0.000000,0.397028,0.515002,0.385684,0.136124,0.000000,245.000000,211.000000,34.000000,12.000000,0.000000,0.000000,0.000000,0.000000,0.000000;
#CREDIT:;
#DISPLAYBPM:158.000000;
#NOTES:
0000
0000
0000
0000
,
0000
0000
0000
0000
,
1000
0010
1000
0001
,
0010
0100
1000
0010
,
0110
0001
0110
1000
,
1100
0101
1100
0101
,
0010
1000
0001
0010
,
0100
0010
0001
0100
,
1000
0010
1000
0001
,
0010
0001
0100
0010
,
1000
0100
0010
0001
,
0100
0010
0100
0001
,
1000
0010
1000
0100
,
0001
0010
0001
0100
,
0010
0100
0010
1000
,
0100
0010
0001
0100
,
0001
1000
0100
0010
,
0100
0010
0001
0100
,
0001
1000
0001
0010
,
0100
1000
0010
0001
,
1001
0100
1001
0100
,
0101
1100
0101
1100
,
1010
0100
0011
0100
,
1100
0000
0000
0101
0000
0000
1100
0000
,
1001
0010
1000
0001
,
0010
0001
0010
0100
,
1000
0010
1000
0001
,
0010
0001
0100
1000
,
0001
1000
0100
1000
,
0010
0100
0010
1000
,
0001
0010
0001
0100
,
0001
0001
1000
1000
,
2002
0000
0000
3003
,
0010
1000
0100
0001
,
0220
0000
0000
0330
,
0001
0010
0001
1000
,
0100
0010
0001
0100
,
0001
0010
0001
1000
,
0100
0010
0001
0100
,
0001
0010
1000
0001
,
0200
0010
1000
0301
,
2000
0010
0001
3100
,
0002
0010
0100
1003
,
0020
0000
0000
0200
0000
0000
0330
0000
,
0002
0010
1000
0103
,
2000
0100
0001
3010
,
0200
0010
1000
0301
,
0110
0001
0001
0001
,
0110
1000
1000
1000
,
0001
0010
0001
0100
,
1000
0010
1000
0001
,
0100
0010
0100
0001
,
0010
0100
1000
0010
,
1001
0100
1001
0010
,
1010
0101
0011
1100
,
0110
0001
0110
1000
,
1100
0011
0101
1010
;

//---------------dance-single - ----------------
#NOTEDATA:;
#CHARTNAME:;
#STEPSTYPE:dance-single;
#DESCRIPTION:;
#CHARTSTYLE:;
#DIFFICULTY:Beginner;
#METER:4;
#RADARVALUES:0.231735,0.320458,0.226873,0.079406,0.000000,143.000000,123.000000,20.000000,7.000000,0.000000,0.000000,0.000000,0.000000,0.000000,0.231735,0.320458,0.226873,0.079406,0.000000,143.000000,123.000000,20.000000,7.000000,0.000000,0.000000,0.000000,0.000000,0.000000;
#CREDIT:;
#DISPLAYBPM:158.000000;
#NOTES:
// measure 0
0000
0000
0000
0000
,  // measure 1
0000
0000
0000
0000
,  // measure 2
1000
1000
1000
0000
,  // measure 3
0001
0001
0001
0000
,  // measure 4
1001
0000
1001
0000
,  // measure 5
0100
0100
0100
0100
,  // measure 6
0100
0000
0010
0000
,  // measure 7
0100
0000
0001
0000
,  // measure 8
1000
1000
1000
0000
,  // measure 9
0100
0100
0100
0000
,  // measure 10
0010
0000
0001
0000
,  // measure 11
0100
0000
0010
0000
,  // measure 12
1000
1000
1000
0000
,  // measure 13
0001
0001
0001
0000
,  // measure 14
0100
0100
0100
0000
,  // measure 15
0010
0010
0010
0000
,  // measure 16
0100
0100
0100
0000
,  // measure 17
0001
0001
0001
0000
,  // measure 18
1000
1000
1000
0000
,  // measure 19
0010
0010
0010
0000
,  // measure 20
0110
0000
0110
0000
,  // measure 21
0001
0001
0001
0000
,  // measure 22
0110
0000
0110
0000
,  // measure 23
1001
0000
1001
0000
,  // measure 24
0100
0000
0010
0000
,  // measure 25
1000
1000
1000
0000
,  // measure 26
0001
0001
0001
0000
,  // measure 27
0010
0000
0100
0000
,  // measure 28
0010
0010
0010
0000
,  // measure 29
0001
0001
0001
0000
,  // measure 30
0100
0100
0100
0000
,  // measure 31
0010
0000
1000
0000
,  // measure 32
1001
0000
0000
0000
,  // measure 33
0100
0000
0100
0000
,  // measure 34
0110
0000
0000
0000
,  // measure 35
0010
0000
0010
0000
,  // measure 36
0001
0000
1000
0000
,  // measure 37
0001
0000
0100
0000
,  // measure 38
0010
0000
1000
0000
,  // measure 39
0100
0000
0010
0000
,  // measure 40
0002
0000
0003
0000
,  // measure 41
2000
0000
3000
0000
,  // measure 42
0020
0000
0030
0000
,  // measure 43
0200
0000
0300
0000
,  // measure 44
0020
0000
0030
0000
,  // measure 45
0200
0000
0300
0000
,  // measure 46
0002
0000
0003
0000
,  // measure 47
1001
0000
0000
0000
,  // measure 48
0110
0000
0000
0000
,  // measure 49
1000
1000
1000
0000
,  // measure 50
0001
0001
0001
0000
,  // measure 51
0010
0010
0010
0000
,  // measure 52
0100
0100
0100
0000
,  // measure 53
0110
0000
0110
0000
,  // measure 54
1001
0000
1001
0000
,  // measure 55
0110
0000
1001
0000
,  // measure 56
0110
0000
1001
0000
;
