#TITLE:Bidi Bidi Bom Bom;
#SUBTITLE:;
#ARTIST:Selena;
#TITLETRANSLIT:;
#SUBTITLETRANSLIT:;
#ARTISTTRANSLIT:;
#GENRE:;
#CREDIT:;
#BANNER:Bidi Bidi Bom Bom-bn.png;
#BACKGROUND:Bidi Bidi Bom Bom-bg.png;
#LYRICSPATH:;
#CDTITLE:;
#MUSIC:Bidi Bidi Bom Bom.ogg;
#OFFSET:0.875000;
#SAMPLESTART:64.530998;
#SAMPLELENGTH:20.000000;
#SELECTABLE:YES;
#DISPLAYBPM:180.000000;
#BPMS:0.000000=179.800003
;
#STOPS:
;
#BGCHANGES:;
#KEYSOUNDS:;
#ATTACKS:;

//---------------dance-single - ----------------
#NOTES:
     dance-single:
     :
     Hard:
     13:
     0.655347,0.684722,0.254386,0.118713,0.271345,541.000000,511.000000,30.000000,14.000000,0.000000,0.000000,0.655347,0.684722,0.254386,0.118713,0.271345,541.000000,511.000000,30.000000,14.000000,0.000000,0.000000:
0000
0000
0000
0000
,
0000
0000
0000
0000
,
0000
0000
0000
0000
,
0000
0000
0000
0000
,
1000
0100
0010
0001
0000
0001
0100
0000
0010
1000
0000
0001
,
0100
0101
0000
1100
,
0000
0000
0000
0101
0000
0000
0000
0000
0000
1100
0000
1000
,
0000
1001
0000
0110
,
0001
0000
0001
0000
0001
0000
0010
0000
0100
1000
0000
0000
,
0001
0100
1000
0100
0001
0000
1010
0100
,
0001
0010
1000
0010
0001
0000
1100
0001
,
1000
0100
0001
0100
1000
0000
0011
0100
,
1000
0010
0001
0010
1000
0000
0101
0010
,
1000
0000
0100
0010
0001
0000
1000
0001
,
0100
0000
0100
0001
1000
0000
0100
1000
,
0001
0000
0010
0001
0100
0000
0010
1000
,
0001
0100
0001
0000
1000
0000
0100
0000
1000
0010
1000
0000
0001
0000
0100
0000
,
0110
0000
1001
0100
0001
0000
1000
0100
,
1000
0000
0010
0100
0001
0000
2000
0000
,
3200
0000
0310
0001
0100
0000
0010
0000
,
1000
0000
0010
0000
0100
0000
0001
0000
0010
0000
0100
0000
,
1000
0001
1000
0010
0100
0000
0001
0010
,
0001
0000
0100
0001
1000
0000
0100
0000
,
0010
0001
0100
0010
1000
0000
0100
1000
,
0001
0000
0100
0001
0010
0000
0100
1000
,
0001
0000
1000
0010
1000
0000
0100
0010
,
0001
0000
0100
0001
0010
0100
0000
1000
,
0001
0000
0100
0001
0010
0000
0100
0000
,
1000
0000
0001
0000
0100
0000
0010
0000
1000
0000
0100
0000
,
0000
0010
0001
0100
0010
0000
1000
0000
,
0001
0100
1000
0100
0001
0000
1010
0000
,
0200
0000
0000
0000
0301
0000
0010
0000
0100
0000
0000
0000
1000
0000
0001
0100
,
0001
0000
0000
0010
0100
0000
0000
1000
0001
0000
0000
0100
0010
0000
1000
0000
,
1100
0000
0010
0001
0100
0000
0001
0010
,
1000
1000
0100
0010
0000
0001
0001
0100
,
0001
0010
1000
0000
0100
0010
0001
0000
,
1000
0000
0010
0000
1000
0000
0100
0000
0010
0000
0001
0000
,
0000
0100
0010
1000
0001
0000
0010
0000
,
0001
0100
1000
0100
0001
0000
1010
0100
,
0002
0000
0013
0001
0100
0000
0001
0010
,
1000
0000
0000
0000
0100
0000
0010
0000
0001
0000
0000
1000
0001
0000
0100
0000
,
0110
0000
0001
0010
0100
0000
1000
0001
,
0100
0100
0010
1000
0000
0001
0001
0100
,
0010
1000
0001
0000
0010
0100
1000
0000
,
0001
0000
1000
0000
0100
0000
1000
0000
0010
0000
0001
0000
,
0100
0000
0010
1000
0001
0000
0010
0100
,
1000
0000
0001
0100
0001
0000
1000
0000
,
0010
0000
1000
0100
0010
0001
0000
0100
,
0001
0000
1000
0000
0001
0000
0100
0000
0000
1001
0000
0000
,
1000
0100
0001
0100
1000
0000
0011
0100
,
1000
0010
0001
0010
1000
0000
0101
1000
,
0001
0010
1000
0010
0001
0000
1010
0100
,
0001
0010
1000
0010
0001
0000
1100
0001
,
1000
0100
0001
0100
1000
0010
0001
0010
,
1000
0100
1001
0000
0110
0000
0100
0001
,
0001
0010
1000
0010
0001
0100
1000
0100
,
0001
1000
0001
0000
0100
0000
0010
0000
1000
0001
1000
0000
0200
0000
0000
0000
,
0310
0000
0001
0100
1000
0000
0001
0000
,
0100
0000
0010
1000
0001
0000
0010
0000
,
0100
0000
0010
0100
1000
0000
0001
0000
,
1000
0100
0010
0001
0000
0100
0010
0000
1000
0001
0000
1000
,
0100
0000
1010
0100
0001
0000
0011
0100
,
1000
0000
0001
0100
0001
0000
1000
0010
,
1000
0000
0100
0010
0001
0000
1000
0000
,
0001
0000
0100
0000
0010
0000
1000
0000
0000
1001
0000
0000
,
0010
0100
0010
1000
0100
0010
0001
1000
,
0020
0000
1030
0001
1000
0100
0010
0001
,
0200
0000
0301
0010
0100
1000
0010
2000
,
0000
3100
1000
0001
0000
0100
0010
1000
,
1001
0000
0100
0001
1000
0020
0000
0230
,
0000
0000
0301
0010
0001
0100
0010
1000
,
0200
0000
0000
0000
0310
0000
0001
0000
1000
0000
0010
0100
0010
0000
2000
0000
,
0001
0000
0100
0000
3001
0000
1000
0010
,
1000
0000
1000
0100
0000
0100
0010
0000
0010
0001
0000
0001
,
0100
0000
0100
0010
0000
0010
1000
0000
1000
0001
0000
0001
,
0010
0001
0010
0100
1000
0001
1000
0100
,
1000
0000
0000
0010
0000
0000
1000
0000
0000
0001
0000
0000
0010
0000
0000
0000
0100
0000
0000
0000
1000
0000
0000
0000
,
1100
0000
0001
1000
0001
0100
0010
1000
,
0200
0000
0320
0000
0031
0100
0010
1000
,
0001
0000
0010
0000
0001
0000
0100
0000
0010
0000
1000
0000
,
0001
0000
0000
0000
0000
0000
0000
0000
1000
0000
0000
0000
0000
0000
0000
0000
0010
0000
0000
0000
0000
0000
0000
0000
0100
0000
0000
0000
0000
0000
0001
0000
0000
1000
0000
0000
0001
0000
0000
1000
0000
0000
0001
0000
0000
0000
0000
0000
,
0100
0000
0000
0010
0010
0000
1000
0001
,
1000
0000
0000
0100
0100
0000
0010
0001
,
0110
0000
0000
1000
1000
0000
0001
0100
,
0010
0000
0000
0000
0010
0000
0000
0000
0010
0000
0000
0000
0010
0000
0000
0000
0000
0000
1000
0000
0000
0001
0000
0000
,
0101
0000
0000
0000
;

//---------------dance-single - ----------------
#NOTES:
     dance-single:
     :
     Medium:
     10:
     0.500293,0.576608,0.237427,0.237427,0.118713,413.000000,385.000000,28.000000,28.000000,0.000000,0.000000,0.500293,0.576608,0.237427,0.237427,0.118713,413.000000,385.000000,28.000000,28.000000,0.000000,0.000000:
0000
0000
0000
0000
,
0000
0000
0000
0000
,
0000
0000
0000
0000
,
0000
0000
0000
0000
,
0000
0000
0000
0000
0000
0100
0010
0000
0100
0010
0000
1000
,
0001
0101
0000
1100
,
0000
0101
0000
1100
,
0002
1000
0000
0103
,
0000
2000
3002
2003
,
3010
0100
0010
0100
0010
0000
1010
0000
,
0001
1000
0001
1000
0001
0000
0101
0000
,
0100
0010
0100
0010
0100
0000
0110
0000
,
1000
0001
1000
0001
1000
0000
1010
0000
,
0000
0000
0001
1000
0000
0000
0100
0010
,
0000
0110
0001
1000
,
0010
0000
1000
0001
0000
0000
1000
0100
,
0010
0000
0000
0001
0000
0000
0100
0000
0000
0010
0000
0000
1000
0000
0000
0000
0001
0000
0000
0000
1000
0000
0000
0000
,
0100
0000
0010
0001
0000
0000
1000
0000
,
0000
0000
0001
0100
0000
0000
0020
0000
,
2030
0000
3100
0010
0001
0000
1000
0000
,
0000
0000
0001
0000
0100
0000
0010
0000
1000
0000
0001
0000
,
1000
0000
0100
0010
0001
0000
1000
0000
,
0010
0000
0100
0001
0000
0000
1000
0000
,
0200
0000
0320
0000
0031
0000
1000
0001
,
0100
0000
0010
1000
0000
0000
0001
1000
,
0100
0000
1000
0000
0001
0000
0100
0010
,
0000
1000
0000
0000
0001
0010
0000
0001
,
1000
0000
0010
0100
0010
0000
1000
0000
,
0000
0000
0001
0000
1000
0000
0100
0000
0010
0000
0001
0000
,
0000
0100
0000
0010
0000
0000
1000
0000
,
0001
0100
0001
0100
0001
0000
1010
0000
,
0200
0000
0301
1000
0001
0000
0010
0100
,
1000
1100
0110
0011
,
1001
0000
0100
0000
2000
0000
3010
0100
,
0010
1000
0000
0001
0000
0001
0000
0010
,
0100
1000
0001
0000
0100
0000
0100
0000
,
0000
0000
0010
0000
1000
0000
0001
0000
1000
0000
0100
0000
,
0000
0010
0000
0001
0000
0000
1000
0000
,
0010
0100
0010
0100
0010
0000
0101
0000
,
2000
0000
3100
1000
0010
0000
0100
0001
,
0020
0000
0130
1000
0001
0000
0110
0000
,
1001
0000
0010
0000
1000
0000
0100
0010
,
0001
0100
0000
0010
0000
0010
0000
1000
,
0001
1000
0100
0000
0010
0000
0010
0000
,
0000
0000
0001
0000
1000
0000
0001
0000
0100
0000
0010
0000
,
0000
1000
0000
0001
0000
1000
0000
0100
,
0000
0000
0010
0001
0100
0000
0010
0000
,
1000
0000
0000
0001
0100
0010
0000
1000
,
0000
0100
0000
1000
0001
0000
1001
0000
,
0100
0001
0100
0001
0100
0000
1010
0000
,
1000
0100
1000
0100
1000
0000
0011
0000
,
0001
0010
0001
0010
0001
0000
1001
0000
,
0010
1000
0010
1000
0010
0000
0101
0000
,
1000
0100
1000
0100
1000
0100
1000
0100
,
1000
0000
1001
0000
0110
0000
0000
0100
,
0001
0100
0001
0100
0001
0100
0001
0100
,
0001
1000
0010
0100
0000
0000
0110
0000
,
0000
0000
1000
0100
0000
0000
1000
0000
,
0000
0000
0001
0100
0000
0000
0001
0000
,
0010
0000
0100
1000
0000
0000
0001
0000
,
0000
0000
0000
0000
0000
0100
0010
0000
0100
0010
0000
1000
,
0001
0101
0000
1100
,
0000
0000
0001
1000
0000
0000
0001
0000
,
0000
0000
0100
0010
0000
0000
1000
0000
,
0000
0002
2003
3002
,
0013
0100
1000
0000
1000
0000
0001
0200
,
0000
0000
0310
0000
0100
0000
0001
2000
,
0000
0000
3100
0000
1000
0010
0100
0001
,
0000
0010
0000
0001
0000
0100
0010
1000
,
0002
0000
0000
0000
0013
0100
0000
1000
,
0000
0000
0010
0000
1000
0001
1000
0100
,
0000
0000
0010
0000
0001
0100
0001
1000
,
0000
0010
0010
0100
,
0201
0320
2030
3002
,
1003
0100
1000
0000
0001
0010
0001
0000
,
0200
0320
2030
3002
,
0023
0000
0000
0230
0000
0000
1300
0000
0001
0000
1000
0000
,
0010
0000
0010
0000
1000
0001
1000
0100
,
0000
0000
0010
0000
0010
0001
1000
0001
,
0000
0000
0100
0010
1000
0000
0001
1000
,
0000
0010
1000
0010
1000
0001
1000
0100
,
0010
0000
0000
0001
1000
0000
0000
0001
,
0100
0000
0000
0010
1000
0000
0100
1000
,
0001
0000
0000
1000
0010
0000
0000
0100
,
0001
0000
0000
0000
1000
0000
0000
0000
0001
0000
0000
0000
0100
0000
0000
0000
0000
0000
0010
0000
0000
1000
0000
0000
,
0100
0000
0000
0000
;

//---------------dance-single - ----------------
#NOTES:
     dance-single:
     :
     Easy:
     7:
     0.339181,0.468494,0.254386,0.084795,0.000000,280.000000,250.000000,30.000000,10.000000,0.000000,0.000000,0.339181,0.468494,0.254386,0.084795,0.000000,280.000000,250.000000,30.000000,10.000000,0.000000,0.000000:
0000
0000
0000
0000
,
0000
0000
0000
0000
,
0000
0000
0000
0000
,
0000
0000
0000
0000
,
0000
0000
1000
0001
,
0100
0010
0000
0010
,
0000
1000
0000
1000
,
0000
0001
0000
0001
,
0000
0010
0100
1000
,
0001
0100
1001
1001
,
0010
0100
0010
0010
,
1000
0001
0110
0110
,
0100
0001
1000
1000
,
0000
0010
0000
1000
,
0000
0100
0000
0010
,
0000
0001
0000
1000
,
0001
0001
1000
1000
,
1001
0010
0000
0100
,
0000
0010
0000
1000
,
0000
0100
0000
0010
,
0000
0001
0100
0010
,
1000
0100
0001
0000
,
0020
0000
0000
0030
,
0002
0000
1003
0000
,
0001
0000
0100
0010
,
0110
1000
0001
1000
,
0100
0000
1000
0001
,
1000
0000
0010
0000
,
0100
0001
0100
0010
,
1000
0001
0100
0000
,
0001
1000
1001
1001
,
0200
0000
0310
0000
,
1000
0001
1000
0100
,
0010
0010
0110
0110
,
0001
1000
0001
0100
,
0010
0010
1001
1001
,
0000
0100
0001
0010
,
0100
1000
0001
0000
,
1000
0100
0110
0110
,
0002
0000
1003
0000
,
0001
0100
0010
0000
,
1000
1000
1001
1001
,
0010
0100
0001
0001
,
0100
0010
0110
0110
,
0000
1000
0010
1000
,
0100
0010
0001
0100
,
1000
0000
0010
0100
,
0001
0000
0010
0100
,
1000
0001
0110
1001
,
0100
0010
1001
1001
,
1000
0100
1000
1000
,
0001
0100
0110
0110
,
0001
0010
0001
0001
,
1000
0010
0100
0001
,
0010
1001
0110
0000
,
1000
0100
1000
0010
,
0100
0001
1000
0110
,
0000
0001
0000
0001
,
0000
1000
0000
1000
,
0000
0100
0000
0100
,
0010
0010
0001
1000
,
0010
0100
0000
0100
,
0000
0001
0000
1000
,
0000
0001
0000
0010
,
0000
0001
1000
0001
,
0200
0300
0100
0001
,
2000
3000
1000
0100
,
0001
0010
0001
0100
,
0010
1000
0001
0100
,
1001
0000
1000
0100
,
0010
0000
0001
0000
,
0100
0010
0100
0010
,
1000
0001
0001
0000
,
0020
0030
0200
0300
,
2000
3000
0002
0003
,
1000
0010
1000
0001
,
0010
0100
1000
0000
,
0001
0000
1000
0000
,
0100
0000
1000
0001
,
0100
0000
0010
0100
,
0010
1000
0100
0001
,
1001
0000
0100
0000
,
0100
0000
0100
0000
,
0110
0000
1000
0000
,
0001
0001
1000
0010
,
0100
0000
0000
0000
;

//---------------dance-single - ----------------
#NOTES:
     dance-single:
     :
     Beginner:
     4:
     0.161111,0.252266,0.050877,0.000000,0.000000,133.000000,127.000000,6.000000,0.000000,0.000000,0.000000,0.161111,0.252266,0.050877,0.000000,0.000000,133.000000,127.000000,6.000000,0.000000,0.000000,0.000000:
0000
0000
0000
0000
,
0000
0000
0000
0000
,
0000
0000
0000
0000
,
0000
0000
0000
0000
,
0000
0000
0000
0000
,
0000
1000
0000
1000
,
0000
1000
0000
1000
,
0000
0000
0000
0000
,
0010
0000
0100
0000
,
0001
0001
0001
0001
,
0000
0000
0000
0000
,
1000
1000
1000
1000
,
0000
0000
0000
0000
,
0000
0010
0000
0010
,
0000
0010
0000
0000
,
0000
0100
0000
0100
,
0000
0100
0000
0000
,
1001
0000
0000
0000
,
1000
0000
0000
0000
,
0001
0000
0000
0000
,
1000
0000
0010
0000
,
0100
0100
0100
0000
,
0001
0000
0000
0000
,
1000
0000
0000
0000
,
0001
0000
0000
0000
,
1001
0000
0100
0000
,
0001
0000
0100
0000
,
0100
0000
0000
0000
,
0010
0000
1000
0000
,
0001
0001
0001
0000
,
1000
1000
1000
0000
,
0100
0000
0000
0000
,
0010
0000
0000
0000
,
0001
0000
1000
0000
,
0001
0000
1000
0000
,
0100
0000
0010
0000
,
0000
0000
0001
0000
,
1000
0000
0000
0000
,
0100
0100
0100
0000
,
1000
0000
0000
0000
,
0010
0000
0000
0000
,
0100
0000
0001
0000
,
0100
0000
0010
0000
,
1000
0000
0001
0000
,
0000
0000
0010
0000
,
0100
0000
0000
0000
,
1000
0000
0001
0000
,
0001
0000
0000
0000
,
0100
0000
0000
0000
,
0010
0010
0010
0010
,
0000
0000
0000
0000
,
0100
0100
0100
0100
,
0000
0000
0000
0000
,
0001
0000
1000
0000
,
0001
0001
0001
0000
,
0100
0000
0010
0000
,
0100
0100
0000
0110
,
0000
0000
0000
0000
,
1000
0000
0000
0000
,
0001
0000
0000
0000
,
1000
0000
0100
0000
,
0010
0000
0000
0000
,
0001
0000
0000
0000
,
0100
0000
0000
0000
,
0010
0000
0100
0000
,
0001
0000
0000
0000
,
1000
0000
0000
0000
,
0001
0000
0000
0000
,
0010
0000
0100
0000
,
1000
0000
0000
0000
,
0001
0000
1000
0000
,
0010
0000
0100
0000
,
0001
0000
0000
0000
,
1000
0000
1000
0000
,
0001
0000
0001
0000
,
0010
0000
0000
0000
,
0100
0000
0000
0000
,
1001
0000
0000
0000
,
0100
0000
0000
0000
,
0010
0000
0010
0000
,
1000
0000
0001
0000
,
1001
0000
0000
0000
,
0000
0000
0000
0000
,
0010
0000
0000
0000
,
1000
1000
1000
0000
,
0110
0000
0000
0000
;

//---------------dance-single - ----------------
#NOTES:
     dance-single:
     :
     Challenge:
     17:
     0.881872,0.936989,0.593567,0.000000,0.555409,728.000000,658.000000,70.000000,0.000000,0.000000,0.000000,0.881872,0.936989,0.593567,0.000000,0.555409,728.000000,658.000000,70.000000,0.000000,0.000000,0.000000:
// measure 0
0000
0000
0000
0000
,  // measure 1
0000
0000
0000
0000
,  // measure 2
0000
0000
0000
0000
,  // measure 3
0000
0000
0000
0000
,  // measure 4
0001
0000
0010
0000
0100
0000
1000
0000
0000
0000
0010
0100
0010
0000
0000
0000
1000
0000
0100
0000
0000
0000
0010
0000
,  // measure 5
0001
0000
0101
0010
1000
0000
1100
0000
,  // measure 6
0001
0000
0000
0000
0000
0000
0100
0000
0000
0010
0000
0000
1000
0000
0000
0000
0000
0000
0100
0000
0000
0000
0100
0000
,  // measure 7
0010
0000
0011
1000
0001
0000
1010
0000
,  // measure 8
0100
0000
0000
0000
0001
0000
1000
0000
0010
0000
0000
0000
1000
0000
0000
0000
0100
0010
0001
0000
0000
0000
0000
0000
,  // measure 9
1000
0010
0100
0001
0011
0000
1100
0001
,  // measure 10
0100
0010
1000
0001
1010
0000
0101
1000
,  // measure 11
0100
0010
0001
1000
1001
0000
0110
1000
,  // measure 12
0100
0010
0001
0100
0110
0000
1001
1000
,  // measure 13
0001
0000
0011
0100
1000
0000
1010
0100
,  // measure 14
0001
0000
1100
0010
0001
0000
0110
0010
,  // measure 15
1000
0000
1001
0100
0010
0000
0101
1000
,  // measure 16
0001
0000
0000
0010
0000
0000
0100
0000
0000
0000
0000
0000
1000
0000
0000
0000
0000
0000
1000
0000
0000
0000
0000
0000
0010
0000
0000
1000
0000
0000
0001
0000
0000
0000
0000
0000
0100
0000
0000
0000
0000
0000
0001
0000
1000
0000
0001
0000
,  // measure 17
1000
0000
0010
0100
0001
0000
1000
0000
0100
0000
0000
0000
0010
0000
0001
0000
,  // measure 18
0100
0000
0001
0010
0100
0000
1000
0000
0001
0000
0000
0000
0100
0000
0001
0000
,  // measure 19
1000
0000
0001
0010
0100
0000
1000
0000
0010
0000
0000
0000
0100
0000
0001
0000
,  // measure 20
1000
0000
1100
0000
0110
0000
0011
0000
0101
0000
1001
0000
,  // measure 21
0110
0000
1000
0001
1000
0000
0100
0000
0010
0000
0000
0000
0001
0000
0100
0000
,  // measure 22
0010
0000
0100
0001
1000
0000
0100
0000
0010
0000
0000
0000
0001
0000
1000
0000
,  // measure 23
0001
0000
1000
0100
0010
0000
0100
0000
1000
0000
0000
0000
0010
0000
0100
0001
,  // measure 24
1000
0000
0000
0000
0001
0010
0001
0000
0100
0000
0000
0000
0010
0000
1000
0000
,  // measure 25
1001
0000
0100
0001
0010
0100
1000
0001
,  // measure 26
0100
0000
0010
1000
0010
0000
0100
0000
0001
0000
0010
0000
0001
0000
0100
0000
,  // measure 27
1000
0000
0010
1000
0001
0000
0100
0000
0001
0000
0000
0000
0010
0000
0100
0000
,  // measure 28
1000
0000
0000
0000
0000
0000
0000
0000
0001
0000
0000
0000
0000
0000
0000
0000
0100
0000
0000
0000
0000
0010
0000
0000
1000
0000
0000
0000
0000
0000
0000
0000
0100
0000
0000
0000
0000
0000
0000
0000
0001
0000
0000
0000
0000
0000
0000
0000
,  // measure 29
0010
0001
0100
0010
1000
0000
0001
0100
,  // measure 30
0010
1000
0001
0010
0011
0000
1100
0100
,  // measure 31
0010
0000
0000
0000
0001
0000
0100
0000
1000
0000
0000
0000
0010
0000
0100
0001
,  // measure 32
1000
0000
0000
0001
0010
0001
0010
0000
0000
0100
1000
0100
1000
0000
0000
0001
0100
0001
0100
0000
0000
0010
0000
0000
,  // measure 33
1010
0001
0100
0010
1000
0100
1000
0001
,  // measure 34
0011
0110
1000
1001
0010
0101
1000
0001
,  // measure 35
0010
0000
0100
1000
0001
0000
0100
0000
0001
0000
0010
0000
0100
0000
1000
0000
,  // measure 36
0010
0000
1010
0000
0101
0000
0011
0000
1100
0000
0101
0000
,  // measure 37
1000
0010
0100
0001
0010
0000
0110
1000
,  // measure 38
0100
0010
0001
1000
1100
0000
0101
0010
,  // measure 39
1000
0000
0001
0100
0001
0000
0010
0000
0100
0000
0000
0000
1000
0000
0010
0100
,  // measure 40
0001
0000
0000
0000
0000
0000
0010
0000
0000
0001
0000
0000
0100
0000
0000
0010
1000
0010
1000
0000
0000
0001
0000
0000
,  // measure 41
1001
0100
0001
0010
1000
0001
1000
0100
,  // measure 42
1100
0110
0001
0011
0100
1010
0001
0100
,  // measure 43
0010
0000
1000
0100
0010
0000
0001
0000
1000
0000
0001
0000
0100
0000
0010
1000
,  // measure 44
0001
0000
0010
0100
1000
0000
0001
0000
0100
0010
0000
0100
0001
0000
1000
0000
,  // measure 45
0100
0010
0001
0100
0010
1010
0001
1100
,  // measure 46
0100
0000
0000
1000
0001
0000
0100
0000
0001
0000
0010
0000
1000
0000
0100
0000
,  // measure 47
0110
0000
0000
0000
0001
0100
0010
0000
1000
0000
0100
0000
1000
0000
0001
0000
,  // measure 48
1000
0000
0000
0000
0010
0000
0000
0000
0100
0000
0000
0000
0001
0000
0000
0000
0010
0000
0000
0000
0100
0000
0000
0000
1000
0000
0000
0000
0000
0000
0001
0000
0000
0100
0000
0000
0001
0000
0000
0000
0000
0000
0000
0000
0000
0000
0000
0000
,  // measure 49
0010
0001
0100
1000
1001
0000
0101
0010
,  // measure 50
1000
0001
0010
0100
1100
0000
0011
0100
,  // measure 51
0001
0010
1000
0100
1100
0000
1001
0100
,  // measure 52
0001
1000
0100
0010
0011
0000
1010
0001
,  // measure 53
0100
0100
0010
0010
1000
1000
0001
0001
,  // measure 54
0010
0100
1001
0010
0110
0001
0100
0010
,  // measure 55
1000
1000
0100
0100
0010
0010
0001
0001
,  // measure 56
1000
0100
0010
0000
0001
0000
0001
0000
0100
0010
1000
0000
0110
0000
0001
0100
,  // measure 57
0001
0000
0000
1000
0100
0000
0010
0000
0001
0000
0000
0000
1000
0000
0001
0000
,  // measure 58
0100
0000
0000
0010
1000
0000
0001
0000
1000
0000
0100
0000
0001
0000
0010
0000
,  // measure 59
0100
0000
0000
1000
0001
0000
0010
0000
0001
0000
0000
0000
0100
0000
0010
0000
,  // measure 60
1000
0000
0100
0000
0010
0000
0001
0000
0000
0000
0100
0010
0100
0000
0000
0000
0001
0000
1000
0000
0000
0000
0100
0000
,  // measure 61
0010
0001
0101
1000
0010
0000
1100
0001
,  // measure 62
0100
0000
0000
0010
1000
0000
0001
0000
1000
0000
0000
0000
0100
0000
0010
0000
,  // measure 63
0001
0000
1000
0010
0001
0000
0100
1000
,  // measure 64
0010
0000
0000
0000
1000
0000
0010
0000
0100
0000
0000
0000
0001
0000
0000
0000
1000
0001
0100
0000
0000
0000
0000
0000
,  // measure 65
1001
0100
0001
0010
1000
0100
1000
0001
,  // measure 66
0100
0000
0000
0010
1000
0000
0001
0000
1000
0000
0100
0010
0001
0000
1000
0000
,  // measure 67
0001
0000
0100
0010
1000
0001
1000
0100
,  // measure 68
0010
0001
0100
1000
0001
0100
0010
1000
,  // measure 69
1100
0000
0010
0001
0100
0000
0010
0000
1000
0000
0100
0000
1000
0000
0001
0000
,  // measure 70
0100
0000
0000
0001
0010
0000
0001
1000
0100
0000
0010
0000
0001
0000
0100
0000
,  // measure 71
0010
0000
1000
0000
0100
0000
1000
0010
0100
0000
0001
0010
0100
0000
1000
0000
,  // measure 72
0001
0000
0000
0100
0001
0000
0010
0000
1000
0000
0000
0000
0100
0000
0010
0000
,  // measure 73
0001
0100
1000
0010
0100
0010
0001
1000
0010
0100
1000
0001
,  // measure 74
0010
0100
0001
1000
0100
1000
0001
0010
0100
0010
1000
0001
,  // measure 75
0010
0100
0001
0010
1000
0001
0100
1000
0001
0100
1000
0010
,  // measure 76
1000
0100
0010
0001
0010
0100
1000
0000
0001
0000
0100
0000
,  // measure 77
0110
0000
1000
0010
1000
0001
0010
0100
,  // measure 78
1000
0000
0000
0001
0010
0000
0001
0100
0010
0000
1000
0000
0001
0000
0100
0000
,  // measure 79
0010
0000
1000
0100
1000
0000
0001
0100
0001
0000
0010
0100
1000
0000
0001
0000
,  // measure 80
0100
0000
0000
0010
1000
0000
0001
0000
0010
0001
1000
0100
1000
0001
0010
0100
,  // measure 81
1000
0000
0000
0000
0000
0000
1000
0000
0001
0100
0001
0000
0010
0000
0100
0000
,  // measure 82
1000
1000
1000
0010
0010
0100
0001
1000
,  // measure 83
0101
0000
0010
1000
0100
0000
0010
0000
0001
0000
0100
0000
1000
0000
0001
0000
,  // measure 84
1010
0000
0000
0000
0101
0000
0000
0000
1100
0000
0000
0000
0011
0000
0000
0000
0000
0000
1000
0000
0000
0001
0000
0000
,  // measure 85
0110
0000
0000
0000
;
