#TITLE:Beyond The Earth;
#SUBTITLE:;
#ARTIST:猫叉Master;
#TITLETRANSLIT:;
#SUBTITLETRANSLIT:;
#ARTISTTRANSLIT:Nekomata Master;
#GENRE:;
#CREDIT:;
#BANNER:Beyond The Earth-bn.png;
#BACKGROUND:Beyond The Earth-bg.png;
#LYRICSPATH:;
#CDTITLE:;
#MUSIC:Beyond The Earth.ogg;
#OFFSET:0.000000;
#SAMPLESTART:44.356998;
#SAMPLELENGTH:20.000000;
#SELECTABLE:YES;
#DISPLAYBPM:140.000000;
#BPMS:0.000000=140.000000
;
#STOPS:
;
#BGCHANGES:0.000=Beyond The Earth.avi=1.000=0=0=0=StretchNoLoop====,
99999=-nosongbg-=1.000=0=0=0 // don't automatically add -songbackground-
;
#KEYSOUNDS:;
#ATTACKS:;

//---------------dance-single - ----------------
#NOTES:
     dance-single:
     :
     Beginner:
     3:
     0.130497,0.227274,0.051155,0.138849,0.000000,125.000000,118.000000,7.000000,19.000000,0.000000,0.000000,0.130497,0.227274,0.051155,0.138849,0.000000,125.000000,118.000000,7.000000,19.000000,0.000000,0.000000:
0000
0000
0000
0000
,
0000
0000
0000
0000
,
1000
0000
0000
0000
,
0001
0000
0000
0000
,
1000
0000
0000
0000
,
0001
0000
0001
0000
,
0010
0000
0000
0000
,
0100
0000
0000
0000
,
0010
0000
0000
0000
,
0100
0000
0100
0000
,
1000
0000
0000
0000
,
0001
0000
0000
0000
,
0010
0000
0100
0000
,
0010
0000
0010
0000
,
0001
0000
0000
0000
,
1000
0000
0000
0000
,
0100
0000
0010
0000
,
0100
0000
0100
0000
,
1000
0000
1000
0000
,
0001
0000
0001
0000
,
0100
0000
0100
0000
,
0020
0000
0030
0000
,
1000
0000
1000
0000
,
0001
0000
0001
0000
,
0010
0000
0010
0000
,
0200
0000
0300
0000
,
0010
0000
0001
0000
,
0010
0000
0001
0000
,
1000
0000
0100
0000
,
2000
0000
0000
3000
,
0010
0000
1000
0000
,
0010
0000
1000
0000
,
0002
0000
0000
0003
,
2000
0000
3000
0000
,
0010
0000
0010
0000
,
0100
0000
0100
0000
,
0001
0000
0001
0000
,
1000
0000
1000
0000
,
0100
0000
0100
0000
,
0010
0000
0010
0000
,
0001
0000
0001
0000
,
1000
0000
1000
0000
,
0010
0000
0010
0000
,
0010
0000
0010
0000
,
0100
0000
0100
0000
,
0100
0000
0100
0000
,
0001
0000
1001
0000
,
1000
0000
1001
0000
,
0010
0000
0100
0000
,
2002
0000
3003
0000
,
0002
0000
0000
0000
,
0000
0000
0000
0003
,
2000
0000
0000
0000
,
0000
0000
0000
3000
,
0020
0000
0000
0000
,
0000
0000
0000
0030
,
0200
0000
0000
0000
,
0000
0000
0000
0300
,
0001
0000
1000
0000
,
0001
0000
1000
0000
,
0010
0000
0100
0000
,
0020
0000
0000
0030
,
0100
0000
0010
0000
,
0100
0000
0010
0000
,
2000
0000
0000
3000
,
0002
0000
0000
0003
,
1000
0000
0010
0000
,
1000
0000
0010
0000
,
0100
0000
0001
0000
,
0200
0000
0000
0300
,
0010
0000
0100
0000
,
0010
0000
0100
0000
,
0002
0000
0000
0003
,
2000
0000
0000
3000
,
0010
0000
1001
0000
,
0100
0000
1001
0000
,
1000
0000
1001
0000
,
0001
0000
2002
3003
,
0000
0000
0000
0000
;

//---------------dance-single - ----------------
#NOTES:
     dance-single:
     :
     Easy:
     5:
     0.238027,0.284093,0.299622,0.423856,0.000000,228.000000,187.000000,41.000000,58.000000,0.000000,0.000000,0.238027,0.284093,0.299622,0.423856,0.000000,228.000000,187.000000,41.000000,58.000000,0.000000,0.000000:
0000
0000
0000
0000
,
0000
0000
0000
0000
,
1000
0000
0001
0000
,
0100
0010
1000
0001
,
0200
0300
0020
0030
,
1000
1000
1001
0000
,
0001
0000
1000
0000
,
0010
0100
0001
1000
,
0020
0030
0200
0300
,
0001
0001
1001
0000
,
1000
0100
0001
0000
,
0100
1000
0010
0000
,
0110
0000
1001
0000
,
1000
0001
1001
0000
,
0001
0010
1000
0000
,
0010
0001
0100
0000
,
0110
0000
1001
0000
,
0001
1000
1001
0000
,
1000
0010
1000
0000
,
0001
0100
0001
0000
,
0010
0000
0010
0000
,
0110
1000
0001
0000
,
0001
0010
0001
0000
,
1000
0100
1000
0000
,
0010
0000
0010
0000
,
0110
0001
1000
0000
,
2200
0300
0002
0003
,
0020
3030
0100
0010
,
0202
0300
2000
3000
,
0020
0000
0000
0033
,
2200
3000
0002
0003
,
0020
0330
0010
0100
,
0220
0000
0000
0330
,
2002
0000
3003
0000
,
1000
0000
0001
0000
,
0010
0100
1000
0001
,
0020
0030
0200
0300
,
1000
0001
1001
0000
,
0001
0000
1000
0000
,
0100
0010
0001
1000
,
0200
0300
0020
0030
,
0001
1000
1001
0000
,
0001
0100
0001
0100
,
0010
1000
0010
1000
,
0100
0010
0100
0010
,
0001
0100
0001
0100
,
1001
0000
1100
0000
,
1001
0000
0011
0000
,
1001
0000
1010
0000
,
0010
0100
1001
0000
,
2000
0000
0000
3000
,
0002
0003
0020
0030
,
0200
0000
0000
0300
,
0020
0030
0001
1000
,
0200
0000
0000
0300
,
0020
0030
0001
1000
,
0220
0000
0000
0330
,
1001
0000
0010
0010
,
2002
0003
0020
3030
,
0202
0300
2000
0003
,
0200
3000
0020
0300
,
0002
0000
0000
0033
,
2002
3000
0200
0303
,
2020
0030
0002
3003
,
0220
0000
0000
0330
,
2002
0000
0000
3003
,
1000
0001
0010
0100
,
0010
0001
1000
0010
,
0200
0300
0020
0030
,
2000
3000
0002
0003
,
0100
0010
1000
0001
,
1000
0010
0100
0001
,
2000
0000
0000
0000
,
0002
0000
0000
3003
,
0110
0000
0011
0000
,
1010
0000
0011
0000
,
0110
0000
1001
0000
,
0110
0000
1001
1001
,
0000
0000
0000
0000
;

//---------------dance-single - ----------------
#NOTES:
     dance-single:
     :
     Medium:
     10:
     0.397756,0.482958,0.153465,0.292314,0.102310,381.000000,360.000000,21.000000,40.000000,0.000000,0.000000,0.397756,0.482958,0.153465,0.292314,0.102310,381.000000,360.000000,21.000000,40.000000,0.000000,0.000000:
0000
0000
0000
0000
,
0000
0000
0000
0000
,
0001
0100
0000
0010
1000
0000
0010
0000
,
1000
0100
0010
0100
0001
0000
0100
1000
,
0010
0000
0010
1000
0100
0000
0001
0100
,
1000
0000
0000
1000
0000
0000
1000
0000
0010
0000
0000
0000
0000
0000
0000
0000
,
0100
0001
0000
1000
0010
0000
1000
0000
,
0010
1000
0001
1000
0100
0000
0001
0100
,
2000
0000
0001
3100
,
0001
0000
0000
0001
0000
0000
0001
0000
0000
0000
0000
0000
0000
0000
0000
0000
,
0010
0001
0000
0010
0001
0000
0010
0000
,
0001
0100
1000
0100
0001
0000
0010
0001
,
1000
0000
1000
0001
0100
0000
0010
0100
,
0001
0000
0000
0001
0000
0000
0001
0000
1000
0000
0000
0000
0000
0000
0000
0000
,
1000
0100
0000
1000
0100
0000
1000
0000
,
0100
1000
0010
1000
0100
0000
0010
0001
,
0200
0000
0010
0301
,
1000
0000
0000
1000
0000
0000
1000
0000
0000
0000
0000
0000
1001
0000
0000
0000
,
0001
0100
0001
0000
1000
0010
1000
0000
,
0010
1000
0010
0000
0100
0001
0100
0000
,
0010
0100
0010
0000
1000
0001
1000
0000
,
0010
0100
0000
0001
1000
0000
1001
0000
,
1000
0100
1000
0000
0100
0010
0100
0000
,
0010
0001
0010
0000
0001
1000
0001
0000
,
0010
0100
0010
0000
0100
0001
0100
0000
,
1000
0010
0000
0100
0001
0000
0000
1000
,
0002
0000
0003
0100
0020
0000
0030
1000
,
0002
0000
0003
1000
0100
0010
0001
0000
,
2000
0000
3000
0001
0200
0000
0300
0001
,
2000
0000
0000
0000
0000
0000
3000
0010
,
0200
0000
0300
0001
2000
0000
3000
0010
,
0200
0000
0300
0001
0010
0100
1000
0000
,
0002
0000
0000
0003
,
2000
0000
3000
0000
,
0100
0010
0000
0001
0100
0010
1000
0000
,
0001
0010
0001
1000
0100
0000
0010
0001
,
0200
0000
0310
1000
0200
0000
0310
1000
,
0001
0000
0000
0001
0000
0000
0001
0000
0100
0000
0000
0000
0000
0000
0000
0000
,
1000
0001
0000
0100
0010
1000
0010
0000
,
0100
0001
0100
0010
1000
0000
1000
0001
,
0200
0000
1000
0310
,
0001
0000
0000
0001
0000
0000
0001
0000
0000
0000
0000
0000
0000
0000
0000
0000
,
0010
0001
0100
1000
0100
0001
0010
0000
,
0100
1000
0010
0001
0010
0100
1000
0000
,
0100
0001
0010
0000
0100
1000
0010
0000
,
1000
0000
0000
1000
0000
0000
1000
0000
0001
0000
0001
0000
0001
0000
0000
0000
,
0010
0000
0000
0010
0000
0000
0000
0000
0100
0000
0000
0100
0000
0000
0000
0000
,
0011
0000
0000
0011
0000
0000
0000
0000
1000
0100
0000
1000
0100
0000
0000
0000
,
0110
0000
0000
0110
0000
0000
0000
0000
1001
0000
0000
1001
0000
0000
0000
0000
,
0010
0010
1001
0000
,
0010
0001
0010
0001
1000
0000
1000
0000
,
0001
0100
0001
0100
0010
0000
0010
0000
,
1002
0103
2010
3001
,
0100
0010
0000
1000
0001
0000
1001
0000
,
0001
0100
1000
0100
0000
0100
0001
0000
,
1000
0010
0001
0010
0000
0010
1000
0000
,
0010
0000
0000
0010
0000
0000
0010
0000
0100
0000
0000
0000
0100
0000
0000
0000
,
0001
0000
1000
0000
0000
0000
0100
0000
0010
0000
0000
0010
0000
0000
0010
0000
,
0002
0000
0003
0100
0020
0000
0030
1000
,
0200
0000
0000
0000
0300
0000
0010
0000
0001
0000
1000
0000
0100
0000
0000
0010
,
0200
0000
0300
1000
0002
0000
0003
0100
,
0020
0000
0000
0000
0000
0000
0030
1000
,
0200
0000
0300
0001
2000
0000
3000
0010
,
0002
0000
0000
0000
0003
0000
0010
0000
0001
0000
0100
0000
0010
0000
0000
1000
,
0200
0000
0000
0000
0000
0000
0300
0010
,
0002
0000
0000
0000
0000
0000
0003
0010
,
0002
0000
0003
0100
2000
0000
3000
0100
,
0020
0000
0000
0000
0030
0000
1000
0000
0010
0000
0001
0000
0010
0000
0000
1000
,
0200
0000
0300
0010
0200
0000
0300
1000
,
0002
0000
0000
0000
0000
0000
0003
0100
,
0020
0000
0030
1000
0002
0000
0003
0010
,
2000
0000
0000
0000
3000
0000
0001
0000
0100
0000
1000
0000
0001
0000
0000
0010
,
0200
0000
0000
0000
0000
0000
0300
1000
,
0002
0000
0000
0003
,
1000
0000
0000
1001
0000
0000
0000
0000
0010
0000
0000
0110
0000
0000
0000
0000
,
0001
0000
0000
0011
0000
0000
0000
0000
1000
0000
0000
1100
0000
0000
1000
0000
,
0100
0000
0000
0011
0000
0000
0000
0000
1010
0000
0000
0101
0000
0000
0000
0000
,
1001
0000
0000
1000
0000
0000
0001
0000
0100
0010
0000
0000
1001
0000
0000
0000
,
0000
0000
0000
0000
;

//---------------dance-single - ----------------
#NOTES:
     dance-single:
     :
     Hard:
     13:
     0.581497,0.625005,0.350777,0.321546,0.434818,557.000000,509.000000,48.000000,44.000000,0.000000,0.000000,0.581497,0.625005,0.350777,0.321546,0.434818,557.000000,509.000000,48.000000,44.000000,0.000000,0.000000:
0000
0000
0000
0000
,
0000
0000
0000
0000
0000
0000
0000
0001
,
1000
0010
0000
0010
0001
0010
1000
0100
,
0001
0100
0010
0001
0100
0000
1000
0100
,
0002
0000
1003
0100
0002
0000
1003
0010
,
0001
0000
0000
0001
0000
0000
0001
0000
1000
0000
0000
0000
0000
0000
1000
0000
,
0001
0100
0000
0100
1000
0100
0001
0010
,
1000
0010
0100
1000
0010
0000
1000
0001
,
2002
0000
0000
0003
0020
0030
0200
3300
,
0011
0000
0000
0110
0000
0000
1001
0000
0000
0000
0000
0000
0000
0000
0001
0000
,
0100
0010
0000
0100
0010
1000
0001
0010
,
1000
0001
0100
0010
0001
0000
0010
0001
,
2000
0000
3010
0001
2000
0000
3100
0001
,
0100
0000
0000
0100
0000
0000
0100
0000
0010
0000
0000
0000
0000
0000
1000
0000
,
0100
0010
0000
0100
0010
0001
1000
0010
,
0001
1000
0100
0010
1000
0000
0001
1000
,
0020
0000
0000
0000
2000
3000
0200
0330
,
0011
0000
0000
0110
0000
0000
1010
0000
0000
0000
1000
0000
1001
0000
0000
0000
,
0001
0000
0100
0000
0001
0000
1000
0010
0000
0010
1000
0000
0010
0000
1000
0000
,
0001
0000
1000
0000
0001
0000
0010
0100
0000
0100
0010
0000
0001
0000
1000
0000
,
0001
0000
0010
0000
0100
0000
1000
0001
0000
0001
1000
0000
0100
0000
0010
0000
,
0001
0000
0010
0000
0000
0000
0010
0000
0100
0000
1000
0000
0100
0010
0100
0000
,
1000
0000
0001
0000
1000
0000
0010
0100
0000
0100
0010
0000
0001
0000
1000
0000
,
0100
0000
0001
0000
0010
0000
0001
0010
0000
0010
0001
0000
1000
0000
0001
0000
,
1000
0000
0000
1000
0000
0000
1000
0000
0001
0000
0000
0001
0000
0000
0001
0000
,
0100
0000
0010
0000
0000
0000
1000
0000
0001
0000
0000
0000
0000
0000
1000
0100
,
2000
0000
0000
0000
0000
0000
3001
0100
0002
0000
0000
0000
0000
0000
1003
0010
,
2000
0000
0000
0000
0000
0000
3001
0010
0001
0000
1000
0000
0010
0000
0000
0100
,
0020
0000
0000
0000
0000
0000
1030
0001
2000
0000
0000
0000
0000
0000
3100
0010
,
0200
0000
0000
0000
0000
0000
0000
0000
0000
0000
0000
0000
0000
0000
0310
1000
,
0020
0000
0000
0000
0000
0000
0130
0001
0200
0000
0000
0000
0000
0000
0310
0001
,
0020
0000
0000
0000
0000
0000
0130
1000
0100
0000
0010
0000
0001
0000
0000
0010
,
0200
0000
0000
0000
0000
0000
0000
0000
0000
0000
0000
0000
0000
0000
1300
0001
,
2000
3000
0200
0300
0020
0030
0100
0100
,
0010
0001
0000
0100
0010
0001
0010
1000
,
0100
0010
0001
0100
0001
0000
0001
0100
,
2000
0000
3001
0010
2000
0000
3001
0010
,
0100
0000
0000
0100
0000
0000
0100
0000
0010
0000
0000
0000
0000
0000
0001
0000
,
0010
0010
0000
0100
1000
0010
0001
0010
,
0100
1000
0100
0001
0010
0000
1000
0010
,
0022
0000
0000
0030
2000
3000
0200
0303
,
1001
0000
0000
1100
0000
0000
0101
0000
0000
0000
0000
0000
0000
0000
0000
0000
,
0001
0000
0000
0100
0001
0000
0100
0000
0010
0000
0000
1000
0010
0000
1000
0000
,
0100
0000
0000
0010
0100
0000
0010
0000
0001
0000
0001
0000
1000
0000
1000
0000
,
0001
0000
0000
0010
0001
0000
0010
0000
0100
0000
0000
1000
0100
0000
1000
0000
,
0001
0000
0000
1000
0001
0000
1000
0000
0010
0000
0010
0000
0010
0000
0000
0000
,
1010
0000
0000
1100
0000
0000
0000
0000
0010
0001
0000
0001
0000
0000
0000
0000
,
0011
0000
0000
0101
0000
0000
0000
0000
0010
0100
0000
0100
0010
0000
0000
0000
,
1001
0000
0000
0110
0000
0000
0000
0000
1100
0000
0000
0101
0000
0000
0000
0000
,
0010
0000
0010
0000
0010
0000
0010
0000
0000
0100
0000
0000
1001
0000
0000
0000
0000
0000
0000
0000
0000
0000
0000
0000
,
1000
0000
0001
0000
0100
0000
0010
1000
0000
1000
0010
0000
0100
0000
1000
0000
,
0100
0000
0001
0000
0010
0000
1000
0010
0000
0010
1000
0000
0010
0000
0001
0000
,
1000
0000
0100
0000
0001
0000
0100
0010
0000
0010
0100
0000
0001
0000
1000
0000
,
0010
0000
0001
0000
1000
0000
0010
0100
0010
0000
0001
0000
1000
0100
1000
0000
,
0100
0000
0001
0000
0010
0000
0100
1000
0000
1000
0100
0000
0010
0000
0001
0000
,
0100
0000
0010
0000
0001
0000
0010
1000
0000
1000
0010
0000
0100
0000
0001
0000
,
0100
0000
0000
0100
0000
0000
0100
0000
0110
0000
0000
0000
0101
0000
0000
0000
,
1010
0000
0010
0000
0000
0000
0010
0000
0100
0000
0000
0100
0000
0000
0100
0001
,
0200
0000
0000
0010
0000
0000
0310
1000
0020
0000
0000
0100
0000
0000
0130
1000
,
0200
0000
0000
0001
0000
0000
0301
0010
0001
0000
1000
0000
0001
0000
0000
0100
,
0020
0000
0000
0100
0000
0000
0130
0001
0200
0000
0000
0010
0000
0000
0310
1000
,
0020
0000
0000
0001
0000
0000
0100
0000
0230
0000
0000
0000
0301
0000
1000
0100
,
2000
0000
0000
0001
0000
0000
3010
0100
0020
0000
0000
0001
0000
0000
1030
0001
,
2000
0000
0000
0001
0000
0000
3010
0100
0010
0000
1000
0000
0001
0000
0000
2000
,
0010
0000
0000
0010
0000
0000
0010
0000
3002
0000
0000
0000
0013
0000
0100
0010
,
0200
0000
0000
0000
0000
0000
0000
0000
0000
0000
0000
0000
0300
0000
1000
0001
,
1000
0000
0000
0110
0000
0000
0100
0010
0100
0000
0000
1100
0000
0000
1000
0100
,
1000
0000
0000
0011
0000
0000
0010
0001
0010
0000
0001
0000
0101
0000
0000
0100
,
0010
0000
0000
1001
0000
0000
1000
0001
1000
0000
0000
0010
0000
0000
0001
0000
,
0021
0000
0001
0000
0000
0000
1000
0000
1000
0000
0000
0000
0130
0000
0001
1000
,
0001
0000
0000
0110
0000
0000
0010
0100
0010
0000
0000
0101
0000
0000
0001
0100
,
0001
0000
0000
1001
0000
0000
0001
1000
0001
0000
1000
0000
1100
0000
0000
0100
,
1000
0000
0000
0001
0000
0000
1010
0000
0001
0000
0000
1000
0000
0000
0011
0000
,
0010
0001
0000
0001
0100
0000
0010
1000
0000
1000
0100
0000
1001
0000
0000
0000
,
1010
0000
0000
0100
0000
0000
0001
0000
0101
0000
0000
0010
0000
0000
1000
0000
,
0011
0000
0000
0100
0000
0000
1000
0000
1100
0000
0000
0010
0000
0000
0100
0010
,
0100
0000
0000
1001
0000
0000
0100
0000
1001
0000
0000
0101
0000
0000
0100
0000
,
1010
0000
0000
1001
0000
0000
1100
0000
0010
0100
0000
0000
0110
0000
0000
0000
,
0000
0000
0000
0000
;

//---------------dance-double - ----------------
#NOTES:
     dance-double:
     :
     Easy:
     5:
     0.259951,0.312502,0.255775,0.409240,0.000000,249.000000,214.000000,35.000000,56.000000,0.000000,0.000000,0.259951,0.312502,0.255775,0.409240,0.000000,249.000000,214.000000,35.000000,56.000000,0.000000,0.000000:
00000000
00000000
00000000
00000000
,
00000000
00000000
00000000
00000000
,
00010000
00000000
00010000
00001000
,
00100000
00010000
10000000
01000000
,
00200000
00300000
00002000
00003000
,
00010000
00010000
00011000
00000000
,
00001000
00000000
00001000
00010000
,
00000100
00001000
00000001
00000010
,
00000200
00000300
00010000
00001000
,
00022000
00000000
00033000
00000000
,
00010000
00001000
01000000
00010000
,
00100000
00001000
00010000
00000100
,
00000020
00000030
00000200
00000300
,
00010000
00001000
00011000
00000000
,
00001000
00010000
00000010
00001000
,
00000100
00010000
00001000
00100000
,
02000000
03000000
00010000
00001000
,
00022000
00000000
00033000
00011000
,
00010100
00000000
00001010
00000000
,
00000010
00000100
00001000
00010000
,
00101000
00000000
01010000
00000000
,
10000000
00010000
10010000
00000000
,
01010000
01001000
00000000
00010000
,
00000010
00000000
00000010
00000100
,
00000010
00000000
00000110
00000000
,
00000001
00001000
00001001
00000000
,
00000002
00000103
00000020
00001030
,
00000200
00010300
00001000
00100000
,
02000000
13000000
00020000
00130000
,
12000000
00000000
00000000
03000000
,
20000000
30100000
02000000
03010000
,
00200000
00301000
00010000
00000010
,
00000200
00000000
00000000
00000300
,
00002002
00000000
00003003
00000000
,
00000001
00000000
00000100
00000010
,
00001000
00000100
00010000
00001000
,
00011000
00000000
00100000
00010000
,
10000000
01000000
00100000
00000000
,
00010000
00000000
10000000
00100000
,
01000000
00001000
00010000
00000010
,
00000200
00000300
00000001
00001000
,
00002002
00000000
00003003
00000000
,
00000001
00000001
00000010
00000010
,
00001000
00001000
00010000
00010000
,
00001000
00001000
00100000
00100000
,
00010000
00010000
10000000
10000000
,
10010000
00000000
01010000
00000000
,
00101000
00000000
00010100
00000000
,
00000110
00000000
00001001
00000000
,
00000010
00000010
00001001
00000000
,
00000002
00000000
00000000
00000003
,
00000200
00000300
00002000
00003000
,
00020000
00000000
00000000
00030000
,
00200000
00300000
10000000
00010000
,
20000000
00000000
00000000
30000000
,
00200000
00300000
00010000
00001000
,
00022000
00000000
00000000
00033000
,
00011000
00000000
00010000
00001000
,
00200000
01300000
20000000
30010000
,
02000000
03001000
00010000
00000100
,
00000020
00000031
00000200
00001300
,
00000200
00000000
00000000
00000300
,
00000002
00000013
00000200
00010300
,
00002000
01003000
00100000
10000000
,
02000000
00000000
00000000
00000000
,
00020000
00000000
00000000
03030000
,
00002000
00003010
00000002
00000103
,
00000020
00001030
00010000
01000000
,
00200000
10300000
02000000
03010000
,
00002000
00000000
00000000
00003000
,
00000020
00000130
00000200
00010300
,
00020000
00031000
00100000
00010000
,
02000000
00000000
00000000
00000000
,
00200000
00000000
00000000
03300000
,
10010000
00000000
01010000
00000000
,
00101000
00000000
00010000
00000100
,
00000110
00000000
00001001
00000000
,
00000110
00000000
00001001
00001001
,
00000000
00000000
00000000
00000000
;

//---------------dance-double - ----------------
#NOTES:
     dance-double:
     :
     Medium:
     10:
     0.414460,0.568186,0.314238,0.350777,0.095002,397.000000,354.000000,43.000000,48.000000,0.000000,0.000000,0.414460,0.568186,0.314238,0.350777,0.095002,397.000000,354.000000,43.000000,48.000000,0.000000,0.000000:
00000000
00000000
00000000
00000000
,
00000000
00000000
00000000
00000000
,
00010000
00001000
00000000
00010000
00001000
00000100
00000010
00000000
,
00001000
00000100
00000001
00000100
00001000
00000000
00000010
00000000
,
00020000
00031000
00002000
00103000
,
01000000
00000000
00000000
01000000
00000000
00000000
01000000
00000000
00100000
00000000
00000000
00000000
00000000
00000000
00000000
00000000
,
00001000
00010000
00000000
00001000
00010000
00100000
01000000
00000000
,
00010000
00100000
10000000
00100000
00010000
00000000
01000000
00000000
,
00002000
00000000
00013000
00000100
,
00000010
00000000
00000000
00000010
00000000
00000000
00000010
00000000
00000000
00000000
00000000
00000000
00000000
00000000
00000000
00000000
,
00001000
00010000
00000000
00001000
00010000
01000000
00100000
00000000
,
00001000
00010000
00100000
10000000
01000000
00000000
00010000
00000000
,
00002000
00003010
00000002
00000103
,
00001000
00000000
00000000
00001000
00000000
00000000
00001000
00000000
00010000
00000000
00000000
00000000
00000000
00000000
00000000
00000000
,
00010000
00001000
00000000
00010000
00001000
00000010
00000100
00000000
,
00010000
00001000
00000010
00000001
00000100
00000000
00001000
00000000
,
00022000
00033000
00101000
01010000
,
00100000
00000000
00000000
00100000
00000000
00000000
00100000
00000000
00000000
00000000
00000000
00000000
10010000
00000000
00000000
00000000
,
10000000
01000000
00010000
00000000
00001000
00000000
00000010
00000000
,
00000001
00000100
00001000
00000000
00010000
00000000
00100000
00000000
,
10000000
01000000
00010000
00000000
01000000
00010000
00001000
00000000
,
00000010
00000001
00000000
00000100
00000020
00000000
00000130
00000000
,
00000001
00000010
00001000
00000000
00010000
00000000
01000000
00000000
,
10000000
00100000
00010000
00000000
00001000
00000000
00000100
00000000
,
00001010
00000000
00000101
00000000
00000001
00000100
00001000
00000000
,
00010000
00001000
00000000
00001000
00020000
00000000
00000000
00031000
,
00200000
00000000
00000000
00310000
20000000
00000000
00000000
30100000
,
02000000
00000000
00000000
03001000
00010000
00001000
00000100
00000000
,
00000020
00000000
00000000
00010030
00002000
00000000
00000000
00003010
,
00000002
00000000
00000000
00000000
00000000
00000000
00000000
00001003
,
00000200
00000000
00000000
00000310
00002000
00000000
00000000
00013000
,
00000200
00000000
00000000
00000310
00001000
00010000
00100000
00000000
,
02200000
00000000
00000000
00000000
00000000
00000000
00300000
00010000
,
00020000
00000000
03030000
00000000
,
00010000
00100000
00000000
00001000
00010000
00000100
00001000
00000000
,
00000010
00001000
00000100
00001000
00000010
00000000
00001010
00000000
,
00000101
00000000
00000001
00000100
00000010
00000000
00000100
00000010
,
00001000
00000000
00000000
00001000
00000000
00000000
00001000
00000000
00000100
00000000
00000000
00000000
00000000
00000000
00000000
00000000
,
00001000
00000100
00000000
00010000
00001000
00100000
00010000
00000000
,
01000000
00010000
00100000
00010000
01000000
00000000
11000000
00000000
,
00220000
00000000
00000000
00030000
00002000
00300000
00020000
00033000
,
00010000
00000000
00000000
00010000
00000000
00000000
00010000
00000000
00000000
00000000
00000000
00000000
00001000
00000000
00000000
00000000
,
00010100
00000000
00001000
00000010
00000100
00000000
00000110
00000000
,
00001010
00000000
00000100
00010000
00001000
00000000
01001000
00000000
,
01100000
00000000
10000000
00100000
01000000
00000000
10100000
00000000
,
01100000
00000000
00100000
01000000
00001000
00000000
00011000
00000000
,
00011000
00000000
00000000
00010100
00000000
00000000
00000000
00000000
00001010
00000000
00000000
00000110
00000000
00000000
00000000
00000000
,
00000101
00000000
00000000
00001001
00000000
00000000
00000000
00000000
00000010
00000100
00000000
00000010
00000100
00000000
00000000
00000000
,
00001001
00000000
00000000
00001100
00000000
00000000
00000000
00000000
00010010
00000000
00000000
00011000
00000000
00000000
00000000
00000000
,
00101000
01010000
10010000
00000000
,
10000000
01000000
10000000
00000000
01000000
00000000
00010000
00000000
,
00001000
00010000
00001000
00000000
00000100
00000000
00000001
00000000
,
00000100
00001000
00010000
00000000
00001000
00010000
00100000
00000000
,
10000000
01000000
00000000
01000000
00020000
00000000
00000000
00030000
,
00001000
00010000
00001000
00000000
00000100
00000000
00000001
00000000
,
00000010
00000001
00000010
00000000
00001000
00000000
00010000
00000000
,
00101000
01010000
00101000
00010100
,
00000100
00000000
00001000
00000000
00000000
00000000
00000001
00000000
00000010
00000000
00000000
00000010
00000000
00000000
00000010
00000000
,
00000200
00000000
00000000
00010300
00002000
00000000
00000000
00103000
,
02000000
00000000
00000000
00000000
00000000
00000000
13000000
00000000
00100000
00000000
01000000
00000000
00010000
00000000
00000000
00100000
,
00002000
00000000
00000000
00013000
00000020
00000000
00000000
00000130
,
00000002
00000000
00000000
00000000
00000000
00000000
00000000
00000103
,
00000020
00000000
00000000
00010030
00002000
00000000
00000000
00103000
,
00020000
00000000
00000000
00000000
00000000
00000000
01030000
00000000
00001000
00000000
00010000
00000000
00000100
00000000
00000000
00000010
,
00000200
00000000
00000000
00000000
00000000
00000000
00000000
00010300
,
00002000
00000000
00000000
00000000
00000000
00003000
00000000
00001000
,
00020000
00000000
00130000
10000000
02000000
00000000
13000000
01000000
,
00020000
00000000
00000000
00000000
01030000
00000000
00010000
00000000
00001000
00000000
00000010
00000000
00000001
00000000
00000000
00000100
,
00002000
00000000
00003100
00000001
00000020
00000000
00000031
00000010
,
00002000
00000000
00000000
00000000
00000000
00000000
00000000
00013000
,
00000020
00000000
00001030
00000010
00000002
00000000
00000013
00001000
,
00000200
00000000
00000000
00000000
00000310
00000000
00000100
00000000
00010000
00000000
00001000
00000000
00100000
00000000
00000000
00010000
,
02000000
00000000
00000000
00000000
00000000
00000000
00000000
00100000
,
00200000
00000000
00000000
03300000
,
10000000
00000000
00000000
00010000
00000000
00000000
00100000
00000000
00001000
00000000
00000000
00010000
00000000
00000000
00000100
00000000
,
00000010
00000000
00000000
00000001
00000000
00000000
00000100
00000000
00001000
00000000
00000000
00010000
00000000
00000000
00001000
00000000
,
00011000
00000000
00000000
00101000
00000000
00000000
00010000
00000000
00011000
00000000
00000000
00010100
00000000
00000000
00001000
00000000
,
00011000
00000000
00000000
00010010
00000000
00000000
00001000
00000000
00010000
00001000
00000000
00000000
00011000
00000000
00000000
00000000
,
00000000
00000000
00000000
00000000
;

//---------------dance-double - ----------------
#NOTES:
     dance-double:
     :
     Hard:
     13:
     0.544957,0.625005,0.241159,0.299622,0.380009,522.000000,489.000000,33.000000,41.000000,0.000000,0.000000,0.544957,0.625005,0.241159,0.299622,0.380009,522.000000,489.000000,33.000000,41.000000,0.000000,0.000000:
00000000
00000000
00000000
00000000
,
00000000
00000000
00000000
00000000
00000000
00000000
00000000
00010000
,
00001000
00010000
00000000
00001000
00010000
00001000
00000100
00000010
,
00000100
00000001
00000010
00000001
00000100
00000000
00000001
00000100
,
00002000
00000000
00003100
00000001
00000020
00000000
00001030
00010000
,
00001000
00000000
00000000
00001000
00000000
00000000
00001000
00000000
00010000
00000000
00000000
00000000
00000000
00000000
00001000
00000000
,
00010000
00001000
00000000
00010000
00001000
00010000
00100000
01000000
,
00100000
10000000
01000000
10000000
00100000
00000000
10000000
00010000
,
00220000
00000000
00000000
00300000
20000000
30000000
02000000
03030000
,
00010000
00000000
00000000
10000000
00000000
00000000
10010000
00000000
00000000
00000000
00000000
00000000
00000000
00000000
10000000
00000000
,
01000000
00100000
00000000
01000000
00100000
01000000
00010000
00001000
,
00010000
00100000
01000000
00010000
00100000
00000000
00010000
00100000
,
20000000
00000000
30100000
00010000
02000000
00000000
03001000
00010000
,
00000010
00000000
00000000
00000010
00000000
00000000
00000010
00000000
00000100
00000000
00000000
00000000
00000000
00000000
00000001
00000000
,
00000010
00000100
00000000
00000010
00000100
00000010
00001000
00010000
,
00001000
00000010
00000100
00001000
00000010
00000000
00000001
00000010
,
00002000
00000000
00000000
00003000
00000101
00000000
00001010
00000000
,
00010000
00000000
00000000
00010000
00000000
00000000
00010000
00000000
00000000
00000000
00001000
00000000
00011000
00000000
00000000
00000000
,
00010000
00000000
00001000
00000000
00010000
00000000
00100000
01000000
00000000
01000000
00100000
00000000
10000000
00000000
00010000
00000000
,
10000000
00000000
01000000
00000000
00010000
00000000
00001000
00010000
00000000
00010000
00001000
00000000
00000100
00000000
00000001
00000000
,
00000010
00000000
00000100
00000000
00000010
00000000
00000001
00001000
00000000
00001000
00000001
00000000
00000010
00000000
00001000
00000000
,
00010000
00000000
00100000
00000000
00000000
00000000
00100000
00000000
00010000
00000000
00001000
00000000
00010000
00001000
00010000
00000000
,
00001000
00000000
00010000
00000000
00001000
00000000
00000100
00000010
00000000
00000010
00000100
00000000
00000001
00000000
00001000
00000000
,
00000001
00000000
00000010
00000000
00001000
00000000
00010000
00001000
00000000
00001000
00010000
00000000
00100000
00000000
10000000
00000000
,
00010000
00000000
00000000
00100000
00000000
00000000
10000000
00000000
00010000
00000000
00000000
01000000
00000000
00000000
10000000
00000000
,
00100000
00000000
01000000
00000000
00000000
00000000
00010000
00000000
20000000
00000000
00000000
00000000
00000000
00000000
30010000
00100000
,
00020000
00000000
00000000
00000000
00000000
00000000
00130000
00001000
00200000
00000000
00000000
00000000
00000000
00000000
00301000
00010000
,
00002000
00000000
00000000
00000000
00000000
00000000
00003100
00000010
00000100
00000000
00000001
00000000
00000010
00000000
00000000
00001000
,
00020000
00000000
00000000
00000000
00000000
00030000
00100000
00010000
00200000
00000000
00000000
00000000
00000000
00000000
10300000
00010000
,
20000000
00000000
00000000
00000000
00000000
00000000
00000000
00000000
00000000
00000000
00000000
00000000
00000000
00000000
30100000
01000000
,
00200000
00000000
00000000
00000000
00000000
00000000
00310000
00001000
00020000
00000000
00000000
00000000
00000000
00000000
00030100
00000010
,
00000200
00000000
00000000
00000000
00000000
00000000
00000310
00000001
00000010
00000000
00001000
00000000
00010000
00000000
00000000
00100000
,
02000000
00000000
00000000
00000000
00000000
00000000
00000000
00000000
00000000
00000000
00000000
00000000
00000000
00000000
03010000
00100000
,
00020000
00000000
00000000
00000000
00030000
00000000
00000000
10000000
,
01000000
10000000
00000000
00100000
00010000
00001000
00100000
00001000
,
00010000
00000010
00000100
00001000
00010000
00000000
00001000
00000100
,
00000002
00000000
00000013
00001000
00020000
00000000
00030100
00000010
,
00000001
00000000
00000000
00000001
00000000
00000000
00000001
00000000
00000100
00000000
00000000
00000000
00000000
00000000
00000001
00000000
,
00000100
00000001
00000000
00000010
00001000
00010000
00000010
00010000
,
00001000
00100000
01000000
00010000
00001000
00000000
00010000
01000000
,
20000000
30000000
01010000
10010000
,
00100000
00000000
00000000
00100000
00000000
00000000
00100000
00000000
00000000
00000000
00100000
00000000
10010000
00000000
00000000
00000000
,
10000000
00000000
00000000
01000000
10000000
00000000
01000000
00000000
00010000
00000000
00000000
01000000
00010000
00000000
01000000
00000000
,
00100000
00000000
00000000
00001000
00100000
00000000
00001000
00000000
00010000
00000000
00000000
00001000
00010000
00000000
00001000
00000000
,
00000010
00000000
00000000
00000100
00000010
00000000
00000100
00000000
00000001
00000000
00000000
00000100
00000001
00000000
00000100
00000000
,
00001000
00000000
00000000
00000010
00001000
00000000
00000010
00000000
00000100
00000000
00000100
00000000
00000100
00000000
00000000
00000000
,
00000101
00000000
00000000
00000101
00000000
00000000
00000100
00000000
00001000
00010000
00000000
00010000
00000000
00000000
00000000
00000000
,
00011000
00000000
00000000
00011000
00000000
00000000
00000000
00000000
00100000
01000000
00000000
01000000
00100000
00000000
00000000
00000000
,
10010000
00000000
00000000
10010000
00000000
00000000
00000000
00000000
01100000
00000000
00000000
01100000
00000000
00000000
00000000
00000000
,
10000000
00000000
10000000
00000000
10000000
00000000
10000000
00000000
00000000
00010000
00000000
00000000
10000000
00000000
00000000
00000000
00000000
00000000
00000000
00000000
00000000
00000000
00000000
00000000
,
10000000
00000000
00010000
00000000
10000000
00000000
00100000
01000000
00000000
01000000
00100000
00000000
00010000
00000000
00001000
00000000
,
00000100
00000000
00000010
00000000
00000100
00000000
00000001
00001000
00000000
00001000
00000001
00000000
00000010
00000000
00001000
00000000
,
00000010
00000000
00000001
00000000
00000100
00000000
00001000
00010000
00000000
00010000
00001000
00000000
00010000
00000000
00001000
00000000
,
00100000
00000000
01000000
00000000
10000000
00000000
01000000
00100000
01000000
00000000
10000000
00000000
00010000
10000000
00010000
00000000
,
00100000
00000000
01000000
00000000
00100000
00000000
00001000
00010000
00000000
00010000
00001000
00000000
00000010
00000000
00000001
00000000
,
00001000
00000000
00000010
00000000
00000100
00000000
00000001
00000010
00000000
00000010
00000001
00000000
00000100
00000000
00001000
00000000
,
00010000
00000000
00000000
00100000
00000000
00000000
10000000
00000000
10010000
00000000
00000000
00000000
01100000
00000000
00000000
00000000
,
10010000
00000000
10000000
00000000
00000000
00000000
00100000
00000000
01000000
00000000
00000000
01000000
00000000
00000000
01000000
00100000
,
02000000
00000000
00000000
00000000
00000000
00000000
03100000
10000000
00200000
00000000
00000000
00000000
00000000
00000000
00310000
00001000
,
00020000
00000000
00000000
00000000
00000000
00000000
00030100
00000010
00000100
00000000
00001000
00000000
00000001
00000000
00000000
00000010
,
00002000
00000000
00000000
00000000
00000000
00000000
00013000
01000000
00020000
00000000
00000000
00000000
00000000
00000000
00031000
00000100
,
00002000
00000000
00000000
00000000
00000000
00000000
00000000
00000000
00000000
00000000
00000000
00000000
00000000
00000000
00003100
00000001
,
00000200
00000000
00000000
00000000
00000000
00000000
00000310
00001000
00000020
00000000
00000000
00000000
00000000
00000000
00010030
00001000
,
00020000
00000000
00000000
00000000
00000000
00000000
00130000
01000000
00100000
00000000
10000000
00000000
00010000
00000000
00000000
02000000
,
20000000
00000000
30000000
00000000
00200000
00000000
00300000
00000000
00020000
00000000
00030000
00000000
03200000
00000000
00310000
00002000
,
00020000
00000000
00000000
00000000
00000000
00000000
00000000
00000000
00000000
00000000
00000000
00000000
00033000
00000000
00010000
00001000
,
00010000
00000000
00000000
00100000
00000000
00000000
10000000
00000000
00010000
00000000
00000000
01000000
00000000
00000000
10000000
00000000
,
01000000
00000000
00000000
00010000
00000000
00000000
00100000
00000000
10000000
00000000
00100000
00000000
00001000
00000000
00000000
00010000
,
00000100
00000000
00000000
00000100
00000000
00000000
00000010
00000000
00001000
00000000
00000000
00000010
00000000
00000000
00000001
00000000
,
00000201
00000000
00000000
00000000
00000010
00000000
00000000
00000000
00001000
00000000
00000000
00000000
00000310
00000000
00010000
00001000
,
00010000
00000000
00000000
00000100
00000000
00000000
00000010
00000000
00000001
00000000
00000000
00000010
00000000
00000000
00001000
00000000
,
00000010
00000000
00000000
00000100
00000000
00000000
00010000
00001000
00010000
00000000
00001000
00000000
00010000
00000000
00000000
00100000
,
10000000
00000000
00000000
10000000
00000000
00000000
01000000
00000000
00010000
00000000
00000000
00001000
00000000
00000000
00000010
00000000
,
00000001
00000010
00000000
00000010
00001000
00000000
00000001
00000100
00000000
00000100
00001000
00000000
00000110
00000000
00000000
00000000
,
00001001
00000000
00000000
00001000
00000000
00000000
00000100
00000000
00010100
00000000
00000000
00000100
00000000
00000000
00010000
00000000
,
00011000
00000000
00000000
00001000
00000000
00000000
00100000
00000000
01100000
00000000
00000000
01000000
00000000
00000000
10000000
01000000
,
10000000
00000000
00000000
00110000
00000000
00000000
00101000
00000000
00010000
00000000
00000000
00001010
00000000
00000000
00001001
00000000
,
00000101
00000000
00000000
00000110
00000000
00000000
00001100
00000000
00010000
00001000
00000000
00000000
00011000
00000000
00000000
00000000
,
00000000
00000000
00000000
00000000
;

//---------------dance-single - ----------------
#NOTES:
     dance-single:
     :
     Challenge:
     17:
     0.852931,0.937507,0.394624,0.277699,0.986561,817.000000,763.000000,54.000000,38.000000,0.000000,0.000000,0.852931,0.937507,0.394624,0.277699,0.986561,817.000000,763.000000,54.000000,38.000000,0.000000,0.000000:
// measure 0
0000
0000
0000
0000
,  // measure 1
0000
0000
0000
0000
,  // measure 2
0000
0000
0000
0000
,  // measure 3
0000
0000
0000
0000
,  // measure 4
0000
0000
0000
0000
,  // measure 5
0000
0000
0000
0000
0000
0000
0000
0001
,  // measure 6
0001
0000
0000
0100
0000
0000
0001
0010
0100
1000
0000
0000
0001
0000
0000
0100
0000
0000
1000
0000
0000
0100
0000
0000
,  // measure 7
0010
0000
0000
0001
0000
0000
0010
0000
0000
1000
0000
0000
0100
0000
0000
0000
1000
0001
1000
0000
0000
0100
0000
0000
,  // measure 8
0020
0000
0000
0000
0000
0000
0000
0000
0000
0030
0001
1000
0002
0000
0000
0000
0000
1003
0100
0000
0000
0000
0000
0010
,  // measure 9
0001
0000
0000
0101
0000
0000
1100
0000
1001
0000
0100
0000
0100
0000
0010
0000
,  // measure 10
0010
0000
0000
1000
0000
0000
0001
0010
0100
1000
0000
0000
0001
0000
0000
0100
0000
0000
1010
0000
0000
0001
0000
0000
,  // measure 11
1000
0000
0000
0100
0000
0000
0001
0000
0000
0100
0000
0000
1000
0000
0000
0000
0001
0100
0001
0000
0000
1000
0000
0000
,  // measure 12
0010
0000
0000
1000
0100
0010
0001
0000
0000
0100
0000
0000
0110
0000
0000
0001
0010
0100
1000
0000
0000
0001
0000
0000
,  // measure 13
0011
0000
0000
0110
0000
0000
1100
0000
1001
0000
0100
0000
0100
0000
0001
0000
,  // measure 14
0001
0000
0000
1000
0000
0000
0010
1000
0001
0100
0000
0000
0010
0000
0000
1000
0000
0000
1100
0000
0000
0001
0000
0000
,  // measure 15
0100
0000
0000
1000
0000
0000
0100
0000
0000
0001
0000
0000
0010
0000
0000
0000
0001
1000
0001
0000
0000
0100
0000
0000
,  // measure 16
0020
0000
0000
0000
0000
0000
0000
0000
0000
0030
1000
0100
1000
0000
0000
0000
0000
0001
0100
0000
0000
0010
0000
0000
,  // measure 17
1000
0000
0000
0000
0000
0000
0000
0000
0000
1010
0000
0000
0000
0000
0000
0000
0000
0000
0011
0000
0000
0000
0000
0000
0000
0000
0000
0000
0000
0000
0100
0000
0010
0000
1000
0000
0001
0000
0000
0000
0000
0000
0100
0000
0000
0000
0000
0000
,  // measure 18
0110
0000
0000
1001
0000
0000
0010
1000
0100
1000
0001
0000
0200
0310
1000
0000
,  // measure 19
0002
0000
0003
0010
0100
0000
1000
0001
0100
0010
1000
0000
0100
0010
0001
0000
,  // measure 20
0011
0000
0000
1100
0000
0000
0001
0100
0010
1000
0001
0000
1000
0000
0100
0000
,  // measure 21
1000
0010
0100
0001
1000
0000
0001
0010
0100
1000
0001
0000
0100
0010
0100
0000
,  // measure 22
0101
0000
0000
1010
0000
0000
0001
0010
0100
1000
0001
0000
2000
3100
0000
1000
,  // measure 23
0020
0000
0130
0000
0001
0000
1000
0001
0010
0001
0100
0000
0010
1000
0100
0010
,  // measure 24
0001
0000
1000
0100
1000
0000
0001
0100
0010
1000
0001
0000
0010
0100
1000
0000
,  // measure 25
0010
1000
0100
0010
0001
0000
1000
0001
0100
0010
1000
0000
0100
0010
0001
1000
,  // measure 26
0020
0000
0000
1030
0100
0000
0010
0001
2000
0000
0010
0000
3010
0000
0100
0001
,  // measure 27
2000
0000
0100
0000
3100
0000
0010
0001
0100
0000
0100
0000
0100
0000
0000
0010
,  // measure 28
2000
0000
0100
0000
3100
0000
1000
0001
0020
0000
0100
0000
0130
0000
0010
0001
,  // measure 29
0200
0000
1000
0000
0001
0000
1000
0000
0310
0100
0001
0000
1001
0000
0001
0100
,  // measure 30
2000
0000
0001
0000
3001
0000
0100
0010
2000
0000
0100
0000
3100
0000
0010
0001
,  // measure 31
0200
0000
0010
0000
0310
0000
1000
0001
0010
0000
0010
0000
0010
0000
0000
0001
,  // measure 32
2000
0000
0100
0000
0001
0000
3100
1000
0010
0100
0001
0000
1000
0000
0010
0100
,  // measure 33
0002
0000
0000
1000
1003
0000
0010
0100
0001
0010
0001
0100
1000
0000
0010
0000
,  // measure 34
0010
0000
0000
1000
0000
0000
0001
0010
0100
1000
0000
0000
0001
0000
0000
0100
0000
0000
1010
0000
0000
0001
0000
0000
,  // measure 35
1000
0000
0000
0100
0000
0000
0001
0000
0000
0010
0000
0000
0100
0000
0000
0000
1000
0001
0100
0000
0000
0010
0000
0000
,  // measure 36
1001
0000
0000
1000
0100
0010
0001
0000
0000
0100
0000
0000
0101
0000
0000
0010
1000
0001
0100
0000
0000
0010
0000
0000
,  // measure 37
1010
0000
0001
0100
0000
0100
1000
0000
0110
0000
0001
0000
0100
0000
1000
0000
,  // measure 38
1000
0000
0000
0010
0000
0000
1000
0001
0010
0100
0000
0000
1000
0000
0000
0010
0000
0000
1100
0000
0000
0001
0000
0000
,  // measure 39
0100
0000
0000
1000
0000
0000
0010
0000
0000
0100
0000
0000
0001
0000
0000
0000
1000
0001
0010
0000
0000
0100
0000
0000
,  // measure 40
1000
0000
0000
0000
0000
0000
0001
0000
0000
0010
0000
0000
0001
0000
0000
0000
0000
0000
0100
0000
0010
0000
1000
0000
0001
0000
0000
0000
0000
0000
0000
0000
0001
0000
0100
0000
0010
0000
0000
0000
0000
0000
1000
0000
0000
0000
0100
0000
,  // measure 41
0010
0000
0000
0011
0000
0000
1100
0000
1001
0000
0100
0000
0010
1000
0010
1000
,  // measure 42
0001
0100
0000
0010
1000
0000
0100
0010
0001
1000
0000
0010
0100
0000
0001
1000
,  // measure 43
0010
1000
0000
0100
0010
0000
0001
0100
0010
1000
0010
0100
0001
0000
1000
0100
,  // measure 44
0010
0000
0000
0001
0000
0000
0000
0000
0000
0001
0000
0000
1000
0000
0000
0000
0000
0000
0001
0000
0010
0000
0100
0000
1000
0000
0000
0001
0000
0000
0000
0000
0000
1000
0000
0000
0100
0000
0000
0000
0000
0000
1000
0000
0001
0000
0100
0000
,  // measure 45
0010
1000
0100
0010
0001
0000
0100
0000
0010
1000
0001
1000
0000
0100
0010
0001
,  // measure 46
0100
0000
0010
1000
0000
0010
0100
0001
1000
0100
0010
0001
0000
0000
0100
0010
,  // measure 47
1000
0000
0000
0000
0000
0000
0001
0000
0000
1000
0000
0000
0000
0000
0000
0100
0000
0000
0010
0000
0000
0001
0000
0000
1000
0000
0000
0010
0000
0000
0100
0000
0000
0010
0000
0000
1000
0000
0000
0000
0000
0000
0001
0000
0100
0000
0010
0000
,  // measure 48
1000
0000
0000
0000
0000
0000
0010
0000
0000
1001
0000
0000
0000
0000
0000
0000
0000
0000
0100
0000
0000
0001
0000
0000
1000
0000
0000
0000
0000
0000
0001
0000
0000
0110
0000
0000
0000
0000
0000
0000
0000
0000
0001
0000
1000
0000
0010
0000
,  // measure 49
0100
0000
0000
0000
0100
0000
0000
0000
0100
0000
0000
0000
0100
0000
0000
0000
0000
0000
0010
0000
0000
1000
0000
0000
0001
0000
0000
0000
0000
0000
0000
0000
1000
0000
0100
0000
1000
0000
0000
0000
0000
0000
0001
0000
0000
0000
0000
0000
,  // measure 50
0101
0000
0000
0101
0000
0000
1000
0100
0000
0100
1000
0000
0002
0003
0000
0000
,  // measure 51
0200
0000
0300
0010
1000
0000
0100
0010
0000
0001
1000
0000
0001
0100
0001
0000
,  // measure 52
1010
0000
0000
1010
0000
0000
0001
0100
0000
0100
0001
0000
1000
0000
0001
0000
,  // measure 53
0020
0000
0000
0230
0000
0000
2300
0000
3001
0100
0001
0000
1000
0100
1000
0000
,  // measure 54
1001
0000
0000
1001
0000
0000
0010
0100
0000
0100
0010
0000
0200
0301
1000
0000
,  // measure 55
0020
0000
0030
1000
0010
0000
1000
0100
0000
0010
0001
0000
0100
0000
0010
0000
,  // measure 56
0110
0000
0000
0110
0000
0000
1000
0001
0010
0001
0100
0000
0010
1000
0001
0000
,  // measure 57
2100
0000
0000
3002
0000
0000
0103
0000
0101
0000
0000
1100
0000
0000
0010
1000
,  // measure 58
0002
0000
0000
0000
0000
0000
1000
0000
0000
0000
0000
0000
0013
0000
0000
0000
0000
0000
0100
0000
0000
0010
0000
0000
2000
0000
0000
0000
0000
0000
0100
0000
0000
0000
0000
0000
3001
0000
0000
0000
0000
0000
1000
0000
0010
0000
0100
0000
,  // measure 59
0002
0000
0010
0000
1003
0000
0010
0100
0001
0000
0001
0000
0001
0100
0000
0010
,  // measure 60
2000
0000
0100
0000
3001
0000
0010
0001
0200
0000
0010
0000
1300
0000
0100
0001
,  // measure 61
0020
0000
1000
0000
0001
0000
1000
0000
0031
0010
0100
0000
1001
0000
0100
0001
,  // measure 62
2000
0000
0010
3000
1001
0000
0100
0001
0020
0000
1000
0000
0130
0000
0010
0001
,  // measure 63
2000
0000
0001
0000
3100
0000
1000
0001
0100
0000
0100
0000
0100
0010
0000
0010
,  // measure 64
2000
0000
0001
0000
0100
0000
3010
1000
0100
1000
0001
0000
0100
0000
0010
1000
,  // measure 65
0002
0000
0000
0000
0000
0000
0000
0000
0000
0010
0000
0000
0010
0000
0000
0000
0000
0000
1003
0000
0001
0000
1000
0000
0100
0000
0000
0010
0000
0000
0001
0000
0000
0100
0000
0000
0110
0000
0000
0000
0000
0000
1000
0000
0000
0001
0000
0000
,  // measure 66
0100
0000
0010
1000
0100
0000
0010
0001
0100
0000
0010
1000
0001
0000
1000
0100
,  // measure 67
0010
0000
0001
0100
0001
0000
1000
0100
0010
0000
0010
0000
0010
0001
0100
0010
,  // measure 68
1000
0000
0001
0010
0001
0000
0100
0010
1000
0000
0001
0100
0010
0000
1000
0001
,  // measure 69
0100
0000
0000
0001
0010
0100
1000
0000
0000
0010
1000
0001
0100
0000
0000
0001
1000
0100
0010
0000
0000
0100
1000
0001
,  // measure 70
0010
0000
0000
0000
0000
0000
0001
0000
0000
0100
0000
0000
1010
0000
0000
0000
0000
0000
0001
0000
0000
1000
0000
0000
0100
0000
0000
0000
0000
0000
0010
0000
0000
0001
0000
0000
0100
0000
0000
0000
0000
0000
0010
0000
1000
0000
0001
0000
,  // measure 71
0100
0000
0010
1000
0010
0000
1000
0100
0001
0000
0001
0000
0001
0010
0100
1000
,  // measure 72
0001
0000
1000
0100
0010
0000
0001
1000
0001
0000
0100
0010
1000
0000
0100
0010
,  // measure 73
0001
0010
1000
0100
1000
0010
0100
0010
1000
0010
0100
0001
0100
0001
1000
0001
,  // measure 74
0110
0000
0001
0010
0000
0100
1000
0001
0010
0000
1000
0001
0000
1000
0100
1000
,  // measure 75
0010
0000
0100
0001
0000
0100
0010
1000
0001
0000
0010
0001
0000
1000
0001
0100
,  // measure 76
1010
0000
1000
1010
0000
0001
0010
0100
1100
0000
0001
1100
0000
0010
1000
0001
,  // measure 77
0101
0000
0010
0101
0000
1000
0010
0100
0001
1001
0000
0010
0110
0000
0000
0000
;
