#TITLE:Better Now;
#ARTIST:Post Malone;
#BANNER:Better Now-bn.png;
#BACKGROUND:Better Now-bg.png;
#JACKET:Better Now-jacket.png;
#MUSIC:Better Now.ogg;
#OFFSET:-0.125;
#SAMPLESTART:11.75;
#SAMPLELENGTH:20;
#DISPLAYBPM:145;
#BPMS:0=145;
#BGCHANGES:;

//---------------dance-single - ----------------
#NOTES:
     dance-single:
     :
     Beginner:
     3:
     :
0000
0000
0000
0000
,
0000
0000
0000
0000
,
0000
0000
0000
0000
,
0000
0000
0000
0000
,
0000
0000
0000
0000
,
0000
0000
0000
0000
,
0000
0000
0000
0000
,
0000
0000
0001
0000
,
1000
1000
0000
0000
,
1000
0000
0010
0000
,
0100
0100
0000
0000
,
0100
0000
0001
0000
,
0100
0100
0000
0000
,
0100
0000
0010
0000
,
1000
0000
0001
0000
,
0100
0000
0010
0000
,
1000
1000
0000
0000
,
0001
0000
0010
0000
,
0001
0001
0000
0000
,
1000
0000
0010
0000
,
0100
0100
0000
0000
,
0100
0000
0010
0000
,
1000
0000
0001
0000
,
0100
0100
0000
0000
,
0010
0000
0010
0000
,
0010
0000
0000
0000
,
1000
0000
1000
0000
,
1000
0000
0000
0000
,
0100
0000
0100
0000
,
0100
0000
0000
0000
,
0001
0000
0001
0000
,
0001
0000
0000
0000
,
0010
0000
0001
0000
,
0100
0000
0010
0000
,
1000
0000
0100
0000
,
1000
0000
0001
0000
,
1000
0000
0010
0000
,
1000
0000
0001
0000
,
0010
0000
0001
0000
,
0100
0000
0010
0000
,
1000
1000
1000
1000
,
0000
0000
0000
0000
,
0001
0001
0001
0001
,
0000
0000
0000
0000
,
0100
0100
0100
0100
,
0000
0000
0000
0000
,
0010
0000
1000
0000
,
0001
0000
0100
0000
,
0001
0001
0000
0000
,
0010
0000
0100
0000
,
1000
1000
0000
0000
,
1000
0000
0001
0000
,
0100
0100
0000
0000
,
0100
0000
0010
0000
,
1000
0000
0100
0000
,
1000
0000
0001
0000
,
0010
0010
0000
0000
,
0001
0000
0100
0000
,
0010
0010
0000
0000
,
1000
0000
0100
0000
,
0100
0100
0000
0000
,
0100
0000
1000
0000
,
0010
0000
0100
0000
,
0001
0001
0000
0000
,
0010
0000
0000
0000
;

//---------------dance-single - ----------------
#NOTES:
     dance-single:
     :
     Easy:
     6:
     :
0000
0000
0000
0000
,
0000
0000
0000
0000
,
0000
0000
0000
0000
,
0000
0000
0000
0000
,
0000
0000
0000
0000
,
0000
0000
0000
0000
,
0000
0000
0000
0000
,
0000
0001
0100
0010
,
1000
0000
0100
0000
0000
0010
0000
0010
,
0000
0001
1000
0001
,
0100
0000
0010
0000
0000
1000
0000
1000
,
0000
0100
1000
0010
,
1000
0000
0100
0000
0000
1000
0000
0100
,
0000
0010
0001
0100
,
0000
0001
0010
1000
,
0000
0100
0010
0001
,
1000
0000
0001
0000
0000
0100
0000
0010
,
0000
1000
0100
0010
,
0100
0000
1000
0000
0000
0001
0000
0001
,
0000
0010
0001
0010
,
0001
0000
0100
0000
0000
0001
0000
0100
,
0000
0010
1000
0100
,
0000
1000
0010
0001
,
0000
1001
0000
0110
,
1000
0010
1000
0010
,
1000
0001
0000
0000
,
0010
0100
0010
0100
,
1000
0001
0000
0000
,
0100
0001
0100
0010
,
0100
0001
0000
0000
,
0010
0100
1000
0010
,
1000
0002
0000
0103
,
0010
0010
1000
0001
,
1000
0100
0100
0000
,
0010
0010
0100
0010
,
0001
1000
1000
0000
,
0001
0100
0010
1000
,
0100
0010
0001
0000
,
1000
0001
0100
0001
,
0010
0100
1000
0001
,
0100
0100
0100
0200
,
0000
0000
0300
0100
,
0010
0010
0010
0020
,
0000
0000
0030
0010
,
1000
1000
1000
2000
,
0000
0000
3000
1000
,
0001
1000
0001
0100
,
0000
0010
0010
0010
,
1000
0000
0100
0000
0000
0010
0000
0001
,
0000
0100
0001
0010
,
0100
0000
1000
0000
0000
0010
0000
1000
,
0000
0001
0010
0001
,
1000
0000
0100
0000
0000
0001
0000
0100
,
0000
0010
1000
0001
,
0000
1000
0100
0010
,
0000
0001
0100
0001
,
1000
0000
1000
0000
0000
0010
0000
0100
,
0000
0010
1000
0100
,
0010
0000
0001
0000
0000
1000
0000
0001
,
0000
1000
0100
0010
,
0001
0000
0100
0000
0000
1000
0000
0100
,
0000
1000
0010
1000
,
0000
0001
0010
0100
,
0000
0110
0000
1001
,
0010
0000
0000
0000
;

//---------------dance-single - ----------------
#NOTES:
     dance-single:
     :
     Medium:
     9:
     :
0000
0000
0000
0000
,
0000
0000
0000
0000
,
0000
0000
0000
0000
,
0000
0000
0000
0000
,
0000
0000
0000
0000
,
0000
0000
0000
0000
,
0000
0000
0000
0000
,
0000
0000
0001
0000
0100
0010
1000
0000
,
0100
1000
0001
0000
0000
0100
0001
1000
,
0000
0000
0010
0000
1000
0001
0100
0000
,
0001
0010
0100
0000
0000
1000
0100
0010
,
0000
0000
0001
0000
1000
0001
0100
0000
,
0010
1000
0100
0000
0000
0010
0001
0100
,
0000
0000
0000
0000
0001
0000
0100
0000
0010
0000
0000
1000
0000
0000
0001
0000
,
0000
0000
0000
0000
1000
0000
0001
0000
1000
0000
0000
0100
0000
0000
0010
0000
,
0000
0001
1000
0000
0001
0100
0010
0000
,
1000
0100
0010
0000
0000
0001
1000
0001
,
0000
0100
0010
0000
0100
0001
1000
0000
,
0100
1000
0001
0000
0000
0010
0001
0100
,
0000
0001
0010
0000
0100
1000
0001
0000
,
1000
0010
0100
0000
0000
0001
0010
0100
,
0000
0000
1000
0000
0010
0000
1000
0000
0001
0000
0000
0010
0000
0000
0100
0000
,
0000
0000
0010
0000
0001
0000
0100
0000
0001
0000
0000
1000
0000
0000
0010
0000
,
0000
1000
0100
0020
0000
0000
0031
0000
,
0100
0010
0100
0000
0001
1000
0001
0000
,
0011
1100
0000
0000
,
1000
0010
1000
0000
0001
0100
0001
0000
,
1001
0110
0000
0000
,
1000
0100
1000
0000
0001
0100
0001
0000
,
1010
0101
0000
0000
,
0010
0001
0010
0000
0100
1000
0100
0000
,
0010
0000
0001
2000
0000
0000
3100
0000
,
1000
0010
1000
0000
0001
0000
0100
0000
,
0001
0010
0100
0000
1100
0000
0000
0000
,
1000
0001
1000
0000
0010
0100
0001
0000
,
1000
0100
0010
0000
0011
0000
0000
0000
,
0100
0001
0010
0000
0001
0000
1000
0000
,
0100
1000
0010
0000
0101
0000
0000
0000
,
1000
0001
1000
0000
0010
0100
0010
0000
,
1000
0001
0100
0000
1010
0000
0100
0001
,
0010
0000
0010
0000
0010
0100
0010
0100
,
0000
0000
0000
0000
0000
0000
1000
0001
,
0100
0000
0100
0000
0100
0010
0100
0010
,
0000
0000
0000
0000
0000
0000
0100
0001
,
1000
0000
1000
0000
1000
0001
1000
0001
,
0000
0000
0000
0000
0000
0000
0010
0001
,
0100
0000
0010
0000
1000
0001
1000
0100
,
0000
0000
0010
0000
0001
0100
0010
0000
,
1000
0001
1000
0000
0000
0010
0100
0001
,
0000
0000
1000
0000
0100
1000
0001
0000
,
0010
0001
0100
0000
0000
0001
0010
0001
,
0000
0000
1000
0000
0010
1000
0001
0000
,
1000
0010
0100
0000
0000
0010
1000
0100
,
0000
0000
0000
0000
0010
0000
0001
0000
1000
0000
0000
0001
0000
0000
0100
0000
,
0000
0000
0000
0000
0001
0000
0010
0000
0100
0000
0000
1000
0000
0000
0001
0000
,
0000
1000
0010
0000
1000
0001
1000
0000
,
0100
0010
0001
0000
0000
0100
0010
0100
,
0000
0001
1000
0000
0001
0100
0010
0000
,
1000
0100
1000
0000
0000
0010
0100
0001
,
0000
0010
0100
0000
0010
0001
1000
0000
,
0001
1000
0100
0000
0000
1000
0001
0100
,
0000
0000
0010
0000
1000
0000
0010
0000
1000
0000
0000
0001
0000
0000
0100
0000
,
0000
0000
0001
0000
0010
0000
0100
0000
1000
0000
0000
0010
0000
0000
1000
0000
,
0000
0001
1000
0200
0000
0000
1300
0000
,
0020
0000
0000
0000
,
0000
0000
0000
0000
,
0000
0000
0000
0000
,
0000
0000
0000
0000
,
0000
0000
0000
0000
,
0000
0000
0000
0000
,
0000
0000
0000
0030
;

//---------------dance-single - ----------------
#NOTES:
     dance-single:
     :
     Hard:
     12:
     :
0000
0000
0000
0000
,
0000
0000
0000
0000
,
0000
0000
0000
0000
,
0000
0000
0000
0000
,
0000
0000
0000
0000
,
0000
0000
0000
0000
,
0000
0000
0000
0000
,
0000
0001
0010
0100
1000
0100
0010
0001
,
0100
0010
1000
0001
0000
0100
1000
0001
,
0000
0100
0010
0100
0001
0010
0100
1000
,
0001
0100
0010
0100
0000
0010
0100
1000
,
0000
0010
1000
0001
1000
0100
0010
0001
,
1000
0001
0100
0010
0000
0001
0010
0100
,
0000
0000
1000
0100
1000
0000
0001
0000
0100
0000
0000
0010
0000
0000
1000
0000
,
0000
0000
0001
0010
0001
0000
1000
0000
0001
0000
0000
0100
0000
0000
0010
0000
,
0000
1000
0001
1000
0010
0100
0001
1000
,
0001
0010
0100
0010
0001
1000
0010
0100
,
0000
0001
0010
0100
1000
0010
1000
0001
,
1000
0100
0010
0001
0100
0010
1000
0001
,
0000
0010
0001
0100
0001
0010
0100
1000
,
0010
1000
0100
0010
0001
1000
0001
0100
,
0000
0000
0010
1000
0010
0000
0100
0000
0001
0000
0000
1000
0000
0000
0100
0000
,
0000
0000
0010
0001
0010
0000
0001
0000
0100
0000
0000
0010
0000
0000
1000
0000
,
0000
0001
0100
0010
2000
0001
3001
0000
,
1000
0100
1000
0100
0001
0100
0001
0100
,
1000
0010
0100
0001
1000
0000
0000
0000
,
0001
0100
0001
0100
1000
0100
1000
0100
,
0001
0100
0010
1000
0001
0000
0000
0000
,
0010
0001
0010
0001
0010
1000
0010
1000
,
0010
0001
0100
0010
1000
0000
0000
0000
,
0100
1000
0100
1000
0100
0001
0100
0001
,
0100
1000
0001
0200
0000
0000
0310
0000
,
0100
0001
0100
0001
0010
0100
1000
0001
,
0100
0010
2000
0000
0001
3001
0000
0000
,
0010
0001
0010
0100
1000
0010
1000
0001
,
0100
0010
2000
0000
0001
3001
0000
0000
,
0010
0100
1000
0010
1000
0001
0100
0010
,
1000
0001
0020
0000
0100
0130
0000
0000
,
1000
0010
1000
0001
0010
0100
0010
0001
,
0100
0010
1000
0000
0001
0000
0010
0001
,
0100
0010
0100
0010
0100
0010
0100
0020
,
0000
0000
0000
0030
0000
0000
1000
0001
,
0010
0100
0010
0100
0010
0100
0010
0100
,
0000
1000
0001
0000
0000
0000
0000
0000
0000
0000
0000
0000
1000
0000
0010
0000
,
1000
0001
1000
0001
1000
0001
1000
0001
,
0000
0010
0100
0000
0000
0000
0000
0000
0000
0000
0000
0000
1000
0000
0100
0000
,
1000
0010
0100
0010
1000
0001
0010
0100
,
0000
1000
0100
0010
0001
0010
0100
1000
,
0001
0100
0010
1000
0000
0100
1000
0001
,
0000
0010
0001
0100
0001
0010
1000
0010
,
0001
0100
0010
1000
0000
0100
1000
0001
,
0000
0100
0010
0100
0001
0010
0100
1000
,
0010
1000
0100
1000
0000
0001
0010
0100
,
0000
0000
1000
0100
1000
0000
0010
0000
0100
0000
0000
0001
0000
0000
1000
0000
,
0000
0000
0010
0100
0010
0000
1000
0000
0100
0000
0000
0010
0000
0000
0001
0000
,
0000
1000
0001
0010
0001
0100
0010
1000
,
0100
0010
0100
1000
0010
0100
0001
1000
,
0000
0001
0010
0100
1000
0001
1000
0010
,
0100
1000
0100
0010
0100
1000
0100
0001
,
0000
0010
0001
0010
1000
0010
0100
0010
,
0001
1000
0100
1000
0010
1000
0001
0100
,
0000
0000
0010
1000
0010
0000
0100
0000
0001
0000
0000
0010
0000
0000
1000
0000
,
0000
0000
0100
1000
0100
0000
0010
0000
0001
0000
0000
1000
0000
0000
0001
0000
,
0000
0100
0010
1000
0002
0100
0103
0000
,
0020
0000
0000
0000
,
0000
0000
0000
0000
,
0000
0000
0000
0000
,
0000
0000
0000
0000
,
0000
0000
0000
0000
,
0000
0000
0000
0000
,
0000
0000
0000
0030
;
