#TITLE:Beginning of life;
#SUBTITLE:(THE GROUND PULSE MIX);
#ARTIST:QUADRA;
#BANNER:Beginning of life (THE GROUND PULSE MIX)-bn.png;
#BACKGROUND:Beginning of life (THE GROUND PULSE MIX)-bg.png;
#JACKET:Beginning of life (THE GROUND PULSE MIX)-jacket.png;
#MUSIC:Beginning of life (THE GROUND PULSE MIX).ogg;
#OFFSET:1.286;
#SAMPLESTART:0;
#SAMPLELENGTH:20;
#LASTBEATHINT:0.648;
#DISPLAYBPM:140;
#BPMS:0=140;
#BGCHANGES:;

//---------------dance-single - ----------------
#NOTES:
     dance-single:
     :
     Beginner:
     2:
     :
0000
0000
0000
0000
,
0000
0000
0000
0000
,
0000
0000
0000
0000
,
0000
0000
0000
0000
,
0000
0000
0000
0000
,
0010
0000
0000
0000
,
0100
0000
0000
0000
,
0001
0000
0000
0000
,
1000
0000
0000
0000
,
0010
0000
1000
0000
,
0100
0000
0010
0000
,
0001
0000
0100
0000
,
0001
0000
1000
0000
,
0001
0000
1000
0000
,
0010
0000
0100
0000
,
0001
0000
0010
0000
,
0100
0000
1000
0000
,
0010
0000
0000
0000
,
1000
0000
0001
0000
,
0100
0000
0000
0000
,
0001
0000
0010
0000
,
0100
0000
0000
0000
,
1000
0000
0010
0000
,
1000
0000
0001
0000
,
0100
0000
0000
0000
,
0010
0000
0000
0000
,
0000
0000
0000
0000
,
1000
0000
0000
0000
,
0001
0000
1000
0000
,
0001
0000
0000
0000
,
0100
0000
0010
0000
,
1000
0000
0100
0000
,
1000
0000
0001
0000
,
0100
0000
0010
0000
,
0100
0000
0001
0000
,
1000
0000
0000
0000
,
0001
0001
0001
0001
,
0001
0000
0010
0000
,
0001
0000
0100
0000
,
0010
0000
1000
0000
,
0100
0000
1000
0000
,
0001
0000
0001
0000
,
0100
0000
0100
0000
,
1000
0000
1000
0000
,
0010
0000
0010
0000
,
1000
0000
0000
0000
;

//---------------dance-single - ----------------
#NOTES:
     dance-single:
     :
     Easy:
     7:
     :
0000
0000
0000
0000
,
0000
0000
0000
0000
,
0000
0000
0000
0000
,
0000
0000
0000
0000
,
0000
0000
0000
0000
,
0010
1000
0000
0000
0000
0000
0000
0000
,
0000
0010
0000
1000
0000
0000
0000
0000
0000
0000
0000
0000
0000
0000
0000
0000
,
0010
1000
0000
0000
0000
0000
0000
0000
,
0000
0010
0000
1000
0000
0000
0000
0000
0000
0000
0000
0000
0000
0000
0000
0000
,
1001
0000
0000
0010
0000
0000
1000
0000
,
0000
0100
0000
0000
0010
0000
0000
0001
,
0000
0000
1000
0000
0000
0001
0000
0000
,
0100
0000
0000
0010
0000
1000
0000
0001
,
0000
0000
1000
0000
0000
0100
0000
0000
,
0010
0000
0000
0001
0000
0000
0100
0000
,
0000
0001
0000
0000
0010
0000
0000
1000
,
0000
0000
0100
0000
0000
0010
0000
0000
,
0001
0100
0010
1000
,
0100
0010
0100
1000
,
0010
0100
0001
0010
,
0001
0100
1000
0010
,
1000
0001
0010
0001
,
0100
0010
1000
0001
,
1000
0000
0000
0100
0000
0000
0001
0000
0000
0100
0000
0000
1000
0000
0000
0000
,
0000
0000
0000
0000
,
1001
0010
1000
0001
,
1000
0100
0010
0001
,
0110
1000
0010
0001
,
0100
0000
0000
0000
0100
0010
0000
0000
,
0110
1000
0010
0001
,
0100
0010
0100
0001
,
1000
0000
0000
0001
0000
0000
0000
0000
,
0000
0100
0000
0000
0001
0000
1000
0000
,
0100
0000
0000
0010
0000
0000
0000
0000
,
0001
0100
0000
0000
0010
1000
0000
0000
,
0100
1000
0010
0001
,
0000
0000
0100
0000
0000
0010
0000
0000
0100
0000
0000
0010
0000
0000
0100
0000
,
0001
0000
0010
0000
1000
0000
0100
0010
,
0001
0000
1000
0000
0001
0000
1000
0010
,
0100
0000
0001
0000
0010
0000
0001
0100
,
0010
0000
1000
0000
0100
0000
1000
0001
,
0010
0001
1000
0001
,
0100
0000
0010
0000
1000
0000
0100
0010
,
0001
1000
0001
0010
,
0001
0100
0010
1000
,
0000
1000
0001
1000
0000
0000
0000
0000
;

//---------------dance-single - ----------------
#NOTES:
     dance-single:
     :
     Medium:
     10:
     :
0000
0000
0000
0000
,
0000
0000
0000
0000
,
0000
0000
0000
0000
,
0000
0000
0000
0000
,
0000
0000
0000
0000
,
0010
0000
1000
0000
0001
0000
0000
0000
0001
0000
0000
0001
0000
0000
0001
0000
,
0000
0010
0000
1000
0000
0000
0000
0000
0001
0000
0000
0001
0000
0000
0001
0000
,
0010
0000
1000
0000
0001
0000
0000
0000
0001
0000
0000
0001
0000
0000
0001
0000
,
0000
0010
0000
1000
0000
0000
0000
0000
0010
0000
0100
0000
0010
0000
0100
0000
,
0001
0010
0000
0100
1000
0000
0010
0100
,
0000
0001
1000
0000
0100
1000
0000
0010
,
0100
0000
0001
0010
0000
0100
1000
0000
,
0001
0000
0010
0000
0000
0000
0001
0000
1000
0000
0000
0010
0000
0000
0100
0000
,
0001
0000
0010
0001
0000
1000
0100
0000
,
1000
0010
0000
0100
0010
0000
1000
0001
,
0000
0010
0100
0000
1000
0010
0000
1000
,
0001
0000
0010
0100
0000
1000
0010
0100
,
0001
0010
0100
0000
0000
0000
0000
0000
,
0000
1000
0001
0100
0000
0010
1000
0001
,
0010
0100
1000
0000
0000
0000
0001
1000
,
0001
0100
0010
0000
1000
0000
0100
1000
,
0010
0100
0001
0000
1000
0000
0001
0010
,
0100
0010
0001
0000
1000
0000
0001
0100
,
0010
0000
0000
1000
0000
0000
0100
0000
0000
0010
0000
0000
0001
0000
0000
0000
,
0000
0000
1000
0010
1000
0001
0100
0000
,
1001
0000
0000
0000
0010
0000
1000
0000
0100
0000
0000
0100
0000
0000
0100
0000
,
0010
0000
0001
0000
1000
0001
0100
0000
,
0110
0000
0000
0000
1000
0000
0001
0000
0000
0000
0010
0000
0000
0010
0000
0000
,
0001
0000
0000
0100
0000
0000
0010
0000
0000
0000
1010
0000
0000
0000
0000
0000
,
1001
0000
1000
0001
0000
0010
0100
0000
,
0110
0000
0001
0100
0000
0010
1000
0000
,
1100
0000
0000
0010
0000
0000
0101
0000
0000
0000
0000
0000
0000
0000
0000
0000
,
0000
1010
0000
0100
0001
0010
1000
0000
,
1010
0000
0000
0100
0000
0000
0011
0000
0000
0000
0000
0000
0000
0000
0000
0000
,
0000
1001
0000
0100
0000
1001
0000
0000
,
0101
0000
0000
0000
0010
0000
1000
0000
0000
0001
0000
0000
0100
0000
0000
0000
,
0000
0000
0110
0000
0000
0110
0000
0000
0110
0000
0000
0110
0000
0000
0110
0000
,
0110
0000
0000
1000
0000
0000
0101
0000
0000
0000
0000
0000
1000
0000
0001
0000
,
0000
0000
0011
0000
0000
0000
0100
0000
1000
0000
0000
0001
0000
0000
0100
0000
,
0110
0000
1000
0001
0000
0010
0001
0100
,
0010
1000
0001
0000
0100
0000
0010
1000
,
0100
0010
0001
0000
0000
0000
1000
0001
,
0010
0100
1000
0000
0000
0000
0001
0100
,
0010
1000
0100
0000
0000
0000
0010
0001
,
0100
0010
1000
0000
0000
0000
0000
0000
,
0000
0001
0010
1000
0000
0000
0000
0000
;

//---------------dance-single - ----------------
#NOTES:
     dance-single:
     :
     Hard:
     13:
     :
0000
0000
0000
0000
,
0000
0000
0000
0000
,
0000
0000
0000
0000
,
0000
0000
0000
0000
,
0000
0000
0000
0000
,
0010
0000
1000
0000
0100
0010
0000
0001
0000
0001
0000
0000
1000
0000
0001
0000
,
1000
0000
0100
0000
1000
0001
0000
0010
0000
0010
0000
0000
0100
0000
1000
0000
,
0001
0000
0100
0000
0010
1000
0000
0100
0000
0100
0000
0000
0010
0000
0001
0000
,
1000
0000
0001
0000
0100
0010
0000
1000
0000
1000
0000
0000
0001
0000
0010
0000
,
0100
1000
0010
0100
0001
0000
0010
0100
,
0000
1000
0010
1000
0001
0010
0000
0100
,
1000
0000
0010
1000
0001
0010
0100
0000
,
1000
0000
0010
0000
1000
0000
0001
0000
0010
0000
0000
0010
0000
0000
0010
0000
,
0100
0000
1000
0001
0000
0010
0001
0000
,
0100
0010
1000
0001
0010
0000
0001
0100
,
0000
0010
1000
0100
1000
0001
0000
0010
,
0100
0000
1000
0010
1000
0001
0010
0100
,
1000
0000
0010
0000
1000
0001
0000
0100
0000
0100
0000
0000
0010
0000
1000
0000
,
0100
0000
0010
0000
0001
0100
0000
0001
0000
1000
0000
0000
0100
0000
0010
0000
,
0100
0000
1000
0000
0010
0100
0000
0001
0000
0001
0000
0000
1000
0000
0001
0000
,
0010
0000
0001
0000
1000
0010
0000
0100
0000
0100
0000
0000
0010
0000
1000
0000
,
0100
0000
0010
0000
0100
1000
0000
0001
0000
0001
0000
0000
0100
0000
0010
0000
,
0100
0000
0001
0000
0010
0100
0000
1000
0000
1000
0000
0000
1000
0000
0001
0000
,
0010
0000
0000
0001
0000
0000
0100
0000
0000
0010
0000
0000
1000
0000
0001
0000
,
0000
0100
0000
0000
0100
0000
0010
0000
1000
0000
0001
0000
1000
0010
0000
0010
,
0100
0000
0000
0001
0000
0000
1000
0000
0000
0001
0000
0000
0010
0000
0100
0000
,
1000
0000
0000
0000
0001
0000
0000
0100
0000
0010
0100
0000
0010
0000
1000
0000
,
0001
0000
0000
0010
0000
0000
1000
0000
0000
0100
0000
0000
0001
0000
1000
0000
,
0010
0000
0000
1000
0000
1000
0000
0001
0100
0000
0000
0010
0000
0010
0000
1000
,
0001
0000
0000
0010
0000
0000
0001
0000
0000
0100
0000
0000
1000
0000
0001
0000
,
1000
0000
0010
0000
0100
0000
0000
0001
0000
0010
0001
0000
1000
0000
0100
0000
,
0010
0000
0000
0001
0000
0000
0100
0000
0000
0010
0000
0000
1000
0000
0001
0000
,
1000
0100
0010
0001
0100
1000
0100
0001
,
0100
0000
0000
0010
0000
0000
1000
0000
0000
0001
0000
0000
0010
0000
0100
0000
,
1000
0000
0010
0000
0100
0001
0000
0010
0000
0001
1000
0000
0001
0000
0100
0000
,
0010
0000
0000
0010
0000
0000
1000
0000
0000
0001
0000
0000
0100
0000
0010
0000
,
1000
0000
0100
0000
0000
0010
0000
0000
0001
0000
0000
1000
0000
0000
0001
0000
,
0100
0000
0010
0000
0100
0001
0000
1000
0000
1000
0000
0000
0010
0000
0100
0000
,
0001
0000
0010
0000
0100
1000
0000
0001
0000
0001
0000
0000
1000
0000
0010
0000
,
0100
0000
0010
0000
0100
0001
0000
1000
0000
0100
0000
0000
0010
0000
0001
0000
,
1000
0000
0001
0000
0010
0001
0000
0100
0000
0010
0000
0000
1000
0000
0100
0000
,
1000
0000
0001
0000
0100
0010
0000
0010
0000
0010
0000
0000
1000
0000
0100
0000
,
1000
0000
0010
0000
0100
0001
0000
0001
0000
0001
0000
0000
1000
0000
0100
0000
,
0001
0000
0100
0000
1000
0010
0000
0010
0000
0010
0000
0000
0100
0000
0001
0000
,
0010
0000
0100
0000
0010
0001
0000
0001
0000
0001
0000
0000
1000
0000
0010
0000
,
0000
0100
0001
1000
0000
0000
0000
0000
;
