#TITLE:Beautiful Inside (Cube Hard Mix);
#ARTIST:NM feat. Alison Wade;
#BANNER:Beautiful Inside (Cube Hard Mix).png;
#BACKGROUND:Beautiful Inside (Cube Hard Mix)-bg.png;
#JACKET:Beautiful Inside (Cube Hard Mix)-jacket.png;
#MUSIC:Beautiful Inside (Cube Hard Mix).ogg;
#SAMPLESTART:57.263;
#SAMPLELENGTH:20;
#DISPLAYBPM:110;
#BPMS:0=110.092,8=110.013;
#BGCHANGES:;

//---------------dance-single - ----------------
#NOTES:
     dance-single:
     :
     Beginner:
     3:
     :
0000
0000
0000
0000
,
0000
0000
0000
0000
,
0000
0000
0000
0000
,
1000
0000
0000
0000
,
0100
0000
0000
0000
,
0010
0000
0010
0000
,
0001
0000
0000
0000
,
0100
0000
0000
0000
,
0001
0000
0000
0000
,
1000
0000
0010
0000
,
1000
0000
0001
0000
,
1000
0000
1000
0000
,
0010
0000
0000
0000
,
0100
0000
0100
0000
,
0001
0000
0000
0000
,
1000
0000
0010
0000
,
0100
0000
0001
0000
,
0010
0000
0010
0000
,
0001
0000
0000
0000
,
1000
0000
0001
0000
,
0100
0000
0000
0000
,
0010
0000
0100
0000
,
1000
0000
0000
0000
,
0001
0000
1000
0000
,
0100
0100
0100
0000
,
0010
0000
0001
0000
,
1000
0000
0001
0000
,
1001
0000
0000
0000
,
1000
0000
0001
0000
,
0100
0000
0000
0000
,
0010
0000
0100
0000
,
0110
0000
0000
0000
,
1000
0000
0001
0000
,
0010
0000
0100
0000
,
1000
0000
0000
0000
,
1001
0000
0000
0000
,
0010
0000
1000
0000
,
0001
0000
0100
0000
,
0001
0000
0001
0000
,
0010
0000
0000
0000
,
0100
0000
0000
0000
,
0010
0000
0000
0000
,
1000
0000
0100
0000
,
0010
0000
0000
0000
,
0001
0000
0000
0000
,
1000
0000
0010
0000
,
0100
0000
0000
0000
,
0000
0000
0000
0000
;

//---------------dance-single - ----------------
#NOTES:
     dance-single:
     :
     Easy:
     5:
     :
0000
0000
0000
0000
,
0000
0000
0000
0000
,
0000
0000
0000
0000
,
0010
0000
0001
0000
,
1000
0001
1000
0001
,
0100
0000
0020
0000
,
0030
0000
0000
0000
,
0100
0000
0010
0000
,
1000
0100
1000
0100
,
0010
0000
1000
0000
,
0001
0000
0010
0000
,
0001
0100
0001
0000
,
1000
0100
0000
0000
,
0010
0001
1000
0010
,
0100
0000
0010
0000
,
0001
0100
0010
1000
,
0001
0000
0100
0000
,
0010
0001
0010
0000
,
1000
0000
0010
0000
,
1001
0000
0100
0000
,
0010
0000
1000
0010
,
0100
0000
0010
0000
,
0100
0000
0001
0010
,
0001
0000
1000
0000
,
0010
1000
0100
1000
,
0010
0000
0100
0000
,
0000
0001
0100
1000
,
0020
0000
0030
0000
,
2000
0000
3000
0000
,
0002
0000
0003
0000
,
0010
0100
0001
0000
,
0020
0000
0030
0000
,
2000
0000
3000
0000
,
0002
0000
1003
0000
,
0010
1000
0100
0000
,
0001
0000
0010
0001
,
0100
0000
1000
0000
,
0001
0000
0010
0100
,
0010
0000
1000
0000
,
0010
0000
0100
0001
,
0100
0000
0010
0000
,
0200
0000
0300
0000
,
1000
0100
0010
0001
,
2000
0000
3000
0000
,
0002
0000
0003
0000
,
0010
0010
0100
0010
,
0110
0000
0000
0000
,
0000
0000
0000
0000
;

//---------------dance-single - ----------------
#NOTES:
     dance-single:
     :
     Medium:
     7:
     :
0000
0000
0000
0000
,
0000
0000
0000
0000
,
0000
0000
0000
0000
,
0010
0000
0100
0001
0100
0000
0010
0000
,
1000
0001
0100
0000
1000
1000
0010
0000
,
0100
0000
0000
0001
0001
0000
0100
0000
,
2000
0000
3010
0010
,
0100
0000
0001
0000
0010
0001
0100
0000
,
0010
0010
1000
0000
0001
0000
0101
0000
,
1000
0000
0000
0010
0010
0000
1001
0000
,
0200
0000
0000
0001
0301
0000
0000
0000
,
1000
0000
0001
0000
0100
0010
1000
0000
,
0001
0010
1000
0000
0001
1000
0100
0100
,
1000
0010
0100
0001
,
0010
0000
0010
0100
1000
0000
1010
0000
,
2000
0000
3200
0000
0320
0000
0031
0001
,
0010
0000
0100
0000
1000
1000
0010
0000
,
0110
0101
1100
0000
,
0010
1000
0100
0000
0010
0001
0100
0010
,
0110
0000
0000
0100
1001
0000
0000
0000
,
1000
0010
0100
0000
0001
1000
0100
0010
,
1001
0000
0000
1000
0110
0000
0000
0000
,
0010
0100
1000
0000
0001
0000
1010
0000
,
0020
0000
0130
0000
,
2000
3002
0203
0302
,
0013
0100
1000
0000
0010
0000
0000
0000
,
0000
1000
0101
1010
,
1001
0000
0000
0000
0010
0010
0010
0000
,
0100
0000
0010
1000
0001
0000
1000
0000
,
0020
0100
0130
0000
,
1000
0000
0100
1000
0010
0000
1010
0000
,
0011
0000
0000
0000
0001
0001
0001
0000
,
1000
0000
0010
0001
0100
0000
1000
0000
,
0020
0100
0130
0000
,
0001
0100
0010
0000
1001
0000
0110
0000
,
1010
0000
0000
0000
0100
0100
0100
0000
,
0001
0000
0100
0010
1000
0000
0001
0000
,
2000
0010
3010
0000
,
0100
0110
1000
1010
,
1001
0000
0000
0000
0100
0100
0100
0000
,
0010
1000
0100
0000
0001
1000
0100
0000
,
0020
0000
0230
0000
,
0301
1000
0010
0100
,
0010
1000
0100
0000
1000
0000
0010
0000
,
0100
0001
0010
0000
0001
0000
0011
0000
,
2000
3002
0203
0310
,
0220
0000
0000
0330
,
0000
0000
0000
0000
;

//---------------dance-single - ----------------
#NOTES:
     dance-single:
     :
     Hard:
     10:
     :
0000
0000
0000
0000
,
0000
0000
0000
0000
,
0000
0000
0000
0000
,
1000
0010
0100
0000
0001
0000
1001
0000
,
1000
0010
0100
0000
0001
1000
0100
0000
,
1100
0000
0011
0001
0101
0000
1010
0000
,
1000
0100
1000
0100
0010
0001
0011
0000
,
0001
0100
0010
0000
1010
0000
0011
0000
,
0010
0001
0100
0000
0001
1000
0100
0000
,
1100
0000
0110
0010
0011
0000
1001
1000
,
0010
0100
0010
1000
0100
0010
0110
0000
,
0001
0100
0110
0000
1000
0100
0110
0000
,
1000
0100
0010
0001
0000
0100
1000
0000
,
0010
0100
0010
0001
0100
0010
1000
0100
,
0001
0000
1100
1000
0001
0000
0101
0000
,
2000
0001
3100
0000
0002
1000
0103
0000
,
0010
0000
0000
0001
0000
0000
0010
0000
0100
0000
0000
1000
0000
0000
0010
0000
,
0100
1000
0100
2000
0010
0000
3001
0000
,
0011
0000
1010
0000
1001
0000
0001
1000
,
0200
0010
1300
0001
0200
1000
0310
0000
,
0010
1000
0100
0010
0001
0100
0001
1000
,
0020
0100
1030
0001
0020
0100
0031
0000
,
0001
1000
0100
1000
0010
0100
0001
1000
,
0020
0000
1000
0100
0130
0000
0001
0000
,
0020
0000
0230
0000
1300
0010
0100
0001
,
1000
0000
0000
0100
0000
0000
0001
0000
0020
0000
0000
0000
0000
0000
0000
0000
,
0030
0101
1100
1010
,
2001
0000
0000
0000
0010
0001
3010
0001
,
0100
0000
0010
1000
0100
0000
0010
0000
,
0011
0000
1100
0000
0010
1000
0100
0000
,
0011
1100
0110
0011
,
1002
0000
0000
0000
1000
0100
1003
0000
,
0002
0000
0013
0000
0100
0010
1010
0000
,
1000
0010
0001
0000
0001
1000
1001
0000
,
0001
0100
1000
0000
1000
0001
1001
0110
,
1000
0100
0010
0002
1000
1000
0103
0010
,
0110
0000
1001
0000
1000
0100
0110
0000
,
0010
1000
0020
0000
2030
0000
3001
0000
,
0200
0000
0320
0000
1030
0001
0010
0000
,
0001
0100
0010
2000
0001
0001
3100
0010
,
0110
0000
1100
0000
0011
0001
0101
0000
,
2002
0000
0000
3003
,
0001
0000
1000
0000
0001
0100
0010
1000
,
0001
0000
1000
0000
0001
0001
0100
0000
,
0010
1000
0100
0000
0001
0001
0100
0010
,
2000
3200
0320
0032
,
2000
0000
0000
3003
,
0000
0000
0000
0000
;

//---------------dance-single - ----------------
#NOTES:
     dance-single:
     :
     Challenge:
     14:
     :
0000
0000
0000
0000
,
0000
0000
0000
0000
,
0000
0000
0000
0000
,
2000
0000
0100
0000
3200
0000
0001
0000
0302
0000
0010
0000
0013
0100
0010
0100
,
2000
0000
0100
0000
3200
0000
0001
0000
0302
0010
0000
1000
0000
0010
0000
1003
,
0010
0000
0100
0000
0010
0000
1000
0100
1000
0100
1000
0000
0001
0000
0000
0100
,
0010
0000
1010
0000
0101
0000
0001
1000
0001
0100
0000
0100
0000
0010
1000
0000
,
0002
0000
0100
0000
0203
0000
0010
0000
0320
0000
1000
0000
1030
0001
1000
0001
,
0020
0000
0001
0000
0032
0000
0100
0000
0203
1000
0000
0001
0000
1000
0000
0301
,
0100
0000
0010
0000
1000
0000
0001
0000
0001
0010
0001
0000
0100
0010
1000
0000
,
1100
0000
0000
0110
0000
0000
0011
0000
1000
0010
0100
0010
1000
0010
0100
0000
,
1001
0000
0000
0010
0002
0000
0000
0013
2000
0000
0000
3010
0001
0000
0100
0000
,
0010
1000
0000
1000
0100
0000
0001
0000
0010
0100
0010
0001
0000
0001
0000
1000
,
0001
0000
0000
0100
0002
0000
0000
0103
2000
0000
0000
3100
0001
0000
1000
0000
,
0010
0100
0000
0100
0001
0000
1000
0000
0100
1000
0100
1000
0000
0001
0000
0001
,
0100
0000
0010
1000
0002
0000
0100
0000
2003
0000
0100
0000
3002
0000
0100
0000
,
1003
0010
0100
0010
1000
0000
0001
0000
0010
0001
0010
0100
1000
0000
0001
0000
,
0101
0000
0000
0110
0000
0000
1010
0000
1100
0000
0000
0000
0001
1000
0001
1000
,
0001
0000
0100
0010
1000
0010
1000
0000
0001
0010
0001
1000
0000
1000
0001
0100
,
0010
0000
1000
0100
1000
0000
1100
0000
0011
0000
0100
0001
0100
0000
0110
0000
,
1000
0010
0100
0010
1000
0000
0001
0000
0001
0010
0100
0010
0001
0000
1000
0000
,
1001
0000
0010
1000
0010
0000
0101
0000
1010
0000
0001
1000
0100
0000
0110
0000
,
0001
0010
0100
0010
0001
0000
1000
0000
0010
0100
0001
1000
0100
0000
0010
0000
,
0001
0100
0010
0100
0001
0000
1000
0000
0101
0000
0010
0000
1000
0000
0001
0000
,
0010
0001
0000
0001
0100
0000
0010
0000
1000
0100
0000
0100
1000
0000
0001
0000
,
0020
0000
0000
0032
0000
0000
0103
0000
1000
0010
1000
0010
1000
0000
0001
0100
,
0010
0000
1000
0100
2000
0000
0010
0000
3020
0000
0100
0000
0130
0001
1000
0001
,
0200
0000
0000
0310
1000
0000
0001
0010
0001
1000
0010
1000
0100
0000
1000
0000
,
0001
0100
0001
0000
0010
0100
0010
0000
0001
1000
0001
0000
0100
0010
0100
0000
,
0001
0010
0001
1000
0001
0000
0100
0000
0010
1000
0010
0000
1000
0001
0100
0000
,
0001
0010
0100
0000
0010
0100
1000
0000
0010
1000
0001
0000
0100
0001
1000
0000
,
0010
1000
0010
0100
0001
0000
0000
1000
0001
1000
0010
0100
0001
0000
1000
0100
,
1000
0000
0010
0100
0001
0000
1000
0000
0001
0100
0010
0100
0001
0100
0010
1000
,
0001
0000
0010
0100
1000
0000
0000
0000
0010
0100
0010
1000
0001
0000
0000
0000
,
0200
0000
0302
0000
2003
0000
3200
0000
0310
0001
1000
0000
0010
0100
0010
1000
,
0001
0000
0100
0010
1000
0000
0000
0001
0010
0100
0010
0100
1000
0000
0000
0000
,
0001
0100
0010
1000
0001
0000
0000
0000
0010
0100
0010
0001
1000
0000
0000
0000
,
1100
0000
0001
1000
0001
0100
0010
1000
0010
1000
0001
0000
0100
0010
0100
0010
,
0100
0000
0001
1000
0000
1000
0100
0010
0001
0000
1000
0001
0010
0100
1000
0000
,
1001
0000
0000
0010
0100
0000
0001
1000
0001
0010
0001
0100
0010
1000
0010
0100
,
0001
0000
0010
0100
1000
0000
0010
1000
0001
1000
0100
0010
0001
0100
0010
1000
,
0001
0000
0100
0010
0100
0000
0110
0000
1000
0001
1000
0001
1000
0010
0100
0010
,
1000
0100
0010
0000
0001
0100
0010
0000
1000
0001
1000
0001
0010
0100
1000
0000
,
0002
0000
0000
0000
0100
0000
0000
0000
1003
0010
1000
0000
0100
0000
0000
0000
,
0020
0000
0000
0000
1000
0000
0000
0000
0031
0100
0010
0100
0001
0000
1000
0000
,
1010
0010
0110
0100
0101
0001
0011
0000
,
2002
0000
0000
0000
0000
0000
0000
0000
0000
0003
0000
0000
0000
0000
3010
0100
,
0002
0000
0000
0000
,
2000
0000
0000
3003
;

//---------------dance-double - ----------------
#NOTES:
     dance-double:
     :
     Easy:
     4:
     :
00000000
00000000
00000000
00000000
,
00000000
00000000
00000000
00000000
,
00000000
00000000
00000000
00000000
,
00000010
00000000
00001000
00000000
,
00000001
00000001
00000100
00000100
,
00000010
00000000
00000200
00000000
,
00000300
00000000
00000000
00000000
,
00001000
00000000
00010000
00000000
,
00001000
00001000
00010000
00010000
,
00100000
00000000
10000000
00000000
,
00020000
00000000
20000000
30030000
,
00000000
01000000
01000000
00000000
,
10000000
00000000
01000000
00000000
,
00100000
00010000
00001000
00000000
,
00000100
00000000
00000010
00000000
,
00001000
00000100
00000010
00000000
,
00000001
00000000
00001000
00000000
,
00000100
00000100
00001000
00000000
,
00000000
00000000
00000000
00000000
,
10010000
00000000
01100000
00000000
,
00010000
00010000
00010000
00000000
,
01100000
00000000
10010000
00000000
,
01000000
01000000
01000000
00000000
,
00010000
00000000
00001000
00000000
,
00000010
00000010
00000100
00000100
,
00000010
00001000
00000100
00000000
,
00000000
00001000
00000001
00001000
,
00000020
00000000
00000030
00000000
,
00000002
00000000
00000003
00000000
,
00002000
00000000
00003000
00000000
,
00010000
00001000
00010000
00001000
,
00200000
00000000
00300000
00000000
,
20000000
00000000
30000000
00000000
,
00020000
00000000
00030000
00000000
,
00100000
00010000
01000000
00010000
,
10000000
10000000
01000000
00000000
,
00010000
00000000
00001000
00000000
,
00000010
00001000
00000001
00000000
,
00000010
00000010
00000100
00000100
,
00000010
00000100
00001000
00000000
,
00000001
00000100
00001000
00000000
,
00020000
00000000
00030000
00000000
,
00001000
00010000
00001000
00010000
,
02000000
00000000
03000000
00000000
,
00200000
00000000
00300000
00000000
,
10000000
10000000
00010000
10000000
,
10010000
00000000
00000000
00000000
,
00000000
00000000
00000000
00000000
;

//---------------dance-double - ----------------
#NOTES:
     dance-double:
     :
     Medium:
     7:
     :
00000000
00000000
00000000
00000000
,
00000000
00000000
00000000
00000000
,
00000000
00000000
00000000
00000000
,
01000000
00000000
00100000
10000000
00100000
00000000
01000000
00000000
,
00010000
00100000
01000000
00000000
01000000
00010000
00001000
00000000
,
00000010
00000000
00000001
00001000
00000010
00000000
00000000
00000000
,
00000002
00000000
00000103
00000100
,
00001000
00000000
00000001
00000100
00000010
00000000
00000100
00000000
,
00010000
00010000
00001000
00000000
00100000
00010000
01000000
00000000
,
00010000
00000000
10000000
01000000
00010000
00000000
10010000
00000000
,
00100000
00000000
01000000
10000000
10000000
00000000
00000000
00000000
,
00010000
10000000
00100000
01000000
,
00010000
00001000
00000100
00000000
00000010
00010000
00000100
00000000
,
00001000
00000100
00000010
00000001
,
00000100
00000000
00000000
00000100
00000000
00000000
00000100
00000000
00000020
00000000
00000000
00000000
00000030
00000000
00000000
00000000
,
00000100
00001000
00010000
00100000
,
10000000
01000000
00100000
00000000
00010000
01000000
00100000
00000000
,
10000000
00010000
01100000
00000000
,
00100000
10000000
01000000
10000000
,
00100000
01000000
01000000
00000000
00001000
00010000
00010000
00000000
,
00000010
00001000
00000100
00000001
00000100
00001000
00000010
00000000
,
00000001
00000100
00000100
00000000
00001000
00000100
00000100
00000000
,
00000010
00001000
00010000
00001000
00000010
00001000
00010000
00000000
,
02000000
00000000
00000000
00100000
03100000
00000000
00000000
00000000
,
00020000
20030000
30200000
20300000
,
31000000
00010000
00001000
00000000
00011000
00000000
00000000
00000000
,
00001000
00000100
00000001
00000010
,
00002000
00000000
00003000
00000000
00000001
00000100
00000100
00000000
,
00001000
00000000
00000100
00010000
00001000
00000000
00010000
00000000
,
02000000
00100000
03100000
00000000
,
10000000
01010000
00100000
11000000
,
00100000
00000000
00000000
00000000
00010000
00001000
00001000
00000000
,
00001000
00000000
00000100
00000001
00000010
00000000
00001000
00000000
,
00000200
00000010
00000310
00000000
,
00000010
00011000
00000100
00011000
,
01000000
00000000
00010000
00000000
00100000
00100000
00100000
00000000
,
10000000
00000000
00100000
01000000
00010000
00000000
10000000
00000000
,
00020000
01000000
01030000
00000000
,
00100000
01001000
00010000
00001010
,
00000100
00000000
00000010
00000000
00000001
00000100
00000100
00000000
,
00001000
00000000
00000100
00000001
00000010
00000000
00001000
00000000
,
00010000
00001000
00000100
00000000
00001000
00010000
00100000
00000000
,
10000000
00010000
01000000
00100000
,
01000000
00010000
00100000
00000000
11000000
00000000
00000000
00000000
,
00100000
10000000
01000000
00000000
01010000
00000000
00000000
00000000
,
00100000
01000000
00010000
00001000
,
00022000
00000000
00000000
00033000
,
00000000
00000000
00000000
00000000
;

//---------------dance-double - ----------------
#NOTES:
     dance-double:
     :
     Hard:
     11:
     :
00000000
00000000
00000000
00000000
,
00000000
00000000
00000000
00000000
,
00000000
00000000
00000000
00000000
,
00001000
00000010
00000100
00000000
00000001
00000000
00001100
00000000
,
00000010
00010000
00000100
00000000
00000010
00001000
00010000
00000000
,
00100000
10000000
00010000
00100000
01000000
10000000
11000000
00000000
,
00010000
00010000
01000000
00100000
00010000
00001000
00000010
00000001
,
00001000
00000001
00000100
00000000
00001100
00000000
00000101
00000000
,
00000010
00010000
01000000
00000000
00100000
10000000
01000000
00000000
,
00100000
00001000
01000000
00100000
01000000
00010000
00110000
00000000
,
10000000
01000000
00010000
00001000
00100000
00010000
00011000
00000000
,
00000001
00000100
00000010
00000000
00001001
00000000
00000110
00000000
,
00010000
00001000
00000100
00001000
00010000
00001000
00000100
00000000
,
00000010
00010000
01000000
10000000
00100000
00000000
01000000
00000000
,
01010000
01000000
00010000
01000000
10000000
01000000
11000000
00000000
,
00100000
01000000
10000000
00000000
00010000
01000000
10000000
00000000
,
00100000
00010000
00001000
01000000
00010000
00001000
00000001
00000010
,
00000100
00001000
00000010
00002000
00000002
00000000
00003003
00000000
,
00000001
00000000
00000010
00000000
00001000
00000000
00000001
00000100
,
00000010
00000100
00000110
00010000
01000000
10000000
10100000
01000000
,
00100000
01000000
10000000
00010000
01000000
00001000
00010000
00000000
,
00000100
00010000
00010100
00001000
00000010
00000001
00000011
00001000
,
00000001
00001000
00000100
00000001
00000100
00010000
00000010
00000001
,
00000020
00000000
00001030
00000100
00000100
00000000
00010000
00001000
,
00200000
00000000
10300000
00000000
01000000
00100000
01000000
00010000
,
00001000
00000000
00000000
00000100
00000000
00000000
00000001
00000000
00000020
00000000
00000000
00000000
00000000
00000000
00000000
00000000
,
00000030
00000101
00010100
00001010
,
00000001
00001000
00000010
00001000
00000001
00000000
00000100
00000000
,
00001000
00010000
00000010
00001000
00010000
00000000
01000000
00000000
,
10100000
00000000
01010000
00000000
10000000
00010000
01000000
00000000
,
21000000
00100000
00010000
31000000
,
00010000
00001000
00000100
00000001
00001000
00000000
00000100
00000000
,
00000010
00001000
00100000
00010000
00001000
00000000
00000100
00000000
,
00000011
00000000
00001100
00000000
00000001
00001000
00000100
00000000
,
00000102
00000000
00000010
00000000
00001000
00000000
00000103
00000100
,
00000010
00000100
00000001
00001000
00000100
00010000
00011000
00000000
,
00110000
01000000
10000000
00000000
10100000
01000000
00010000
00010000
,
00100000
00001000
01000000
00010000
00002000
00000001
00003001
00000000
,
00000200
00000000
00000320
00000000
00001030
00000001
00000010
00000000
,
00000001
00000100
00000010
00010000
00001000
00000100
00000110
00000000
,
00010010
00001000
00100000
00000000
11000000
00010000
01000000
00000000
,
20000000
00000000
02000000
33000000
,
00100000
10000000
01000000
10000000
00100000
00010000
00001000
00000100
,
00000001
00000000
00001000
00000000
00000001
00000001
00000100
00000000
,
00000010
00010000
00001000
00000000
00100000
00010000
01000000
00100000
,
00020000
01030000
20000000
30100000
,
02000000
00000000
00000000
03000000
,
00000000
00000000
00000000
00000000
;
