#TITLE:Be Okay;
#ARTIST:Oh Honey;
#BANNER:Be Okay-bn.png;
#BACKGROUND:Be Okay-bg.png;
#JACKET:Be Okay-jacket.png;
#MUSIC:Be Okay.ogg;
#OFFSET:-0.188;
#SAMPLESTART:52.93;
#SAMPLELENGTH:20;
#DISPLAYBPM:117;
#BPMS:0=117.02;
#BGCHANGES:;

//---------------dance-single - ----------------
#NOTES:
     dance-single:
     :
     Beginner:
     3:
     :
0000
0000
0000
0000
,
0000
0000
0000
0000
,
1000
1000
0000
0000
,
0001
0001
0000
0000
,
1000
0000
0010
0000
,
1000
0000
0001
0000
,
0000
0000
0010
0000
,
0000
0000
0001
0000
,
1000
0000
1000
0000
,
0010
0000
0100
0000
,
0001
0001
0000
0000
,
1000
1000
0000
0000
,
0001
0000
0010
0000
,
0001
0000
0100
0000
,
0000
0000
1000
0000
,
0000
0000
0010
0000
,
0100
0000
0100
0000
,
0001
0000
1000
0000
,
0100
0100
0000
0000
,
0010
0010
0000
0000
,
0001
0000
0000
0000
,
1000
0000
0000
0000
,
0010
0000
0100
0000
,
0001
0000
0000
0000
,
1000
0000
0100
0000
,
0001
0000
0000
0000
,
1001
0000
0100
0000
,
0001
0000
1000
0000
,
0010
0000
0010
0000
,
0100
0000
0100
0000
,
0001
0000
0010
0000
,
0001
0000
1000
0000
,
0100
0000
0100
0000
,
0010
0000
0010
0000
,
0001
0000
0000
0000
,
1000
1000
1000
0000
,
0010
0000
1000
0000
,
0100
0000
0001
0000
,
1000
0000
0000
0000
,
0001
0000
0000
0000
,
0100
0000
0010
0000
,
0100
0000
0000
0000
,
0001
0000
0000
0000
,
1000
0000
0010
0000
,
1000
0000
0000
0000
,
0001
0000
0000
0000
,
0100
0000
0000
0000
,
0010
0000
0000
0000
,
0000
0000
0000
0000
,
1001
0000
0100
0000
,
0001
0000
0010
0000
,
0100
0000
1000
0000
,
0010
0000
1000
0000
,
0001
0000
0010
0000
,
0100
0000
0010
0000
,
0100
0000
1000
0000
,
0010
0000
0001
0000
,
1000
0000
0000
0000
,
0010
0010
0010
0000
,
1000
0000
0001
0000
,
1000
0000
0010
0000
;

//---------------dance-single - ----------------
#NOTES:
     dance-single:
     :
     Easy:
     6:
     :
0000
0000
0000
0000
,
0000
0000
0000
0000
,
1000
0001
1000
1001
,
0001
1000
0001
1001
,
0010
0001
0100
0000
,
0010
1000
0100
0000
,
1000
0010
0001
0000
,
0100
0001
0010
0010
,
0002
0000
2000
3003
,
0010
1000
0100
0001
,
0010
0100
0010
0110
,
0100
0010
0100
0110
,
1000
0010
0001
0000
,
0100
0001
0010
0000
,
0001
0100
1000
0000
,
0010
1000
0001
0001
,
0020
0000
0200
0330
,
1000
0010
0001
0100
,
0010
1000
0100
0110
,
0010
0001
0100
1001
,
2000
3000
0020
0030
,
1000
0100
0001
0010
,
0002
0003
2000
3000
,
0001
0010
1000
0000
,
0010
1000
0200
0301
,
2000
0000
3000
1001
,
1001
0010
1000
0100
,
1000
0010
0001
0100
,
0001
0001
1000
1000
,
0001
0001
1000
1000
,
0100
0010
0001
0100
,
0001
0010
1000
0100
,
0010
0010
0100
0100
,
0010
0010
0100
0100
,
1000
0001
1000
0100
,
0110
1001
1000
0001
,
0010
0001
0100
0110
,
0010
1000
0100
0110
,
0000
0001
0100
1000
,
0000
0010
1000
0100
,
0000
0000
1000
0001
,
0000
0010
0001
0100
,
0000
0001
0010
1000
,
0000
0000
0100
0010
,
0001
0001
0001
0000
,
1000
1000
1000
0000
,
0010
0010
0010
0000
,
0100
0100
0001
1000
,
0000
0000
0000
1001
,
1001
0001
0010
1000
,
0100
0010
0100
1000
,
0001
0001
1000
1000
,
0001
0001
1000
1000
,
0001
0010
1000
0100
,
0010
0001
0100
1000
,
0010
0010
0100
0100
,
0010
0010
0100
0100
,
0001
0010
1000
0100
,
0110
1001
0100
0010
,
1000
0100
0001
0110
,
0010
0001
1000
0110
;

//---------------dance-single - ----------------
#NOTES:
     dance-single:
     :
     Medium:
     10:
     :
0000
0000
0000
0000
,
0000
0000
0000
0000
,
1000
0000
0000
0000
0010
0000
0100
0000
0000
0000
0000
0001
0000
0000
1000
0000
,
0001
0000
0000
0000
0010
0000
0100
0000
0000
0000
0000
1000
0000
0000
0001
0000
,
1000
0000
0000
0000
0010
0000
0000
0000
0100
0000
0000
0001
0000
0000
1000
0000
,
0001
0000
0000
0000
1000
0000
0000
0000
0010
0000
0000
0100
0000
0000
0001
0000
,
0000
0000
1000
0000
0000
0000
0001
0000
1000
0000
0000
0010
0000
0000
0100
0000
,
0000
0000
0001
0000
0010
0000
0000
0000
0001
0000
0000
0100
0000
0000
1000
0000
,
0000
0000
0001
0000
1000
0000
0001
0000
0010
0000
0000
0100
0000
0000
1000
0000
,
0010
0000
0100
0000
0010
0000
0100
0000
0010
0000
0000
1000
0000
0000
0001
0000
,
0010
0000
0000
0000
0001
0000
1000
0000
0000
0000
0000
0010
0000
0000
0100
0000
,
0001
0000
0000
0000
0010
0000
0001
0000
0000
0000
0000
1000
0000
0000
0100
0000
,
0010
0000
0000
0000
0001
0000
0000
0000
1000
0000
0000
0001
0000
0100
0010
0000
,
1000
0000
0000
0000
0100
0000
0000
0000
1000
0000
0000
0001
0000
0100
0010
0000
,
0000
0000
1000
0000
0000
0001
0000
0000
0010
0000
0000
0100
0000
0100
1000
0000
,
0000
0000
0001
0000
1000
0000
0000
0000
0010
0000
0000
1000
0000
0000
0100
0000
,
0000
0000
0010
0000
0001
0000
0100
0000
0001
0000
0000
1000
0000
0000
0010
0000
,
1000
0000
0001
0000
1000
0000
0001
0000
1000
0000
0000
0100
0000
0000
0010
0000
,
0001
0000
0000
0000
0100
0000
0010
0000
0000
0000
0000
1000
0000
1000
0001
0000
,
0010
0000
0000
0000
0001
0000
1000
0000
0000
0000
0000
0100
0000
1000
0010
0000
,
0200
0000
0300
0001
2000
0000
3000
0001
,
0010
0000
0001
1000
0000
0000
0010
0000
1000
0000
0100
0000
0010
0000
0001
0000
,
0200
0000
0300
0010
2000
0000
3000
0000
,
0100
1000
0000
0001
0000
0000
1000
0000
0010
0000
0100
0000
0000
0000
0000
0000
,
0001
0010
0000
0001
0000
0000
1000
0000
0100
0000
0100
0000
0100
0000
0200
0000
,
0000
0000
0300
1001
,
1001
0100
1000
0000
0001
0001
0001
0000
,
0010
0001
0100
0000
1000
1000
1000
0000
,
0001
0000
0000
0010
0000
0000
0001
0000
0200
0000
0000
0000
0320
0000
0000
0000
,
1030
0000
0000
0001
0000
0000
1000
0000
0200
0000
0000
0000
0320
0000
0000
0000
,
0031
0100
0001
0000
1000
1000
1000
0000
,
0100
0010
0001
0000
1000
1000
1000
0000
,
0001
0000
0000
0010
0000
0000
1000
0000
0002
0000
0000
0000
0203
0000
0000
0000
,
0310
0000
0000
0100
0000
0000
0001
0000
2000
0000
0000
0000
3100
0000
0010
0000
,
0001
1000
0010
0000
0100
0000
0001
0000
,
0010
0000
0000
0001
1000
0000
0001
0000
0100
0000
0000
0010
0000
0000
1000
0000
,
0000
0000
0100
0000
1000
0000
0001
0000
1000
0000
0000
0010
0000
0000
0100
0000
,
0000
0000
0001
0000
0010
0000
0001
0000
0100
0000
0000
0010
0000
0000
1000
0000
,
0100
0000
0000
0100
1000
0000
0001
0000
0100
0000
0000
0000
0110
0000
0000
0000
,
0100
0000
0000
0100
0001
0000
1000
0000
0100
0000
0000
0000
0110
0000
0000
0000
,
0022
0000
0000
0000
0033
0000
1000
0000
0001
0000
0000
1000
0000
0000
0010
0000
,
0100
0000
0000
0100
0001
0000
1000
0000
0100
0000
0000
0000
0110
0000
0000
0000
,
0100
0000
0000
0100
1000
0000
0001
0000
0100
0000
0000
0000
0110
0000
0000
0000
,
2020
0000
0000
0000
3030
0000
0001
0000
1000
0000
0000
0100
0000
0000
0010
0000
,
0001
0000
0100
0000
1000
0001
0100
0000
,
0010
0000
1000
0000
0100
0010
0001
0000
,
1000
0000
0000
0001
0000
0000
1000
0000
0010
0000
0000
0000
0100
0000
0000
0000
,
0001
0000
0000
0010
0000
0000
0001
0000
1000
0000
0000
0000
0100
0000
0000
0000
,
0000
0000
0000
1001
,
1001
0100
0001
0100
0010
0010
0010
0000
,
0100
1000
0010
1000
0001
0001
0001
0000
,
0010
0000
0000
0001
0000
0000
1000
0000
0020
0000
0000
0000
0230
0000
0000
0000
,
0310
0000
0000
1000
0000
0000
0100
0000
2000
0000
0000
0000
3002
0000
0000
0000
,
0013
0001
0010
0100
1000
1000
1000
0000
,
0001
0010
0001
1000
0100
0100
0100
0000
,
1000
0000
0000
0010
0000
0000
1000
0000
0002
0000
0000
0000
0203
0000
0000
0000
,
0301
0000
0000
0010
0000
0000
0001
0000
2000
0000
0000
0000
3100
0000
1000
0000
,
0001
0100
0010
0000
1000
0000
0001
0000
,
0010
0000
0000
0001
1000
0000
0010
0000
1000
0000
0000
0100
0000
0000
0001
0000
,
0000
0000
0010
0000
0001
0000
1000
0000
0020
0000
0000
2030
0000
0000
3200
0000
,
0000
0000
0310
0000
0001
0000
0100
0000
0001
0000
0000
1000
0000
0000
0010
0000
;

//---------------dance-single - ----------------
#NOTES:
     dance-single:
     :
     Hard:
     13:
     :
0000
0000
0000
0000
,
0000
0000
0000
0000
,
1000
0000
0000
0001
0010
0000
0100
0000
0000
0000
0000
1000
0000
1000
0001
0000
,
0100
0000
0000
0100
0001
0000
0010
0000
0000
0000
0000
0001
0000
0001
1000
0000
,
0010
0000
0000
1000
0100
0000
0010
0000
0001
0000
0000
1000
0000
1000
0010
0000
,
0100
0000
0000
0100
0001
0000
0010
0000
1000
0000
0000
0001
0000
1000
0100
0000
,
0010
0000
0001
0000
0100
0000
0001
0000
0010
0000
0000
1000
0000
1000
0100
0000
,
0010
0000
0100
0000
1000
0000
0001
0000
0100
0000
0000
0010
1000
0000
0001
0000
,
0010
0000
0001
0000
0100
0000
0001
0000
1000
0000
0000
0010
0000
0010
0100
0000
,
0001
0000
0010
0000
1000
0000
0010
0000
0001
0100
0000
0100
0010
0000
1000
0000
,
0001
0000
0000
1000
0001
0000
0100
0000
0010
0000
0000
1000
0000
1000
0001
0000
,
0010
0000
0000
0100
0010
0000
0001
0000
1000
0000
0000
0010
0000
0010
0100
0000
,
0001
0000
0010
0000
0100
0000
0010
0000
0001
0000
0000
1000
0100
0000
0010
0000
,
0001
0000
0000
0100
0001
0000
1000
0000
0010
0000
0000
0100
0000
0100
0001
0000
,
0010
0000
0001
1000
0000
0001
1000
0000
0010
0000
0000
0100
0000
0100
0001
0000
,
0010
0000
0100
0000
1000
0000
0010
0000
1000
0000
0000
0001
1000
0000
0100
0000
,
0010
0000
0001
0000
1000
0000
0001
0000
0010
0000
0000
0100
0000
0100
1000
0000
,
0001
0000
0100
0000
1000
0000
0100
0000
0001
0010
0000
0010
0100
0000
1000
0000
,
0001
1000
0000
0001
1000
0000
0010
0000
0100
0000
0000
0001
0000
0001
0010
0000
,
0100
0000
0000
0100
1000
0000
0001
0000
0100
0000
0000
0010
0000
0010
1000
0000
,
1001
0000
0100
0010
1001
0000
0100
0010
,
1000
0000
0100
1000
0000
0100
1000
0000
0001
0000
0100
0000
0010
0000
1000
0000
,
0110
0000
1000
0001
0110
0000
1000
0001
,
0010
0000
0001
0100
0000
0001
0100
0000
0010
0000
1000
0000
0100
0000
0000
0000
,
1000
0001
0000
1000
0001
0000
0100
0000
0101
0000
0101
0000
0101
0000
0202
0000
,
0000
0000
0303
1001
,
1001
0000
0010
1000
0000
0010
1000
0000
0100
0000
0100
0000
0100
0000
0000
0000
,
0010
0000
0001
1000
0000
0001
1000
0000
0010
0000
0010
0000
0010
0000
0000
0000
,
1000
0000
0100
0010
0000
0010
0001
0000
2000
0000
0000
0000
3002
0000
0000
0000
,
0013
0000
0001
0100
0000
0100
0010
0000
2000
0000
0000
0000
3002
0000
0000
0000
,
1003
0000
0100
0010
0000
0100
0010
0000
0001
0000
0001
0000
0001
0000
0000
0000
,
0100
0000
0001
0010
0000
0001
0010
0000
1000
0000
1000
0000
1000
0000
0000
0000
,
0100
0000
0010
0001
0000
0001
1000
0000
0020
0000
0000
0000
0230
0000
0000
0000
,
0310
0000
1000
0100
0000
0100
0010
0000
0002
0000
0000
0000
2003
0000
0010
0000
,
3010
0000
0100
0001
2000
0000
0000
0000
0001
0000
0000
0000
0100
0000
0000
0000
,
3010
0000
0000
1000
0100
0000
0010
0000
0001
0000
0000
1000
0001
0000
0100
0000
,
0010
0000
1000
0000
1000
0000
0001
0000
0001
0000
0000
0010
0001
0000
0100
0000
,
0010
0000
1000
0000
1000
0000
0100
0000
0100
0000
0000
0010
0001
0000
0100
0000
,
0001
0000
1000
0000
0100
0000
1000
0000
0200
0000
0000
0320
0000
0000
0031
0000
,
1000
0000
0010
0000
0100
0000
0010
0000
0200
0000
0000
0302
0000
0000
1003
0000
,
0010
0000
0000
1000
0001
0000
0100
0000
0020
0000
0000
2030
0000
0000
3001
0000
,
0100
0000
0001
0000
0010
0000
0001
0000
2000
0000
0000
3002
0000
0000
0103
0000
,
0001
0000
0010
0000
0100
0000
0010
0000
0002
0000
0000
2003
0000
0000
3010
0000
,
0100
0000
0000
0001
0010
0000
0100
0000
2000
0000
0000
3020
0000
0000
0130
0000
,
0001
0000
1000
0010
0000
1000
0010
0000
1000
0000
0001
0000
0100
0000
0000
0000
,
0001
0000
0010
0100
0000
0000
1000
0000
0001
0000
1000
0000
0100
0000
0000
0000
,
0001
0000
0000
1000
0000
0000
0001
0000
0100
0000
0000
0000
0010
0000
0000
0000
,
1000
0000
0000
0100
0000
0000
0010
0000
0001
0000
0000
0000
0100
0000
0000
0000
,
0000
0000
0000
1001
,
1001
0000
0010
1000
0000
1000
0100
0000
0010
0000
0010
0000
0010
0000
0000
0000
,
0001
0000
0100
0010
0000
0010
1000
0000
0001
0000
0001
0000
0001
0000
0000
0000
,
1000
0000
0001
0010
0000
0010
0100
0000
2000
0000
0000
0000
3002
0000
0000
0000
,
1003
0000
0010
0100
0000
0100
0001
0000
0020
0000
0000
0000
0230
0000
0000
0000
,
1300
0000
0001
0010
0000
0010
0100
0000
1000
0000
1000
0000
1000
0000
0000
0000
,
0001
0000
1000
0001
0000
0001
0100
0000
0010
0000
0010
0000
0010
0000
0000
0000
,
0100
0000
0001
0010
0000
0001
1000
0000
0020
0000
0000
0000
0230
0000
0000
0000
,
0310
0000
0100
0001
0000
1000
0001
0000
0020
0000
0000
0000
0230
0000
1000
0000
,
1300
0000
0001
0100
0020
0000
0000
0000
0001
0000
0000
0000
1000
0000
0000
0000
,
0130
0000
0000
0001
0010
0000
0100
0000
1000
0000
0000
0001
1000
0000
0010
0000
,
0100
0000
0001
0000
0001
0000
1000
0000
1000
0000
0000
0010
1000
0000
0001
0000
,
0010
0000
0100
0000
0100
0000
1000
0000
1000
0000
0000
0001
1000
0000
0010
0000
;
