#TITLE:Bath of Least Resistance;
#ARTIST:NOFX;
#BANNER:Bath of Least Resistance.png;
#BACKGROUND:Bath of Least Resistance-bg.png;
#JACKET:Bath of Least Resistance-jacket.png;
#MUSIC:Bath of Least Resistance.ogg;
#SAMPLESTART:28.17;
#SAMPLELENGTH:20;
#DISPLAYBPM:191:214;
#BPMS:0=210.526,20=198.895,24=214.286,28=210.526,32=201.117,36=210.526,40=205.714,44=196.721,48=206.897,52=201.964,68=199.17,84=198.895,88=200,96=194.595,100=198.074,116=193.548,120=197.802,128=195.652,132=195.122,140=198.347,148=196.364,154=195,157=198.5,170=200.637,184=198.822,212=200,214=191.002,218=196.185,234=196.99,250=197.602,266=197.001,282=198.621,294=198.301,298=192.199,320=196.453,327=200,336=197.5;
#BGCHANGES:;

//---------------dance-single - ----------------
#NOTES:
     dance-single:
     :
     Beginner:
     3:
     :
0000
0000
0000
0000
,
0000
0000
0000
0000
,
0000
0000
0000
0000
,
0000
0000
0000
0000
,
0000
0000
0000
0000
,
1000
0000
0000
0000
,
0001
0000
0000
0000
,
0100
0000
0000
0000
,
0100
0000
0000
0000
,
0010
0000
0010
0000
,
0010
0000
0000
0000
,
1000
0000
1000
0000
,
1000
0000
0000
0000
,
0001
0000
0001
0000
,
0001
0000
0000
0000
,
1000
0000
1000
0000
,
1000
0000
0000
0000
,
0010
0000
0010
0000
,
0010
0000
0000
0000
,
0100
0000
0100
0000
,
0000
0000
0000
0000
,
0010
0000
0010
0000
,
0010
0000
0000
0000
,
0100
0000
0100
0000
,
0000
0000
0000
0000
,
0001
0000
0000
0000
,
1000
0000
0000
0000
,
0001
0000
0001
0000
,
0001
0000
0000
0000
,
1000
0000
0000
0000
,
0100
0000
0000
0000
,
0010
0000
0010
0000
,
0010
0000
0000
0000
,
0001
0000
0000
0000
,
0100
0000
0000
0000
,
1000
0000
0000
0000
,
0010
0000
0000
0000
,
0001
0000
0000
0000
,
0100
0000
0100
0000
,
0000
0000
0000
0000
,
0000
0000
0001
0000
,
0001
0000
1000
0000
,
1000
0000
1000
0000
,
0000
0000
0010
0000
,
0000
0000
0100
0000
,
0000
0000
0001
0000
,
0000
0000
0100
0000
,
0100
0000
0010
0000
,
0010
0000
1000
0000
,
1000
0000
0000
0000
,
0000
0000
0001
0000
,
0001
0000
1000
0000
,
1000
0000
0010
0000
,
0010
0000
0000
0000
,
0000
0000
0001
0000
,
0000
0000
1000
0000
,
0000
0000
0100
0000
,
0000
0000
0001
0000
,
0000
0000
0010
0000
,
0000
0000
1000
0000
,
0000
0000
0001
0000
,
0001
0000
0001
0000
,
0000
0000
0100
0000
,
0100
0000
0100
0000
,
0000
0000
0010
0000
,
0000
0000
0010
0000
,
0000
0000
1000
0000
,
0000
0000
1000
0000
,
0000
0000
0001
0000
,
0000
0000
0001
0000
,
0000
0000
0010
0000
,
0000
0000
1000
0000
,
0000
0000
0100
0000
,
0100
0000
0100
0000
,
0000
0000
0010
0000
,
0010
0000
0010
0000
,
0000
0000
0001
0000
,
0001
0000
0001
0000
,
0000
0000
1000
0000
,
1000
0000
0001
0000
,
1001
0000
0000
0000
,
0000
0000
0000
0000
,
0000
0000
0000
0000
,
0000
0000
0000
0000
,
0001
0000
0000
0000
,
1000
0000
0000
0000
,
0010
0000
0000
0000
,
1001
0000
0000
0000
;

//---------------dance-single - ----------------
#NOTES:
     dance-single:
     :
     Easy:
     7:
     :
0000
0000
0000
0000
,
0000
0000
0000
0000
,
0000
0000
0000
0000
,
0000
0000
0000
0000
,
0000
0000
0000
0000
,
2000
3000
0002
0003
,
0020
0000
0000
0030
,
0002
0003
2000
3000
,
0020
0000
0000
0030
,
1000
0100
0001
0100
,
1000
0000
0000
0000
,
0001
0010
1000
0010
,
0001
0000
0000
0000
,
1000
0100
0001
0100
,
1000
0000
0000
0000
,
0001
0010
1000
0010
,
0001
0000
0000
0000
,
0001
0010
0001
0000
,
0010
0100
0010
0000
,
1000
0100
2000
0000
,
0000
3000
0000
0000
,
0010
0100
0010
0000
,
0001
0100
0001
0000
,
1000
0010
1000
0000
,
1001
0000
0010
0001
,
0200
0300
0010
1000
,
0200
0300
0010
0001
,
0200
0300
0010
1000
,
0200
0300
1000
1000
,
2000
3000
0001
0001
,
0002
0003
1000
0001
,
2000
3000
0020
0030
,
0200
0300
0002
0003
,
1000
0100
0001
0100
,
1000
0010
0010
0000
,
2000
3000
0020
0030
,
0200
0300
0002
0003
,
1000
0100
0001
0100
,
1000
0100
0200
0000
,
0000
0300
0000
0000
,
0000
0000
0001
0010
,
0100
0010
0001
1000
,
0100
0010
0200
0300
,
2000
3000
0020
0030
,
0200
0300
0002
0003
,
2000
3000
0001
0100
,
1000
0100
0002
0003
,
0020
0030
0200
0300
,
2000
3000
0010
0010
,
0020
0000
0000
0030
,
0000
0000
0002
0003
,
0020
0030
0200
0300
,
2000
3000
0010
0010
,
0020
0030
0010
1000
,
0200
0300
0010
0001
,
0200
0300
0010
1000
,
0200
0300
0010
0001
,
0200
0300
0001
0001
,
0002
0003
1000
1000
,
2000
3000
0001
1000
,
0002
0003
1000
0100
,
0001
0100
1000
0100
,
0010
0001
0100
1000
,
0100
0001
0010
0100
,
1000
0001
1001
0000
,
0110
0000
1000
0100
,
0010
0001
1001
0000
,
0110
0000
0001
0010
,
0100
1000
1001
0000
,
0110
0000
1000
0100
,
0010
0001
1001
0000
,
0110
0000
0001
0010
,
0100
1000
1002
0003
,
2000
3000
0020
0030
,
0200
0300
0001
0100
,
1000
0100
0001
0010
,
0010
0000
0001
0010
,
0100
1000
0200
0300
,
0020
0030
0001
0100
,
1000
0100
0001
0010
,
0020
0000
0000
0000
,
0000
0000
0000
0030
,
0000
0000
0000
0000
,
0000
0000
0000
0000
,
2000
3000
0002
0003
,
0020
0030
0002
0003
,
2000
3000
0020
0030
,
0200
0000
0300
0000
;

//---------------dance-single - ----------------
#NOTES:
     dance-single:
     :
     Medium:
     10:
     :
0000
0000
0000
0000
,
0000
0000
0000
0000
,
0000
0000
0000
0000
,
0000
0000
0000
0000
,
0000
0000
0000
0000
,
2000
3000
0002
0003
,
1000
0000
0000
0110
0000
0000
0000
0000
,
0002
0003
2000
3000
,
0220
0000
0000
0330
,
1000
1000
0100
0010
,
0001
0001
0100
1000
,
0100
0100
0200
0302
,
0013
0000
0010
0000
0100
0010
0001
0010
,
0100
0100
1000
0001
,
0010
0010
0001
1000
,
0100
0100
0020
0032
,
1003
0100
1000
0000
0001
0010
0001
0000
,
0001
0100
1000
0100
,
0001
0101
0000
1000
,
0010
0100
1000
0000
0120
0000
0000
0000
,
0000
0030
0000
0001
,
1000
0100
0001
0100
,
1000
1100
0000
0001
,
0100
0010
0001
0000
0110
0000
0000
0000
,
1000
0020
0230
0301
,
0110
1001
0000
0101
,
1100
0000
0001
0010
,
0100
0000
1000
0000
0001
0010
0100
0000
,
0110
0000
0200
1300
,
0110
1001
0000
1100
,
0101
0000
0000
0000
0000
0010
0100
0000
,
0010
0000
0011
0000
0101
0000
1000
0100
,
0020
0000
0030
0000
,
0010
1000
0001
0100
,
0101
1100
1010
0000
,
0000
0000
0100
0000
0001
0000
0010
0100
,
2000
0000
3000
0000
,
0001
0000
1000
0000
0001
0000
0010
0100
,
1000
0110
1001
0000
,
0000
0000
0000
0000
,
0000
0000
0200
0010
,
0010
0010
0010
0010
,
0010
0310
1000
1000
,
0100
0010
0001
0001
,
0100
1000
0100
0100
,
0200
0302
0013
0010
,
0100
0010
0001
0010
0100
0000
1000
0000
,
0100
0001
0100
1100
,
0000
0000
0001
0000
0100
0010
0001
0000
,
0120
0000
0000
0030
,
0000
0000
1000
0001
,
0100
1000
0100
0101
,
0000
0000
1000
0000
0010
0100
1000
0000
,
0110
0000
0001
0200
,
0320
1030
0110
1001
,
0000
1100
0101
0000
,
1000
0100
0010
0001
,
1000
0100
0010
0000
0110
0000
0000
0000
,
0020
0031
0110
1001
,
0000
1100
0101
0000
,
0000
0010
0100
0000
2000
0000
0001
0000
,
0001
0001
0001
0001
,
0001
3001
0010
0100
,
1000
0100
0020
0000
0100
0000
0130
0000
,
0010
0001
0010
0000
0100
0000
0100
0000
,
1000
0100
0020
0000
0000
0000
0001
0000
,
0001
0001
0001
0001
,
0001
0031
0000
0001
,
0100
1000
0100
0001
,
0010
0100
2000
0000
0000
0000
0100
0000
,
0100
0100
0100
3100
,
0100
0010
0001
0000
0000
0000
0200
0000
,
0010
0000
0010
0000
0310
0000
0010
0100
,
1000
0000
0100
0001
0200
0000
0000
0000
,
0300
0000
0000
0000
0010
0001
0100
0001
,
0010
0001
0100
1000
,
0100
0000
0001
1000
,
0001
0000
0010
1000
0002
0000
0000
0000
,
0003
0000
0000
0000
0010
1000
0100
0000
,
1000
0000
0010
1000
0100
0000
1100
0000
,
0101
0000
0000
0000
,
0000
0000
0000
0000
,
0000
0000
0000
0000
,
0000
0000
0000
0000
,
1000
1000
0100
0010
,
0001
0001
0100
1000
,
0100
0100
0100
0001
,
0101
1100
0101
0000
;

//---------------dance-single - ----------------
#NOTES:
     dance-single:
     :
     Hard:
     12:
     :
0000
0000
0000
0000
,
0000
0000
0000
0000
,
0000
0000
0000
0000
,
0000
0000
0000
0000
,
0000
0000
0000
0000
,
0011
0000
0001
0000
,
1000
0010
1000
0001
0000
0000
0000
0000
,
0011
0000
0001
0000
,
1000
0010
1000
0001
1000
0100
1000
0010
,
0100
1001
0100
1001
,
0010
1000
0001
1000
0000
0000
0100
0000
,
0001
1100
0001
1100
,
0001
1000
0001
0100
0001
0010
0001
1000
,
0100
1001
0100
1001
,
0010
1000
0001
1000
0000
0000
0100
0000
,
1000
0101
1000
0101
,
1000
0010
1000
0001
1000
0100
1000
0010
,
0100
0002
2003
3020
,
1030
0001
1000
0000
0100
1000
0001
0000
,
0010
0001
1000
0001
0200
0000
0000
0000
,
0000
0000
0300
0010
,
1000
0002
0023
0230
,
1300
0010
0100
0000
0001
1000
0100
0000
,
0010
0001
0100
0001
0010
0000
0000
0000
,
0100
1000
0010
0000
0100
0001
0100
0000
,
0010
0100
0001
0000
1000
0100
1000
0000
,
0010
0100
1000
0000
0100
0001
0100
0000
,
0010
1000
0001
0000
0010
0001
1000
0001
,
0100
0000
0010
0000
0100
0001
0010
0000
,
0100
1000
0100
0000
0010
0100
1000
0000
,
0100
0001
0100
0000
0010
0001
0100
0000
,
0010
0000
1001
0000
0001
1000
0010
0000
,
0100
0002
2003
3200
,
1300
0010
1000
0001
0100
0000
0010
1000
,
0001
0100
0110
0000
,
1000
0000
0001
0000
0010
0001
1000
0001
,
0010
0200
2300
3002
,
1003
0100
1000
0001
1000
0000
0001
1000
,
0100
0001
0220
0000
,
0000
0000
0000
0330
,
0000
0000
0000
0000
1000
0100
0010
0001
,
0100
0001
1000
0001
0010
0001
0100
0010
,
1000
0100
0010
0001
0100
0000
1001
0000
,
0100
0000
1001
0000
0010
1000
0001
1000
,
0000
0100
1000
0101
,
1000
0000
0101
0000
1000
0010
1000
0001
,
1000
0100
1000
0010
0100
0000
0002
0000
,
2003
0000
3020
0000
1030
0001
1000
0000
,
0100
1000
0001
0000
0010
0001
1000
0001
,
0200
0000
0000
0000
,
0300
0000
0001
0100
0001
0000
0010
0100
,
1000
0000
0100
1000
0100
0000
1000
0000
,
0010
0000
1000
0000
0001
0010
0001
1000
,
0001
0000
1001
0000
0100
0001
0010
0000
,
0100
1000
0100
0000
0010
0100
1000
0000
,
0001
0100
0001
0000
0010
0100
0001
0000
,
0100
1000
0100
0000
0010
0001
1000
0000
,
0010
1000
0001
1000
0100
0000
0010
0000
,
0010
0001
1000
0000
0100
1000
0100
0000
,
0010
0001
0100
0000
0010
1000
0010
0000
,
1000
0001
1000
0010
0100
0000
0200
0000
,
0010
0320
0100
1000
,
0100
1030
0101
1000
,
0101
0000
1000
0000
0010
1000
0001
0000
,
1000
0001
1000
0010
0100
0000
0200
0000
,
0001
0302
0010
0100
,
0010
0103
1000
0100
,
0010
0001
1000
0000
0100
0000
0200
0000
,
0010
0320
0001
1030
,
0100
1000
0010
0000
1000
0000
2000
0000
,
0010
3020
0100
1030
,
0010
0100
0001
0000
0100
0000
1001
0000
,
0110
0000
1001
0100
0010
0000
0110
1000
,
0001
0000
1001
0100
0010
0000
0000
0000
,
0000
0000
0000
0000
0010
1000
0001
1000
,
0100
0000
0010
0001
1000
0100
1000
0010
,
0100
0000
0001
0000
0010
0000
0100
1000
,
0010
1000
0001
1000
0100
0000
1000
0000
,
0100
0000
0010
0000
0001
0100
0001
1000
,
0001
0010
0001
0100
0010
0000
1001
0000
,
1002
0000
0000
0000
,
0000
0000
0000
0000
,
0000
0000
0000
0003
,
0000
0000
0000
0000
,
1010
0010
1010
1000
,
0001
1100
0001
1100
,
0010
1001
0100
1001
,
0010
1000
0001
1000
1001
0000
0000
0000
;

//---------------dance-single - ----------------
#NOTES:
     dance-single:
     :
     Challenge:
     15:
     :
0000
0000
0000
0000
,
0000
0000
0000
0000
,
0000
0000
0000
0000
,
0000
0000
0000
0000
,
0000
0000
0000
0000
,
0200
0000
0310
1000
0002
0000
0013
0100
,
0001
0100
1000
0010
0000
0100
0001
0000
,
0020
0000
0031
0100
2000
0000
3010
0100
,
0001
1000
0001
1000
0001
1000
0001
1000
0001
1000
0001
1000
0001
1000
0001
1000
,
0002
0000
0103
0010
2000
0000
3001
1000
,
0010
0001
0010
1000
0100
0010
0001
0000
,
0200
0000
0301
1000
0020
0000
1030
0100
,
0010
0000
0001
0000
1000
0010
1000
0010
1000
0000
0100
0000
0001
0000
0100
0000
,
2100
0000
3010
0100
0102
0000
1003
0001
,
0010
0000
1000
0000
0010
0000
0001
0000
0100
0000
0010
0000
1000
0100
1000
0100
,
2000
0000
3010
1000
0002
0000
0013
0100
,
0001
0000
0100
0000
0010
0000
0100
0000
1000
0000
0010
0000
0100
0001
0100
0001
,
0100
0000
0010
1000
0101
0000
0001
0010
,
1000
0100
0001
0100
0010
0000
0001
0100
,
1000
0010
1000
0100
0011
0000
0100
0001
,
1000
0010
0100
0010
1000
0100
0010
0001
,
1001
0000
0100
0010
1000
0010
0100
0001
,
1000
0100
0001
0010
0100
0000
1000
0010
,
0100
0001
1010
0000
0101
0000
1100
0000
,
1001
0000
0000
0000
0010
0000
1000
0000
0100
0000
0010
0000
0001
0000
1000
0010
,
1000
0000
0000
0000
0001
0000
0100
0000
1000
0000
0100
0000
0010
0000
1000
0001
,
1000
0000
0100
0010
1000
0010
0001
0100
,
0010
0001
0010
1000
0100
0010
0001
1000
,
0110
0000
0000
0000
0001
0000
0100
0000
1000
0000
0100
0000
0010
0000
1000
0001
,
1000
0000
0000
0000
0010
0000
0100
0000
0001
0000
0100
0000
1000
0000
0010
0100
,
0010
0000
0000
0000
1000
0000
0001
0000
0010
0000
1000
0000
0010
0100
0010
0100
,
0020
0000
0031
0100
1000
0010
0100
0001
,
1000
0100
0001
0100
0010
0100
1000
0000
,
0001
0100
0010
0100
1000
0100
0001
1000
,
0100
0010
0001
0000
0011
0000
1000
0001
,
0200
0000
0310
1000
0010
0100
1000
0100
,
0001
0010
1000
0001
1000
0100
0010
0000
,
0001
0001
0100
0100
0010
0010
1000
0000
,
0100
1000
0001
1000
0101
0000
1000
0010
,
0100
0000
0001
0010
1000
0010
0001
0200
,
0000
0310
0100
0000
0101
0100
1100
0100
,
0101
0100
1100
0100
0010
0010
0010
0010
,
0010
0010
0010
0010
2000
0000
3100
0010
,
0001
0100
0010
0100
1000
0100
0001
0020
,
0000
0000
0130
0000
1000
0000
0001
0100
0020
0000
0000
0000
1030
0000
0001
0000
,
0200
0000
0310
1000
0100
0001
0100
0010
,
0100
0000
1000
0000
0001
0100
0010
1000
0001
0000
0100
0000
0010
0000
1000
0000
,
0100
0001
0010
0100
1000
0001
0100
0010
,
2000
0000
3001
0100
0010
0100
0001
1000
,
1010
0000
0100
0001
0010
1000
0010
0100
,
0010
0001
1000
0001
0100
0010
0100
1000
,
0100
0001
0010
0100
1000
0001
0010
0100
,
0001
0100
1000
0010
0100
0001
1000
0100
,
1000
0010
0001
0000
1001
0000
0100
1010
,
0001
0000
0100
0000
0010
0000
1000
0100
0010
0000
0001
0000
0100
0000
0010
0000
,
0001
0000
0010
0000
1000
0000
0001
1000
0100
0000
0000
0000
0010
0000
0100
0000
,
0010
0000
0001
0000
0100
0000
0010
1000
0001
0000
0100
0000
1000
0000
0100
0000
,
0001
0010
1000
0100
0110
0010
0001
1100
,
0010
0000
1000
0000
0100
0000
1000
0001
0010
0000
1000
0000
0100
0000
0010
0000
,
1000
0000
0010
0000
0001
0000
0100
0010
1000
0000
0000
0000
0001
0000
0100
0000
,
0010
0000
1000
0000
0100
0010
0001
1000
0010
0000
0100
0000
0001
0000
0100
0000
,
1000
1000
1000
0000
0010
1000
1000
0100
,
1000
0010
0100
0001
1001
0000
0010
0001
,
0100
0000
0100
0000
0100
0000
0000
0000
0010
0000
0100
0000
0001
0010
0100
0010
,
0001
1000
1000
0100
0001
0100
0010
0100
,
1000
0000
1000
0000
1000
0000
0010
0000
0100
0000
0001
0010
0001
0000
1000
0000
,
0010
0010
1000
0100
0001
0100
0010
0001
,
0100
0010
1000
0000
0001
0100
0010
1000
,
0100
0000
0010
0000
0001
1000
0100
1000
0002
0000
0000
0000
0013
0000
1000
0000
,
0100
0100
0100
0010
1000
0010
0001
0100
,
0001
1000
0010
0100
0002
1000
1003
0100
,
0010
0010
0010
0000
0001
0100
0010
1000
,
0100
0000
0001
0000
0100
0010
0001
1000
0010
0000
0100
0000
1000
0000
0100
0000
,
0001
0100
0010
1000
0101
0000
0001
0010
,
1000
0001
0100
0010
1000
0100
0001
0100
,
0010
0001
0100
1000
0010
0100
0010
1000
,
0110
0001
0100
0010
2000
0000
3100
0010
,
0001
0100
0010
1000
0100
0001
0100
0010
,
1000
0000
0010
0000
0001
0000
0000
0100
0010
0000
1000
0000
0001
0000
1000
0000
,
0100
0010
0001
1000
0001
0100
0010
1000
,
0110
0000
0001
0100
1000
0000
0001
0100
,
0010
0000
0100
0000
0001
0000
2000
0000
0000
0000
3100
0000
0010
0000
0001
1000
,
0002
0000
0103
0010
0200
0001
0301
1000
,
0010
0000
1000
0000
0100
0000
1000
0000
0001
0000
0010
0100
1000
0000
0001
0100
,
0020
0000
0000
0000
1030
0000
0100
0010
0002
0000
0000
0000
1003
0000
0010
0000
,
0100
0000
1000
0000
0100
0000
0001
0000
0010
0000
0100
0000
1000
0000
0001
0100
,
0010
1000
0100
0001
1000
0010
0001
0100
,
0110
1001
0110
1001
0110
0000
0000
0000
;

//---------------dance-double - ----------------
#NOTES:
     dance-double:
     :
     Easy:
     7:
     :
00000000
00000000
00000000
00000000
,
00000000
00000000
00000000
00000000
,
00000000
00000000
00000000
00000000
,
00000000
00000000
00000000
00000000
,
00000000
00000000
00000000
00000000
,
00000001
00000000
00000001
00000000
,
00001000
00000000
00000000
00000000
,
00100000
00000000
00100000
00000000
,
01000000
00000000
00000000
00000000
,
10000000
01000000
00100000
00010000
,
10000000
01000000
00010000
00001000
,
00000100
00000001
00000010
00000100
,
00002000
00000000
00000000
00003000
,
00000001
00000010
00000100
00001000
,
00000001
00000100
00001000
00010000
,
01000000
10000000
01000000
00100000
,
00020000
00000000
00000000
00030000
,
10000000
01000000
10000000
00000000
,
00010000
01000000
00010000
00000000
,
10000000
01000000
20000000
00000000
,
00000000
30000000
00000000
00000000
,
00001000
00010000
00001000
00000000
,
00000100
00001000
00000100
00000000
,
00001000
00010000
00002000
00003000
,
00011000
00000000
00000100
00000001
,
00000010
00000000
00001000
00010000
,
00100000
00000000
10000000
01000000
,
00010000
00000000
00001000
00000100
,
00000001
00000000
00000010
00001000
,
00010000
00000000
00100000
10000000
,
01000000
00000000
00010000
00001000
,
00000200
00000300
00000002
00000003
,
00002000
00003000
00000002
00000003
,
00001000
00000100
00000100
00010000
,
00001000
00010000
02000000
03000000
,
20000000
30000000
00020000
00030000
,
20000000
30000000
00020000
00030000
,
01000000
00100000
00100000
10000000
,
01000000
00010000
00011000
00000000
,
00000000
00000000
00000000
00000000
,
00000000
00000000
00000001
00000001
,
00000100
00001000
00010000
00010000
,
01000000
10000000
10000000
01000000
,
00100000
00010000
10000000
01000000
,
00010000
00001000
00000100
00000001
,
00000010
00000100
00002000
00000000
,
00000000
00003000
00000001
00000100
,
00000001
00000000
00001000
00000100
,
00001000
00000000
00000001
00000100
,
00000002
00000000
00000000
00000003
,
00000000
00000000
00010000
00001000
,
00010000
00000000
01000000
00010000
,
01000000
00000000
00010000
00001000
,
00010000
00000000
01000000
10000000
,
00100000
00000000
00010000
00001000
,
00000010
00000000
00000001
00000100
,
00001000
00000000
00010000
01000000
,
10000000
00000000
00100000
00010000
,
00001000
00000000
00000010
00000001
,
00000100
00000000
00001000
00010000
,
01000000
00000000
10000000
00010000
,
10000000
10000000
01000000
00010000
,
00001000
00000100
00000001
00001000
,
00000001
00000001
00000100
00001000
,
00010000
01000000
10010000
00000000
,
01100000
00000000
01000000
00010000
,
00001000
00000100
00000110
00000000
,
00001001
00000000
00001000
00000001
,
00000100
00001000
00011000
00000000
,
00011000
00000000
00010000
01000000
,
10000000
00100000
01100000
00000000
,
10010000
00000000
00010000
10000000
,
01000000
00010000
00002000
00003000
,
00000200
00000300
00000020
00000030
,
00000000
00000000
00001000
00000001
,
00001000
00000001
00000100
00001000
,
00010000
00000000
01000000
10000000
,
01000000
10000000
00200000
00300000
,
02000000
03000000
00010000
10000000
,
00010000
10000000
01000000
00010000
,
00011000
00000000
00000000
00000000
,
00000000
00000000
00000000
00000000
,
00000000
00000000
00000000
00000000
,
00000000
00000000
00000000
00000000
,
10000000
01000000
00100000
00010000
,
10000000
01000000
00010000
00001000
,
00000100
00000001
00000010
00000100
,
00001000
00001000
00001000
00000000
;

//---------------dance-double - ----------------
#NOTES:
     dance-double:
     :
     Medium:
     9:
     :
00000000
00000000
00000000
00000000
,
00000000
00000000
00000000
00000000
,
00000000
00000000
00000000
00000000
,
00000000
00000000
00000000
00000000
,
00000000
00000000
00000000
00000000
,
00000002
00000003
00002000
00003000
,
00000001
00000000
00000000
00000110
00000000
00000000
00000000
00000000
,
02000000
03000000
00200000
00300000
,
20020000
00000000
00000000
30030000
,
10000000
01000000
01000000
00010000
,
00010000
00001000
00000100
00000001
,
00000001
00001000
00001000
00000010
,
00000020
00000000
00000000
00000000
00000030
00000000
00001000
00000001
,
00000100
00001000
00001000
00010000
,
00010000
01000000
10000000
00100000
,
00100000
01000000
01000000
00010000
,
00020000
00000000
00000000
00000000
00030000
00000000
00100000
01000000
,
10000000
01000000
00010000
00001000
,
00000010
00000001
00000000
00001000
,
00000001
00000100
00001000
00000000
00002002
00000000
00000000
00000000
,
00000000
00003003
00000000
00000010
,
00000001
00000100
00001000
00010000
,
01000000
10000000
00000000
00010000
,
10000000
01000000
00010000
00000000
10010000
00000000
00000000
00000000
,
10000000
00000000
01000000
00000000
00010000
00001000
00010000
00000000
,
00001000
00010000
00000000
00011000
,
00001000
00000000
00000100
00000001
,
00000010
00000000
00000001
00000000
00000010
00000001
00000100
00000000
,
00001001
00000000
00000000
00000000
00000001
00000100
00001000
00000000
,
00010000
00001000
00000000
01100000
,
01000000
00000000
00000000
00000000
00000000
10000000
00010000
00000000
,
01000000
00000000
00100000
00000000
01000000
00000000
10000000
01000000
,
00020000
00000000
00030000
00000000
,
00001000
00010000
00001000
00000000
00010000
00000000
00000100
00000000
,
00001000
00000101
00001100
00000000
,
00000000
00000000
00000010
00000001
00000010
00000000
00000001
00000100
,
00002000
00000000
00003000
00000000
,
00010000
00000000
00001000
00000000
00000100
00000000
00001000
00010000
,
00001000
00011000
00010000
00000000
,
00000000
00000000
00000000
00000000
,
00000000
00000000
00002000
00100000
,
00100000
00010000
00010000
00100000
,
00100000
00103000
00010000
00001000
,
00001000
00010000
00010000
01000000
,
10000000
00100000
00100000
01000000
,
01000000
00010000
00020000
00000000
,
00030000
00000000
00100000
01000000
10000000
00000000
01000000
00000000
,
00010000
00001000
00000010
00000001
,
00000000
00000000
00001000
00000000
00000001
00000100
00001000
00000000
,
00002002
00000000
00000000
00003003
,
00000000
00000010
00000001
00000100
,
00001000
00010000
01000000
10000000
,
00000000
00000000
00010000
00000000
10000000
01000000
00010000
00000000
,
10010000
00000000
00000000
00000000
00020000
00000000
00000000
20030000
,
00000000
31000000
00010000
00011000
,
00000000
00000100
00001001
00000000
,
00000010
00000001
00000100
00001000
,
00010000
00001000
00010000
00000000
02000000
00000000
00000000
03200000
,
00000000
00301000
00010000
00011000
,
00000000
01000000
10010000
00000000
,
00000000
00010000
10000000
00000000
00200000
00000000
01000000
00000000
,
01000000
01000000
01000000
01000000
,
01000000
01300000
00001000
00010000
,
00000100
00001000
00000020
00000000
00001000
00000000
00001030
00000000
,
00000100
00000001
00000100
00000000
00000001
00000000
00000001
00000000
,
00000100
00001000
00020000
00000000
00000000
00000000
00001000
00000000
,
00001000
00001000
00001000
00001000
,
00001000
00031000
00000000
00000100
,
00001000
00010000
00001000
00010000
,
01000000
10000000
00200000
00000000
00000000
00000000
10000000
00000000
,
10000000
10000000
10000000
10300000
,
10000000
01000000
00010000
00000000
00000000
00000000
00002000
00000000
,
00010000
00000000
00010000
00000000
00010000
00000000
00013000
00001000
,
00010000
00000000
00001000
00000100
00000002
00000000
00000000
00000000
,
00000003
00000000
00000000
00000000
00000100
00001000
00010000
00001000
,
00010000
01000000
00100000
01000000
,
00100000
00000000
00010000
10000000
,
00100000
00000000
10000000
01000000
00020000
00000000
00000000
00000000
,
00030000
00000000
00000000
00000000
00001000
00000100
00001000
00000000
,
00000100
00000000
00000001
00000100
00000001
00000000
00000110
00000000
,
00001001
00000000
00000000
00000000
,
00000000
00000000
00000000
00000000
,
00000000
00000000
00000000
00000000
,
00000000
00000000
00000000
00000000
,
00000001
00000100
00000100
00001000
,
00001000
00010000
01000000
10000000
,
10000000
00010000
00010000
00100000
,
00200000
00000000
00300000
00000000
;

//---------------dance-double - ----------------
#NOTES:
     dance-double:
     :
     Hard:
     13:
     :
00000000
00000000
00000000
00000000
,
00000000
00000000
00000000
00000000
,
00000000
00000000
00000000
00000000
,
00000000
00000000
00000000
00000000
,
00000000
00000000
00000000
00000000
,
10100000
00000000
01010000
00000000
,
10000000
01000000
00010000
00000100
00000000
00000000
00000000
00000000
,
00000011
00000000
00001100
00000000
,
00000010
00000001
00000100
00000001
00000010
00000001
00000100
00001000
,
01000000
00010000
11000000
01010000
,
00010000
01010000
10000000
11000000
,
10000000
11000000
01000000
10010000
,
00100000
10000000
01000000
10000000
00100000
10000000
01000000
00010000
,
00000100
00001000
00000101
00001100
,
00001000
00001100
00000001
00000101
,
00000001
00000101
00000100
00001001
,
00000100
00000010
00000001
00000100
00001000
01000000
00010000
00100000
,
01000000
00100000
10010000
01100000
,
11000000
01010000
01100000
10010000
,
10000000
01000000
00010000
00000100
00002000
00000000
00000000
00000000
,
00000000
00000000
00003000
00000100
,
00000100
00000010
00001001
00000110
,
00000101
00001100
00000110
00001001
,
00000001
00000100
00001000
01000000
00010000
00000000
00000000
00000000
,
10000000
00100000
01000000
00000000
00001000
00010000
01000000
00000000
,
00010000
00001000
00000100
00000000
00000001
00000100
00000010
00000000
,
00010000
00001000
00000100
00000000
00001000
00010000
01000000
00000000
,
00100000
00010000
10000000
00000000
00100000
10000000
01000000
00100000
,
00110000
00000000
01010000
00000000
01000000
00010000
00100000
00000000
,
00001000
00010000
00001000
00000000
00000100
00000001
00000010
00000000
,
00001000
00010000
00001000
00000000
01000000
00010000
00100000
00010000
,
01000000
00000000
10010000
10000000
01000000
00000000
00100000
00010000
,
01000000
00010000
01010000
11000000
,
10000000
01000000
00010000
00000100
00001000
00000000
00000100
00000010
,
00000001
00000100
00001001
00000000
,
00000000
00000000
00000100
00001000
00010000
00000000
01000000
00010000
,
00001000
00000100
00000101
00001100
,
00000001
00000100
00001000
01000000
00010000
00000000
01000000
00100000
,
10000000
01000000
10010000
00000000
,
00000000
00000000
00000000
00000000
,
00000000
00000000
00000000
00000000
00000001
00001000
00000001
00000000
,
00000100
00010000
00000100
00000000
00001000
01000000
00001000
00010000
,
01000000
10000000
01000000
00100000
01000000
00000000
00010000
00000000
,
11000000
01010000
00010000
01010000
,
10000000
11000000
10000000
11000000
,
01000000
00000000
10010000
00000000
00100000
10000000
01000000
10000000
,
00100000
10000000
00010000
00100000
01000000
00000000
00100000
00000000
,
10010000
01100000
11000000
01010000
,
01100000
00000000
10010000
00000000
10000000
01000000
00010000
00000100
,
00002000
00000000
00000000
00000000
,
00003000
00000100
00000100
00000010
,
00001001
00000110
00000101
00001100
,
00000110
00000000
00001001
00000000
00000001
00000100
00001000
01000000
,
00010000
00000000
00000000
00000000
10000000
01000000
00010000
00000000
,
00000100
00001000
00000010
00000000
00000100
00000010
00010000
00000000
,
00001000
00010000
00001000
00000000
01000000
00010000
00100000
00000000
,
00001000
01000000
00001000
00000000
00010000
00001000
00010000
00000000
,
00000100
00010000
00000100
00010000
00011000
00000000
00010100
00000000
,
00010000
00001000
00000010
00000000
00000001
00000100
00001000
00000000
,
00010000
00001000
00010000
00000000
00001000
00010000
01000000
00000000
,
10000000
00100000
01000000
00100000
10000000
00000000
00010000
00000000
,
00100000
00100000
00010000
00010000
,
10000000
01000000
00010000
00000100
00001000
00000000
00001100
00000000
,
00000001
00000000
00000100
00000000
00000001
00000010
00000001
00000000
,
00000001
00000100
00001000
01000000
00020000
00000000
01000000
00000000
,
10000000
01000000
10000000
01030000
,
00200000
00010000
00001000
00310000
,
00001000
00000200
00001000
00010000
,
00001000
00010000
00001000
00010300
,
00001000
00000100
00000002
00000000
00000010
00000000
00000100
00000000
,
00000010
00000100
00000010
00000103
,
00000001
00000100
00001000
00000000
00010000
00000000
00001000
00000000
,
00010000
01000000
00010000
00000000
10000000
01000000
10000000
00000000
,
01000000
00010000
01000000
00000000
00010000
00001000
00010000
00000000
,
00001000
00000100
00001000
00000000
00000100
00000001
00000100
00000000
,
00000001
00000010
00000001
00000000
00000100
00001000
00010000
00001000
,
00000100
00000000
00000001
00000000
00000100
00000000
00001000
00100000
,
00010000
00100000
00010000
10000000
01000000
00000000
00100000
00000000
,
00010000
00000000
10000000
00000000
01000000
00100000
00001000
00100000
,
00001000
00010000
00001000
00010000
00001000
00000000
00011000
00000000
,
01001000
00000000
00000000
00000000
,
00000000
00000000
00000000
00000000
,
00000000
00000000
00000000
00000000
,
00000000
00000000
00000000
00000000
,
00001001
00000001
00000100
00001000
,
00010100
00010000
00001000
00100000
,
10010000
01000000
00100000
00010000
,
10000000
01000000
00010000
00001000
00011000
00000000
00000000
00000000
;
