#TITLE:Barbie Girl;
#ARTIST:Aqua;
#BANNER:Barbie Girl-bn.png;
#BACKGROUND:Barbie Girl-bg.png;
#JACKET:Barbie Girl-jacket.png;
#MUSIC:Barbie Girl.ogg;
#OFFSET:1.573;
#SAMPLESTART:24.24;
#SAMPLELENGTH:20;
#LASTBEATHINT:1.224;
#DISPLAYBPM:130;
#BPMS:0=130;
#BGCHANGES:;

//---------------dance-single - ----------------
#NOTES:
     dance-single:
     :
     Beginner:
     3:
     :
0000
0000
0000
0000
,
0000
0000
0000
0000
,
0000
0000
0000
0000
,
0000
0000
0000
0000
,
0000
0000
0000
0000
,
0000
0000
0000
0000
,
0001
0000
0001
0000
,
1000
0000
1000
0000
,
0000
0000
0010
0000
,
0000
0000
0100
0000
,
0001
0000
0001
0000
,
1000
0000
1000
0000
,
0000
0000
0100
0000
,
1000
0000
0001
0000
,
0100
0000
0000
0000
,
0010
0000
0010
0000
,
1000
0000
1000
0000
,
0000
0000
0001
0000
,
0000
0000
0100
0000
,
0001
0000
0001
0000
,
0010
0000
0010
0000
,
0000
0000
0001
0000
,
1000
0000
0001
0000
,
0100
0000
0000
0000
,
0010
0000
0010
0000
,
0010
0000
0010
0000
,
1000
0000
0001
0000
,
1000
0000
0000
0000
,
0100
0000
0100
0000
,
0100
0000
0100
0000
,
1000
0000
0001
0000
,
1000
0000
0000
0000
,
1001
0000
0000
0000
,
0110
0000
0000
0000
,
1000
0000
0100
0000
,
0001
0000
0000
0000
,
0010
0000
0010
0000
,
0001
0000
1000
0000
,
0000
0000
0010
0010
,
0000
0000
0100
0000
,
0001
0000
0001
0000
,
0010
0000
0100
0000
,
0000
0000
1000
0000
,
0100
0000
1000
0000
,
0001
0001
0001
0000
,
1000
1000
1000
0000
,
0000
0000
0100
0100
,
0000
0000
0010
0000
,
0001
0001
0001
0000
,
0100
0100
0100
0000
,
0000
0000
0010
0000
,
1000
0000
0001
0000
,
1000
0000
1000
0000
,
0010
0010
0010
0000
,
0100
0000
0100
0000
,
0000
0001
0000
0000
,
0010
0000
0010
0000
,
0100
0100
0100
0000
,
0001
0000
0001
0000
,
0000
1000
0000
0000
,
0020
0000
0030
0000
,
2000
0000
3000
0000
,
0200
0000
0300
0000
,
0002
0000
0003
0000
;

//---------------dance-single - ----------------
#NOTES:
     dance-single:
     :
     Easy:
     6:
     :
0000
0000
0000
0000
,
0000
0000
0000
0000
,
0000
0000
0000
0000
,
0000
0000
0000
0000
,
0000
0000
0000
0000
,
0000
0000
0000
0000
,
0001
0001
1000
0000
,
0010
0010
1000
0001
,
0000
0100
0010
0010
,
0000
0100
0001
1000
,
0100
0010
0001
0000
,
0100
0010
1000
1000
,
0000
0001
0010
0001
,
0100
0010
1000
0001
,
1001
0000
0110
0000
,
1000
0100
2000
3000
,
0010
0100
0001
1000
,
0000
0100
1000
1000
,
0000
0100
1000
0001
,
0010
0001
0200
0300
,
0010
0100
0010
1000
,
0000
0100
1000
0001
,
0010
0001
0100
0010
,
2000
0002
0000
3003
,
1010
0000
0101
0000
,
0001
0100
1000
0000
,
0010
1000
0100
1000
,
0002
0000
0000
0003
,
0011
0000
1100
0000
,
0010
1000
0001
0000
,
1000
0100
0010
0100
,
2000
0000
0000
3000
,
0001
0000
0100
0000
,
1000
0000
0100
0000
,
0010
0000
0010
0000
,
0001
0000
0000
1000
,
0010
1000
0200
0300
,
0010
0001
0100
0010
,
0000
1000
0100
0001
,
0000
0010
0001
0100
,
0001
0010
2000
3000
,
0100
1000
0010
0010
,
0000
0100
0010
0100
,
0001
0010
1000
0100
,
1000
0001
0020
0030
,
0001
0100
0020
1030
,
0000
0100
2000
3001
,
0000
0010
0002
0103
,
0001
0010
2000
3000
,
0100
1000
0002
0103
,
0000
0010
0200
0301
,
1000
0100
2000
3001
,
0010
0010
0100
0100
,
1001
0110
1001
0110
,
1000
1000
0001
0001
,
0000
0011
0000
1100
,
0001
0001
1000
1000
,
0110
1001
0110
1001
,
0010
0010
0100
0100
,
0000
0101
0000
1010
,
0001
0000
0001
0000
,
1000
0000
1000
0000
,
0010
0000
0010
0000
,
0100
0000
0100
0000
;

//---------------dance-single - ----------------
#NOTES:
     dance-single:
     :
     Medium:
     9:
     :
0000
0000
0000
0000
,
0000
0000
0000
0000
,
0000
0000
0000
0000
,
0000
0000
0000
0000
,
0000
0000
0000
0000
,
0000
0000
0000
0000
,
0001
0000
1000
0100
2000
0000
3000
0000
,
0010
0000
1000
0001
2000
0000
3100
0000
,
0000
0000
1000
0001
1000
0000
0100
0000
,
0000
0000
0010
0001
0010
0000
0100
0000
,
1000
0000
0010
1000
0020
0000
0030
0000
,
0100
0000
0001
1000
0002
0000
0013
0000
,
0000
0000
1000
0100
1000
0000
0001
0000
,
0010
0001
0010
0000
1000
0000
1000
0000
,
0002
0203
0320
2030
,
3100
0000
1000
0001
0200
0000
0300
0000
,
0010
0000
1000
0100
0020
0000
0031
0000
,
0000
0000
0100
0010
1000
0000
0001
0000
,
0000
0000
0010
0001
1000
0000
0100
0000
,
1000
0000
0010
0100
0002
0000
0003
0000
,
0010
0000
0001
1000
0020
0000
0130
0000
,
0000
0000
0001
0010
0001
0000
1000
0000
,
0010
1000
0010
0000
0101
0000
1100
0000
,
0001
0000
0001
0000
0000
0000
1000
0100
,
0000
0000
0010
0001
0000
0000
0100
0010
,
0000
0000
1000
0001
0000
0000
0010
0001
,
0000
0000
0010
0100
0000
1000
0000
0001
,
0000
0100
0000
0000
0000
0000
0010
1000
,
0000
0000
0100
1000
0000
0000
0001
0100
,
0000
0000
0001
0010
0000
0000
0001
1000
,
0000
0000
0010
0100
0000
0010
0000
1000
,
0000
0001
0000
0000
0000
0010
0001
0100
,
0000
0000
0110
0000
0000
0010
1000
0001
,
0000
0000
1001
0000
0000
1000
0100
0010
,
0000
0000
0000
0001
0100
0000
0010
2000
,
0000
0002
0000
3003
0000
0100
0010
0000
,
1000
0000
0100
1000
0002
0000
0003
0000
,
0100
0000
0010
1000
0002
0000
0013
0100
,
0000
0000
1000
0100
1000
0000
0001
0000
,
0100
0000
0010
1000
0001
0000
0001
0000
,
0010
0000
0100
1000
0002
0000
0003
1000
,
0001
0000
0010
0100
2000
0000
3001
0100
,
0000
0000
0010
1000
0001
0000
0001
0000
,
0100
0010
1000
0000
1010
0000
0101
0000
,
1000
0100
0010
0100
2000
0000
3000
0000
,
0001
0000
0100
0010
2000
0000
3001
1000
,
0000
0000
0010
1000
0200
0000
0310
0000
,
0001
0000
0100
0001
2000
0000
3010
0000
,
1000
0001
0100
0001
2000
0000
3000
0010
,
1000
0000
0100
0010
0002
0000
0103
0010
,
0000
0000
1000
0100
1000
0000
0001
0000
,
0010
0001
0100
0000
0110
0000
1001
0000
,
1000
0100
1000
0000
0001
0100
0001
0000
,
0101
1100
0101
1100
,
0001
0010
0001
0000
1000
0010
1000
0000
,
0000
0002
0000
0103
0000
0020
0000
1030
,
0001
0010
0001
0000
1000
0010
1000
0000
,
1100
0101
1100
0101
,
0010
1000
0010
0000
0100
0001
0100
0000
,
0000
0002
0000
0013
0000
0200
0000
1300
,
0002
0000
2003
0000
,
3200
0000
0320
0000
,
0230
0000
2300
0000
,
3002
0000
0023
0000
,
0030
0000
0000
0000
;

//---------------dance-single - ----------------
#NOTES:
     dance-single:
     :
     Hard:
     11:
     :
0000
0000
0000
0000
,
0000
0000
0000
0000
,
0000
0000
0000
0000
,
0000
0000
0000
0000
,
0000
0000
0000
0000
,
0000
0000
0000
0000
,
0001
0010
0100
0010
0002
0000
0003
0000
,
1000
0010
0100
0010
2000
0000
3001
0100
,
0000
0000
0010
1000
0100
0000
0001
0000
,
0000
0000
1000
0010
0001
0000
0100
0000
,
0001
1000
0100
1000
0002
0000
0003
0010
,
0010
0001
0100
0001
2000
0000
3100
0010
,
0000
0001
0001
1000
0100
0000
0110
0000
,
0001
0001
0100
0010
1000
0000
0100
1000
,
0001
0001
0100
0100
1000
1000
0100
0100
,
0001
0010
0100
0010
0002
1000
1003
0000
,
0100
1000
0010
1000
0002
0000
0103
0010
,
1000
0000
0100
1000
0002
0100
0103
0000
,
0010
0000
1000
0001
2000
0100
3100
0000
,
1000
0010
0100
0010
2000
0000
3001
0100
,
0100
0010
0100
0001
2000
0000
3010
0100
,
0001
0010
0001
1000
0100
0000
1001
0000
,
0010
0010
1000
0001
0100
0000
0010
0100
,
0001
0000
0000
0001
0000
0000
0001
0000
0000
0000
1000
0000
0100
0000
0001
0000
,
0000
0010
0001
0100
0000
0010
1000
0002
,
0000
0013
0001
0100
0000
0010
1000
0100
,
0000
1000
0010
0001
0000
0100
0010
2000
,
0000
3001
0100
0010
0000
1000
0100
1000
,
0000
0001
0010
0001
0000
0100
0010
2000
,
0000
3100
1000
0001
0000
0010
0001
0100
,
0000
0001
0010
1000
0000
0100
0010
0002
,
0000
1003
0010
0100
0000
0001
0001
1000
,
0010
0000
1000
0100
0010
0001
0001
0200
,
0000
0310
1000
0001
0000
0100
0100
0010
,
1000
0000
0001
0010
0002
0000
0103
0010
,
1000
0000
0001
0000
0100
0000
0010
0000
1000
0100
1000
0000
0001
0000
0100
0000
,
0001
0010
0100
0010
0002
1000
1003
0000
,
0010
1000
0010
0100
0002
0000
0013
0100
,
1000
0000
0010
1000
0002
0100
0103
0000
,
1000
0000
0100
1000
0020
0100
0130
0000
,
0100
0001
0010
0100
2000
0000
3001
1000
,
1000
0010
0100
0010
2000
0000
3001
0010
,
0100
0010
0001
1000
0010
0000
0101
0000
,
1000
1000
0010
0100
0001
0000
0010
0001
,
0100
0010
0100
0001
2000
0010
3010
0000
,
1000
0100
0010
0100
0001
0100
1000
0010
,
0100
0000
0001
0010
0002
1000
1003
0000
,
0010
0000
1000
0100
2000
0001
3001
0000
,
0010
0001
1000
0001
0200
0000
0310
1000
,
1000
0100
0010
0001
0100
1000
0100
0001
,
1000
0010
0100
0010
1000
0000
1010
0000
,
0001
0001
1000
0001
0100
0000
0010
1000
,
0001
0001
0100
0100
1000
1000
0100
0100
,
0110
0000
0110
0000
1001
0000
0010
1000
,
0001
0001
0100
0100
1000
1000
0100
0100
,
0000
0001
0010
1000
0000
0001
0100
1000
,
0001
0001
0100
0100
1000
1000
0100
0100
,
0110
0000
0110
0000
1001
0000
0010
1000
,
0001
0001
0100
0100
1000
1000
0100
0100
,
0000
0001
0010
1000
0000
0001
0100
1000
,
0020
0000
2030
0000
,
3200
0000
0302
0000
,
0023
0000
2030
0000
,
3200
0000
0302
0000
,
0003
0000
0000
0000
;

//---------------dance-single - ----------------
#NOTES:
     dance-single:
     :
     Challenge:
     14:
     :
0000
0000
0000
0000
,
0000
0000
0000
0000
,
0000
0000
0000
0000
,
0000
0000
0000
0000
,
0000
0000
0000
0000
,
0000
0000
0000
0000
,
0001
0010
0001
0100
2000
0000
3000
0000
,
0010
1000
0100
1000
0001
0100
0010
1000
,
0000
0000
0001
0100
2000
0000
3010
0000
,
0000
0000
1000
0100
0002
0000
0013
0000
,
1000
0000
0000
1000
0000
0000
1000
0000
0000
0000
0001
0000
0000
0100
0000
0000
,
0010
0000
0000
0010
0000
0000
0010
0000
0000
0000
1000
0000
0000
0001
0000
0000
,
0100
0000
0000
0100
0000
0000
0100
0000
0000
0000
0010
0000
0000
1000
0000
0000
,
0001
0000
0000
0001
0000
0000
0001
0000
0000
0000
0100
0000
0000
0010
0000
1000
,
0001
0001
0100
0100
1000
1000
0100
0100
,
0001
0000
0010
0000
0001
0000
0100
0000
1000
0010
1000
0000
0100
0000
0000
0000
,
0010
0000
0001
0000
0010
0000
0100
0000
1000
0010
1000
0000
0100
0000
0001
0000
,
0100
0000
0000
1000
0010
0000
0100
0000
0002
0000
1000
0000
1003
0010
0000
0000
,
0100
0000
0000
0001
0010
0000
0100
0000
2000
0000
0001
0000
3001
0100
0000
0000
,
0010
0000
1000
0000
0100
0000
0010
0000
0002
0000
0100
0000
0103
0010
1000
0000
,
0100
0000
1000
0000
0010
0000
0100
0000
0001
0010
0001
0000
1000
0000
0010
0000
,
0100
0000
0001
0000
0001
0000
0010
0000
0001
0000
0100
0000
0010
1000
0000
0000
,
0100
0000
1000
0000
0010
0000
1000
0000
0001
0100
0010
0000
1000
0000
0001
0000
,
0100
0000
0000
0100
0000
0000
0100
0000
0000
0000
0001
0000
0010
0000
1000
0000
,
0001
0100
0010
0100
0001
0010
0100
0010
,
0001
0100
0010
1000
0100
1000
0001
0100
,
0001
0010
0001
0100
1000
0010
0001
1000
,
0100
0010
0001
1000
0000
0010
0100
0010
,
1000
0100
1000
0010
0100
1000
0100
0001
,
0010
0100
0010
1000
0010
0001
0100
1000
,
0010
1000
0100
0001
1000
0001
0010
0100
,
1000
0010
0001
0100
0000
0010
0010
0010
,
1001
0000
0000
1000
0100
0000
0010
0000
0001
0000
0100
0010
0100
0000
0001
0000
,
0100
0000
0000
0001
0010
0000
0100
0000
1000
0000
0001
0100
0001
0000
1000
0000
,
0010
0000
1000
0100
1000
0000
0010
0000
0100
0000
0001
0010
0001
0000
1000
0000
,
0010
0000
0000
1000
0000
0000
0100
0000
0000
0000
0000
0000
1000
0000
0000
0000
0000
0000
0001
0000
0000
0000
0000
0000
0100
0000
0010
0000
0100
0000
0010
0000
0000
0000
0000
0000
1000
0000
0000
0000
0000
0000
0001
0000
0000
0000
0000
0000
,
0010
0000
0001
0000
0100
0000
0001
0000
1000
0010
1000
0010
1000
0000
0000
0000
,
0100
0000
0010
0000
0001
0000
0100
0000
0001
0010
0001
0010
0001
0000
1000
0000
,
0010
0000
0000
1000
0100
0000
0010
0000
0001
0100
0001
0100
0001
0000
0000
0000
,
0010
0000
0000
1000
0001
0000
1000
0000
0100
0010
0100
0010
0001
0000
0000
0000
,
0110
0000
0001
0000
0100
0000
0010
0000
1000
0100
1000
0100
1000
0000
0001
0000
,
0001
0000
0100
0000
1000
0000
0100
0000
0010
1000
0010
1000
0001
0000
0100
0000
,
0010
0000
1000
0000
1000
0000
0100
0000
1000
0001
0100
0010
1000
0000
0000
0000
,
0001
0000
0010
0000
0100
0000
0010
0000
0001
1000
0100
1000
0001
0000
0100
0000
,
0010
0000
1000
0000
0100
0000
1000
0000
0001
0010
0100
1000
0001
0000
0000
0000
,
0100
0000
0010
0000
0100
0000
0001
0000
0010
0100
0010
0001
1000
0000
0100
0000
,
1000
0000
0000
0010
0100
0000
0010
0000
1000
0100
0010
0001
0100
0010
0000
0000
,
1000
0000
0000
0001
1000
0000
0010
0000
0100
0001
0100
0010
1000
0001
0000
0000
,
0010
0000
0001
0000
0100
0000
1000
0000
0010
0100
0010
1000
0001
0000
0100
0000
,
0100
0000
0001
0000
0010
0000
1000
0000
0001
0100
0010
1000
0100
0000
0010
0000
,
0001
0000
1000
0000
1000
0000
0010
0000
1000
0100
0010
0001
0100
0000
0000
0000
,
0010
0000
1000
0000
0100
0000
0010
0000
0001
0100
0001
0100
0010
0000
1000
0000
,
0001
0001
0100
0100
1000
1000
0100
0100
,
0001
0010
0000
0000
0100
1000
0000
0000
0010
0100
0010
0100
0010
0000
1000
0000
,
0001
0001
0100
0100
1000
1000
0100
0100
,
0000
0101
0110
1010
0000
1100
0110
0011
,
0001
0001
0100
0100
1000
1000
0100
0100
,
0001
1000
0000
0000
0100
0010
0000
0000
0001
0100
0001
0100
0001
0000
1000
0000
,
0001
0001
0100
0100
1000
1000
0100
0100
,
0000
0101
1001
1010
0000
1100
1001
0011
,
2000
0010
3002
0100
,
0023
1000
0230
0001
,
2300
0001
3020
0001
,
0230
1000
0302
0000
,
0003
0000
0000
0000
;
