#TITLE:Bad Romance;
#ARTIST:Lady Gaga;
#BANNER:Bad Romance-bn.png;
#BACKGROUND:Bad Romance-bg.png;
#JACKET:Bad Romance-jacket.png;
#MUSIC:Bad Romance.ogg;
#OFFSET:2.952;
#SAMPLESTART:73.68;
#SAMPLELENGTH:20;
#LASTBEATHINT:3.856;
#DISPLAYBPM:119;
#BPMS:0=119;
#BGCHANGES:;

//---------------dance-single - ----------------
#NOTES:
     dance-single:
     :
     Beginner:
     1:
     :
0000
0000
0000
0000
,
0000
0000
0000
0000
,
0000
0000
0000
0000
,
0000
0000
0000
0000
,
0000
0000
0000
0000
,
0000
0000
0000
0000
,
1000
0000
0000
0000
,
0000
0000
0000
0000
,
0001
0000
0000
0000
,
0000
0000
0000
0000
,
1000
0000
0000
0000
,
0001
0001
0001
0000
,
0001
0000
0000
0000
,
1001
0000
0000
0000
,
1000
0000
1000
0000
,
0001
0001
0001
0000
,
1000
0000
1000
0000
,
1001
0000
0000
0000
,
1000
0000
0000
0000
,
0001
0000
0000
0000
,
1000
0000
0000
0000
,
0001
0000
0000
0000
,
1001
0000
0000
0000
,
0000
0000
0000
0000
,
1001
0000
0000
0000
,
0000
0000
0000
0000
,
0001
0000
0000
0000
,
1000
0000
0000
0000
,
0001
0000
0000
0000
,
1000
0000
0000
0000
,
1001
0000
0000
0000
,
0000
0000
0000
0000
,
1001
0000
0000
0000
,
0000
0000
0000
0000
,
2000
0000
0000
3000
,
0000
0000
0000
0000
,
0002
0000
0000
0003
,
0000
0000
0000
0000
,
1000
0000
0000
0000
,
1000
0000
0000
0000
,
1000
0000
0000
0000
,
0100
0000
0000
0000
,
0001
0000
0000
0000
,
0001
0000
0000
0000
,
0001
0000
0000
0000
,
0010
0000
0000
0000
,
2000
0000
0000
3000
,
0000
0000
0000
0000
,
0010
0010
0010
0000
,
0000
0000
0000
0000
,
0002
0000
0000
0003
,
0000
0000
0000
0000
,
0010
0010
0010
0000
,
0000
0000
0000
0000
,
1000
0000
0000
0000
,
0001
0000
0000
0000
,
1000
0000
0000
0000
,
0001
0000
0000
0000
;

//---------------dance-single - ----------------
#NOTES:
     dance-single:
     :
     Easy:
     5:
     :
0000
0000
0000
0000
,
0000
0000
0000
0000
,
0000
0000
0000
0000
,
0000
0000
0000
0000
,
0000
0000
0000
0000
,
0000
0000
0000
0000
,
1000
0000
0100
0000
,
0020
0000
0030
0000
,
0010
0000
0001
0000
,
0200
0000
0300
0000
,
0001
1000
0001
0001
,
1000
0001
1000
0000
,
0010
0100
0010
0010
,
1000
0001
1001
0000
,
0001
0001
1000
1000
,
0010
0010
0100
0000
,
1000
1000
0001
0001
,
1000
0001
1000
1001
,
1000
0000
1000
0000
,
0010
0000
0100
0000
,
0001
0000
1000
0100
,
1000
0000
0010
1000
,
0002
0000
0003
0000
,
1000
1000
1001
0000
,
2000
0000
3000
0000
,
0100
0100
0100
0000
,
0001
0000
0001
0000
,
0010
0000
0100
0000
,
1000
0000
0001
0100
,
0001
0000
0010
0001
,
2000
0000
3000
0000
,
0001
0001
1001
0000
,
0002
0000
0003
0000
,
0100
0100
0100
0000
,
2000
0000
3000
0000
,
0020
0000
0030
0000
,
0200
0000
0300
0000
,
0002
0000
0003
0000
,
1000
0100
1000
0000
,
1000
0000
0100
0000
,
0010
0000
0001
1000
,
1001
0000
0000
0000
,
0001
0100
0001
0000
,
0001
0000
0100
0000
,
0010
0000
1000
0001
,
1001
0000
0000
0000
,
2000
0000
3001
0000
,
0002
0000
1003
1000
,
0002
0003
2000
3000
,
1000
0001
0100
0000
,
0002
0000
1003
0000
,
2000
0000
3001
0001
,
2000
3000
0002
0003
,
0001
1000
0100
0000
,
1000
0000
0000
0000
,
1000
0000
0000
0000
,
0001
0000
0000
0000
,
0001
1000
0001
1001
;

//---------------dance-single - ----------------
#NOTES:
     dance-single:
     :
     Medium:
     8:
     :
0000
0000
0000
0000
,
0000
0000
0000
0000
,
0000
0000
0000
0000
,
0000
0000
0000
0000
,
0000
0000
0000
0000
,
0000
0000
0000
0000
,
2000
0000
0000
0000
3000
1000
0010
0000
,
0020
0000
0000
0000
0030
0100
0001
0000
,
0010
0001
0010
0001
,
0200
0001
0301
0000
,
0101
0000
1100
0000
0101
0100
0100
0000
,
0010
1010
0001
0001
,
1100
0000
0101
0000
1100
0100
0100
0000
,
0010
0001
1000
1001
,
0001
1100
1000
0101
,
0001
0100
0100
0000
1000
0100
0100
0000
,
1000
0101
0001
1100
,
0010
1000
0001
1001
,
1000
0100
1000
0000
,
0010
0100
0001
0010
,
0001
0000
0010
0000
0001
0000
0100
0010
,
0000
1000
0010
1000
,
0001
0000
0100
0100
0000
0000
0000
0000
,
1100
0101
1100
0100
,
1000
0000
0010
0010
0100
0000
0000
0000
,
0001
0000
1000
0000
0010
0100
0010
0000
,
0001
0100
0001
0000
,
0010
0100
1000
0010
,
1000
0000
0010
0000
1000
0000
0100
0010
,
0000
0001
0010
0001
,
1000
0000
0100
0100
0000
0000
0000
0000
,
0101
1100
0101
0100
,
0001
0000
0010
0010
0100
0000
0000
0000
,
1000
0000
0001
0000
0010
0100
0010
0000
,
0000
0000
0020
0130
,
0000
0000
0002
1003
,
0000
0000
0020
1030
,
0100
1000
0001
0100
0000
0000
0000
0000
,
0001
0100
0001
0010
,
0001
0000
0001
0000
0010
0100
0010
0000
,
1000
0100
1000
0010
,
1000
0001
0100
0000
0001
0000
0001
0000
,
1000
0100
1000
0010
,
1000
0000
1000
0000
0010
0100
0010
0000
,
0001
0100
0001
0010
,
0001
1000
0100
0000
1000
0000
1000
0000
,
0002
0000
0103
0010
,
2000
0000
0000
0000
3100
0010
0001
0000
,
2000
3100
0002
0013
,
0001
1000
0001
0000
0100
0000
0000
0000
,
2000
0000
3100
0010
,
0002
0000
0000
0000
0103
0010
1000
0000
,
0002
0103
2000
3010
,
1000
0001
1000
0000
0100
0000
0000
0000
,
1000
0000
0100
0000
,
1000
0000
0000
0000
,
0001
0000
0001
0000
,
0100
0000
0100
0000
0001
1000
1001
0000
;

//---------------dance-single - ----------------
#NOTES:
     dance-single:
     :
     Hard:
     10:
     :
0000
0000
0000
0000
,
0000
0000
0000
0000
,
0000
0000
0000
0000
,
0000
0000
0000
0000
,
0000
0000
0000
0000
,
0000
0000
0000
0000
,
1000
0000
0000
0010
0000
1000
0001
0000
,
0010
0100
0000
1000
0000
0001
1000
0000
,
0001
0100
0001
0000
1000
0000
1000
0100
,
0010
0000
0001
0000
0100
0100
0100
0000
,
1100
0000
0101
0000
1000
1000
1000
1000
,
0001
0010
0011
0000
1000
1000
1000
1000
,
0101
0000
1100
0000
0001
0001
0001
0001
,
0100
0010
0110
0000
0100
0100
1001
0000
,
1000
0100
1100
0100
0010
0001
0011
0000
,
0001
0100
0110
0010
1000
0100
1100
0000
,
0001
0100
0101
0100
0010
1000
1010
0000
,
1000
0100
1100
0000
0010
0001
0011
0000
,
1000
0000
0100
0000
1000
0000
0010
1000
,
0100
0000
1000
0000
0010
0000
1000
0100
,
0010
0000
0100
0000
1000
0000
0100
0010
,
0100
0000
1000
0000
0010
0000
1000
0100
,
1000
0000
0100
0000
0100
0000
0100
0000
0000
0000
0000
0000
0000
0000
0000
0100
,
1000
0000
0000
0010
1000
0000
0000
0100
0010
0000
0000
0100
1000
0000
0100
0000
,
1000
0000
0010
0000
0010
0000
0010
0000
0000
0000
0000
0000
0000
0000
0000
1000
,
0100
0000
0000
0010
0100
0000
1000
0000
0100
0000
0100
0000
0100
0000
0000
0000
,
0001
0000
0100
0000
0001
0000
0010
0001
,
0100
0000
0001
0000
0010
0000
0001
0100
,
0010
0000
0100
0000
0001
0000
0100
0010
,
0100
0000
0001
0000
0010
0000
0001
0100
,
0001
0000
0100
0000
0100
0000
0100
0000
0000
0000
0000
0000
0000
0000
0000
0100
,
0001
0000
0000
0010
0001
0000
0000
0100
0010
0000
0000
0100
0001
0000
0100
0000
,
0001
0000
0010
0000
0010
0000
0010
0000
0000
0000
0000
0000
0000
0000
0000
0001
,
0100
0000
0000
0010
0100
0000
0001
0000
0100
0000
0100
0000
0100
0000
0000
0000
,
0000
0000
0000
0000
0000
0000
0000
1000
0010
0000
0100
0000
0010
0000
0000
0000
,
0000
0000
0000
0000
0000
0000
0000
0100
0001
0000
0010
0000
0001
0000
0000
0000
,
0000
0000
0000
0000
0000
0000
0000
0001
0010
0000
0100
0000
1000
0000
0010
0000
,
0100
0001
1000
0001
0000
0000
0000
0000
,
0001
0000
0100
0000
0001
0010
0001
0000
,
1000
0100
1000
0000
0001
0100
0001
0000
,
1000
0100
0001
0000
1000
0000
0001
0000
,
1000
0100
0010
0001
1000
0000
0001
0000
,
1000
0000
0100
0000
1000
0010
1000
0000
,
0001
0100
0001
0000
1000
0100
1000
0000
,
0001
0100
1000
0000
0001
0000
1000
0000
,
0001
0100
0010
1000
0001
0000
1000
0000
,
0001
0010
0001
0100
,
0001
0000
0010
0000
0001
0100
0010
0000
,
1000
0100
1000
0010
,
1000
0100
1000
0100
0100
0000
1000
0000
,
0001
0010
0001
0100
,
0001
0000
0010
0000
0001
0100
0010
0000
,
1000
0100
1000
0010
,
0001
0100
0001
0100
0100
0000
0001
0000
,
1000
0000
0100
0000
,
1000
1000
1000
1000
1000
0000
0000
0000
,
0010
0000
0010
0000
,
0100
0100
0100
0000
0001
1000
1001
0000
;

//---------------dance-single - ----------------
#NOTES:
     dance-single:
     :
     Challenge:
     13:
     :
0000
0000
0000
0000
,
0000
0000
0000
0000
,
0000
0000
0000
0000
,
0000
0000
0000
0000
,
0000
0000
0000
0000
,
0000
0000
0000
0000
1000
0100
0010
0001
,
0200
0000
0310
0100
0010
1000
0100
0010
,
0001
0100
1000
0100
0002
1000
1003
0000
,
0020
1000
1030
0001
1000
0100
0010
0001
,
0100
1000
0100
0001
0020
0100
0130
0000
,
1100
0000
0101
0000
1001
0110
1001
0100
,
0010
1010
0101
0000
0001
0001
0001
0100
,
0110
0000
1001
0000
1100
0011
1100
0010
,
0100
0001
0001
0001
0011
0110
1100
0000
,
1001
0100
1001
0100
0010
0010
1000
0001
,
0100
0110
1001
0100
0001
0001
1000
0100
,
0011
0100
1010
0100
0001
0001
0001
1000
,
0010
1000
1000
1000
1100
0110
0011
0000
,
0100
0001
0010
0001
0100
0010
1000
0001
,
1000
0100
0010
0001
0100
0010
0000
1000
,
0000
0100
1000
0010
1000
0100
0010
0001
,
0100
0010
1000
0001
0000
0001
0100
0010
,
1000
0000
0100
0000
0001
0100
0010
0100
0002
0000
1000
0000
1003
0000
0000
0000
,
0100
1000
0000
0000
0001
0100
0000
0000
0010
0000
1000
0000
1000
0000
0001
0000
,
0100
0000
0010
0000
1000
0001
0010
0001
2000
0000
0100
0000
3100
0000
0000
0000
,
0010
0001
0010
0100
1000
0000
0002
0000
0100
0000
0100
0000
0103
0000
0010
0000
,
0000
1000
0100
1000
0010
0100
1000
0100
,
0001
0100
0010
1000
0100
0010
0000
0001
,
0000
1000
1000
0010
1000
0100
0001
0100
,
0010
0100
0001
0100
1000
0010
0100
0001
,
0010
0000
0100
0000
1000
0001
0010
0001
2000
0000
0100
0000
3100
0000
0000
0000
,
0010
0001
0000
0000
1000
0010
0000
0000
0100
0000
0001
0000
0010
0000
0100
0000
,
1000
0010
0000
0000
0100
0001
0000
0000
1000
0000
0001
0000
0100
0000
0010
0000
,
1000
0100
0010
0100
1000
0000
0002
0000
0100
0000
0100
0000
0103
0000
0000
0000
,
0110
0000
0000
0010
1000
0100
1000
0001
0000
0000
0200
0000
0000
0000
0000
0000
,
0300
0000
0010
1000
0010
0100
0001
1000
0000
0000
0020
0000
0000
0000
0000
0000
,
0030
1000
0001
0100
1010
0100
0001
1000
,
1100
0001
0100
2002
0000
0000
3000
0000
,
0013
0001
0100
0010
0100
1000
0100
0001
,
0100
0010
0100
1000
0100
0010
0001
0010
,
1000
0000
0100
0000
0001
0000
0100
0000
1000
0010
0100
0010
1000
0000
0001
0000
,
0010
0001
1000
0100
0001
0010
0100
1000
,
0010
0100
0010
0001
0010
0100
1000
0100
,
0001
0100
1000
0100
0010
0001
0010
0100
,
0001
0000
0100
0000
0010
0000
1000
0000
0100
0010
0001
0010
0100
0000
1000
0000
,
0010
0100
0001
1000
0001
0010
0100
1000
,
0001
0100
0010
0100
1000
0100
0001
0100
,
0010
1000
1000
0001
0011
0110
1100
0000
,
0001
0100
0010
0100
1000
0100
0001
0010
,
0100
1000
1000
0001
0100
0010
1000
0001
,
0010
0100
1000
0010
0100
1000
0100
0001
,
1000
0001
0010
0100
1100
0110
0011
0000
,
0100
0001
0010
0001
0100
0010
1000
0001
,
0010
1000
0010
0001
0200
0010
0310
0000
,
1000
0000
1000
0000
0001
1000
0001
0100
,
0000
0110
0110
0000
0001
0100
0010
1000
,
0200
0000
0320
0000
0031
1000
0001
0100
,
0000
0010
1000
0001
0110
0010
1001
0000
;
