#TITLE:Back on the Chain Gang;
#ARTIST:The Pretenders;
#BANNER:Back on the Chain Gang-bn.png;
#BACKGROUND:Back on the Chain Gang-bg.png;
#JACKET:Back on the Chain Gang-jacket.png;
#MUSIC:Back on the Chain Gang.ogg;
#OFFSET:0.3;
#SAMPLESTART:38.875;
#SAMPLELENGTH:20;
#DISPLAYBPM:152:155;
#BPMS:0=153,4=152,8=153.35,20=152.75,48=154,68=152.3,80=153.15,84=154.2,92=153.64,140=153.175,144=155,156=152.47,180=153.47,196=153.019,204=154.25,236=153.71,240=152.71,268=153.57,288=153.333;
#BGCHANGES:;

//---------------dance-single - ----------------
#NOTES:
     dance-single:
     :
     Beginner:
     3:
     :
0000
0000
0000
0000
,
0000
0000
0000
0000
,
0000
0000
0000
0000
,
0000
0000
0000
0000
,
0000
0000
0000
0000
,
0000
0000
1000
0000
,
1000
0000
0000
0000
,
0001
0000
0100
0000
,
0001
0000
0100
0000
,
0010
0000
0000
0000
,
1000
1000
1000
0000
,
0000
0000
0000
0000
,
1001
0000
1001
0000
,
0000
0000
0000
0000
,
0010
0000
0100
0000
,
0001
0000
0000
0000
,
1000
0000
1000
0000
,
1000
0000
0001
0000
,
0100
0000
0010
0000
,
0010
0000
0000
0000
,
0110
0000
0110
0000
,
0001
0000
0000
0000
,
0000
0000
1000
0000
,
0001
0000
0000
0000
,
0100
0000
0100
0000
,
1001
0000
0000
0000
,
0110
0000
0000
0000
,
1001
0000
0000
0000
,
0110
0000
0000
0000
,
1001
0000
0000
0000
,
0110
0000
0000
0000
,
1000
1000
0000
0000
,
0001
0001
0000
0000
,
0100
0100
0000
0000
,
0010
0010
0000
0000
,
0000
1000
0000
0001
,
0000
1000
0000
0001
,
0000
0000
0000
0000
,
0010
0000
0001
0000
,
0100
0000
0000
0000
,
0010
0000
1000
0000
,
0001
0000
0000
0000
,
1000
0000
0100
0000
,
1000
0000
0000
0000
,
0001
0000
0100
0000
,
0020
0000
0030
0000
,
2000
0000
3000
0000
,
0002
0000
0003
0000
,
0200
0000
0300
0000
,
0001
0000
0000
0000
,
0010
0000
0001
0000
,
1000
0000
0000
0000
,
0010
0000
1000
0000
,
0100
0000
0000
0000
,
1000
0000
0100
0000
,
0001
0000
0000
0000
,
0010
0010
0010
0010
,
0020
0000
0030
0000
,
0002
0000
0003
0000
,
2000
0000
3000
0000
,
0200
0000
0300
0000
,
1000
0000
0001
0000
,
1001
0000
0000
0000
,
0110
0000
0000
0000
,
1001
0000
0000
0000
,
0110
0000
0000
0000
,
1001
0000
0000
0000
,
0110
0000
0000
0000
,
1000
1000
0000
0000
,
0001
0000
0100
0000
,
0001
0000
0010
0000
,
0100
0000
1000
0000
,
0010
0000
0100
0000
,
0010
0000
1000
0000
,
0001
0000
1000
0000
,
0010
0000
0110
0000
,
1001
0000
0000
0000
;

//---------------dance-single - ----------------
#NOTES:
     dance-single:
     :
     Easy:
     6:
     :
0000
0000
0000
0000
,
0000
0000
0000
0000
,
0000
0000
0000
0000
,
0000
0000
0000
0000
,
0000
0000
0000
0000
,
0000
0000
0001
1000
,
0020
0000
0030
0010
,
1000
0100
1000
0001
,
0100
0010
1000
0001
,
0200
0000
0000
0310
,
1000
0100
1000
0001
,
0000
0100
0000
0010
,
1010
0001
0101
1000
,
0000
0110
0000
0001
,
1000
0010
1000
0100
,
0010
0001
0000
0000
,
0110
0000
1001
0000
,
0110
1000
0010
0100
,
0001
0000
0010
0001
,
0100
0010
0000
1000
,
1100
0001
0101
1000
,
0000
0010
0000
0100
,
0000
0001
0010
0100
,
1000
0001
0000
0000
,
0011
0000
1100
0000
,
1001
0000
0010
1000
,
0210
0000
0002
0303
,
1001
1000
1000
0000
,
0110
0001
0010
0100
,
2100
0000
0002
3003
,
0101
0000
0010
1000
,
0100
1001
0000
0010
,
0000
1000
0000
0100
,
0000
0001
0000
0010
,
0000
0001
0000
1000
,
0000
0101
0000
1100
,
0000
0101
0000
1100
,
0000
0001
0100
0000
,
0010
1000
0100
0010
,
0001
0000
1000
0000
,
0010
1000
0010
0100
,
0001
0000
0010
0000
,
0001
0100
1000
0010
,
1000
0000
0001
0000
,
0010
0001
0100
0010
,
1000
1100
1100
0000
,
0001
0101
0101
0000
,
1000
1010
1010
0000
,
0001
0011
0011
0000
,
0100
0000
0010
0000
,
1000
0100
1000
0010
,
0001
0000
1000
0000
,
0010
1000
0100
0010
,
0001
0000
0100
0000
,
0001
0010
0001
0100
,
0010
1000
0100
0000
,
1000
0001
0010
0100
,
2000
0001
0001
3001
,
1002
0000
0000
0103
,
0020
0000
0000
1030
,
0002
0000
0000
0003
,
0011
0000
1100
0000
,
1001
0000
1000
0010
,
0120
0000
2000
3030
,
1001
0001
0001
0000
,
0110
0010
0001
1000
,
0102
0000
0200
0303
,
1010
0000
0100
1000
,
0001
1001
0010
1000
,
0100
0100
0010
0000
,
0001
0100
0001
0010
,
0100
1000
0001
0000
,
1000
0010
1000
0001
,
0100
0100
0100
0000
,
0010
1000
0010
0100
,
0001
0010
1000
0000
,
1001
0000
0000
0000
;

//---------------dance-single - ----------------
#NOTES:
     dance-single:
     :
     Medium:
     9:
     :
0000
0000
0000
0000
,
0000
0000
0000
0000
,
0000
0000
0000
0000
,
0000
0000
0000
0000
,
0000
0000
0000
0000
,
0000
0000
0000
0000
1000
0010
0100
0001
,
0020
0000
0000
0000
0000
0031
0000
1000
,
0001
0101
1000
1100
,
0001
0011
1000
1010
,
0200
0000
0000
0300
0000
0001
0010
0100
,
0010
0001
1000
0010
0000
0100
0000
0000
,
0000
0000
0101
0000
0000
1000
0001
0000
,
0200
0000
0310
0100
0002
0000
1003
0100
,
0000
0000
0000
0000
0000
0000
0001
1000
,
0000
0010
1000
0002
0000
0000
1003
0100
,
0000
0010
0001
0000
0000
0000
0000
0000
,
1100
0001
0101
1000
,
1001
0000
0010
1000
0010
0100
0001
1000
,
0000
0000
0000
0000
0100
0010
0000
0001
,
0000
0100
0010
0000
0000
0000
0000
0000
,
2000
0000
3001
1000
0200
0000
0310
0001
,
0000
0000
0110
0000
0000
0001
1000
0000
,
0000
0000
0010
1000
0010
0100
0001
1000
,
0000
0100
0000
0000
0000
1000
0001
0000
,
0011
0100
1010
0100
,
1001
0000
0000
0000
1000
0100
0001
0000
,
0011
0000
0000
0000
1000
0001
0100
0000
,
1010
0000
0001
0000
0100
0010
1000
0000
,
1001
0000
0010
0000
0001
1000
0100
0000
,
0011
0100
1000
0010
,
0110
0000
0000
0000
0001
1000
0100
0010
,
0000
0000
1001
0000
0000
0001
0100
0000
,
0000
0000
1010
0000
0000
1000
0100
0000
,
0010
0000
0011
0000
0000
0001
1000
0000
,
0010
0000
1010
0000
0000
1000
0001
0000
,
0000
0101
0000
1100
,
0000
0101
0000
1100
,
0000
0000
0010
0000
0010
0001
1000
0000
,
0001
0010
0100
1000
0000
1000
0001
0000
,
0100
0000
0010
0000
1000
0001
1000
0000
,
0100
0010
0100
1000
0000
0001
1000
0001
,
0000
0000
0000
0000
0010
0001
0100
0000
,
0010
1010
0001
1100
,
0010
0000
0101
0000
1000
0010
0100
0000
,
0001
0010
0001
1000
0000
1000
0100
0000
,
0010
0000
0001
0000
0001
0100
0000
0010
,
0000
0000
1000
0000
1000
0100
1000
0000
,
0001
0000
1000
0000
1000
0010
0000
0000
,
0000
0100
0001
0000
0100
0001
1000
0000
,
0020
0000
0030
0000
1000
0001
1000
0000
,
0100
0010
0001
0100
0000
0001
1000
0001
,
0000
0000
0010
0000
1000
0001
0000
0000
,
0010
0100
0010
0001
0000
1000
0001
0100
,
0000
0000
0000
0000
0010
1000
0100
0000
,
0010
0000
0011
0000
1000
0001
0000
0100
,
0000
0110
0000
0000
1000
0010
0000
0000
,
1000
0100
0020
0000
0000
0032
0000
0000
,
2003
0001
0100
3001
,
2010
0100
0001
3100
,
0201
0000
0020
0000
0330
1000
0001
1000
,
0100
0000
0010
0000
0001
0100
1000
0000
,
0101
0010
1100
0010
,
1001
0000
0010
0000
1000
0100
1000
0000
,
1100
0000
0001
0000
0010
0001
0100
0000
,
0101
0000
0010
0000
1000
0001
0100
0000
,
0011
0000
0100
0000
1000
0010
0001
0000
,
0201
0310
2010
3100
,
1100
0000
0010
0000
1000
0001
1000
0100
,
0000
1001
0010
1000
,
0100
0010
0001
0100
,
0010
0000
1000
0100
1000
0001
0100
0010
,
1000
0100
0001
0100
,
0110
0000
1000
0001
1000
0010
0100
0001
,
0010
0100
1000
0001
,
0100
0000
0001
0010
0001
0100
0010
1000
,
0001
0010
1000
0100
,
1001
0000
0000
0000
;

//---------------dance-single - ----------------
#NOTES:
     dance-single:
     :
     Hard:
     12:
     :
0000
0000
0000
0000
,
0000
0000
0000
0000
,
0000
0000
0000
0000
,
0000
0000
0000
0000
,
0000
0000
0000
0000
,
0000
0000
0000
0001
1000
0010
0100
0001
,
0020
0000
0000
0000
0000
0000
0000
0000
0000
0000
0130
0000
0000
0100
0000
0000
,
1000
0000
0000
0010
0000
0000
1000
0000
0001
0000
0000
0010
0000
0000
0001
0000
,
0100
0000
0000
0010
0000
0000
1000
0000
0100
0000
0000
0010
0000
0000
0001
0000
,
1000
0000
0101
0000
0000
0010
0100
1000
,
0010
0100
0001
2000
0000
3100
0010
0000
,
0001
0000
1010
0000
1000
0100
0001
0000
,
0020
0000
0130
1000
0002
0000
0103
0010
,
1000
0000
1100
0000
0000
0001
0100
0010
,
0000
1000
0100
0020
0000
0000
0031
1000
,
0010
1000
0100
0000
0010
0001
0100
0000
,
2010
3001
0012
1003
,
1001
0000
0010
1000
0100
0010
0001
0100
,
0001
0000
0110
0000
1000
0010
1000
0100
,
0000
0010
0001
0000
0001
0100
1000
0000
,
0002
0000
1003
0100
0020
0000
0031
1000
,
0100
0000
0011
0000
1000
0001
0100
0000
,
0010
0000
1000
0100
1000
0010
0100
0001
,
0000
0010
0100
0000
1000
0001
0100
0000
,
0102
0000
0013
0000
1000
0001
0001
0100
,
1001
0000
0000
0010
1000
0100
0010
0001
,
0110
0000
1000
0000
0001
0100
1000
0000
,
1100
0000
0001
0000
0001
0100
0010
2000
,
0000
3002
0000
2003
0000
3100
0010
0000
,
0012
0103
2000
3010
,
0101
0000
0010
0000
1000
0100
0010
0001
,
0100
0000
1001
0000
0010
1000
0001
1000
,
0000
0100
0010
0000
0001
0100
0001
1000
,
0010
0000
0110
0000
1000
0001
1000
0100
,
0010
0000
0011
0000
0100
0001
1000
0010
,
0100
0101
0000
1100
,
0000
0000
0000
0000
0101
0000
0001
1000
0001
0000
0100
0000
0100
0000
0010
0000
,
1000
0000
0001
0000
0001
0100
0010
0000
,
1000
0100
1000
0002
0000
0100
0103
0000
,
0010
0000
1000
0000
0100
1000
0001
0000
,
0010
0001
0100
0010
0000
1000
0100
1000
,
0001
0000
0010
0000
0001
0100
1000
0000
,
0010
0000
0000
1000
0000
0000
0001
0000
0010
0000
0000
0100
0000
0000
1000
0000
,
0001
0000
0010
0000
0001
0100
0010
1000
,
0100
1000
0001
1000
0000
0010
0100
0000
,
0001
0000
1000
0000
0100
1000
0001
0100
,
0010
0000
1010
0000
0100
0010
1000
0000
,
0001
0000
0010
0000
0001
1000
0001
0100
,
0010
0000
0110
0000
0100
0001
1000
0000
,
0010
0000
1000
0000
0100
0010
0001
0100
,
0001
0010
0100
1000
0000
1000
0001
1000
,
0000
0010
0100
0000
0001
0010
1000
0000
,
0100
1000
0001
0010
0000
0100
0010
0001
,
1000
0000
0101
0000
0001
0010
1000
0000
,
0100
0000
0000
0010
0000
0000
0100
0000
1000
0000
0000
0001
0000
0000
0010
0000
,
0000
0001
0000
0000
0100
0000
0000
0000
0010
0000
1000
0000
0001
0000
1000
0000
,
0100
1000
0010
0000
0100
0001
0010
0000
,
0002
0000
1003
0100
1000
0100
1000
0010
,
0100
0000
1001
0000
0010
1000
0001
0000
,
0020
0000
1000
0000
0031
0100
0010
1000
,
0001
0000
1010
0000
0001
0100
1000
0000
,
2100
3010
0102
0013
,
1001
0000
1000
0010
0100
0001
0010
0100
,
1100
0000
0001
0000
1000
0100
0010
0000
,
0011
0000
1000
0000
0010
1000
0001
0200
,
0000
0320
0000
0230
0000
0301
1000
0000
,
2100
0000
3010
0000
1000
0001
0100
0000
,
0101
0000
0010
0000
1000
0100
0010
0001
,
1000
0000
0000
0000
1001
0000
0000
0000
0001
0000
0000
0010
0000
0000
0100
0000
,
1000
0000
0000
0010
0000
0000
1000
0000
0100
0000
0000
0010
0000
0000
0001
0000
,
0100
0000
0010
1000
0010
0100
0001
1000
,
0100
0000
0000
0010
0000
0000
0001
0000
1000
0000
0000
0001
0000
0000
0100
0000
,
0001
0000
0010
0001
1000
0010
0100
0001
,
1000
0000
0000
0100
0000
0000
1000
0000
0010
0000
0000
0100
0000
0000
0001
0000
,
1000
0000
0010
0100
0010
1000
0100
0010
,
0001
0000
0000
0100
0000
0000
0010
0000
1000
0000
1100
0000
0000
0000
1001
0000
,
1001
0000
0000
0000
;
