#TITLE:...Baby One More Time;
#ARTIST:Britney Spears;
#BANNER:Baby One More Time-bn.png;
#BACKGROUND:Baby One More Time-bg.png;
#JACKET:Baby One More Time-jacket.png;
#MUSIC:Baby One More Time.ogg;
#OFFSET:1.6;
#SAMPLESTART:104.222;
#SAMPLELENGTH:20;
#LASTBEATHINT:0.918;
#DISPLAYBPM:93;
#BPMS:0=93;
#BGCHANGES:;

//---------------dance-single - ----------------
#NOTES:
     dance-single:
     :
     Beginner:
     1:
     :
0000
0000
0000
0000
,
0000
0000
0000
0000
,
0000
0000
0000
0000
,
0000
0000
0000
0000
,
0000
0000
0000
0000
,
1001
0000
0000
0000
,
0010
0000
1000
0000
,
0100
0000
0000
0000
,
1000
0000
0001
0000
,
1001
0000
0000
0000
,
0100
0000
0010
0000
,
1000
0000
0000
0000
,
0001
0000
1000
0000
,
0010
0010
0000
0000
,
1000
1000
0000
0000
,
0001
0001
0000
0000
,
0100
0000
0010
0000
,
1001
0000
0000
0000
,
1000
1000
0000
0000
,
0001
0000
0100
0000
,
0010
0010
0000
0000
,
1000
0000
0001
0000
,
0010
0000
0001
0000
,
0200
0000
0300
0000
,
0110
0000
1001
0000
,
0110
0000
0000
0000
,
1000
0000
0000
0000
,
0001
0000
0000
0000
,
0000
0000
0000
0000
,
0100
0000
0000
0000
,
0010
0000
0000
0000
,
1000
0000
0000
0000
,
0001
0000
0000
0000
,
1001
0000
0000
0000
,
0110
0000
0000
0000
,
1000
0000
0001
0000
,
0100
0100
0100
0000
,
0110
0000
0000
0000
,
1001
0000
0000
0000
,
0020
0000
0030
0000
,
1001
0000
0110
0000
,
1001
0000
0000
0000
,
0010
0010
0000
0000
,
1000
0000
0001
0000
,
1000
1000
0000
0000
,
0100
0000
0010
0000
,
0001
0000
1000
0000
,
0020
0000
0030
0000
,
1001
0000
0110
0000
,
1001
0000
0000
0000
;

//---------------dance-single - ----------------
#NOTES:
     dance-single:
     :
     Easy:
     6:
     :
0000
0000
0000
0000
,
0000
0000
0000
0000
,
0000
0000
0000
0000
,
0000
0000
0000
0000
,
0000
0000
0000
0000
,
0001
0100
1000
0000
,
0010
1000
0100
0010
,
0001
0100
1000
0000
,
0010
1000
0001
0001
,
0100
0010
1000
0000
,
0100
1000
0010
0100
,
0001
0010
0100
0000
,
1000
0001
1000
0100
,
0110
0110
0001
0100
,
1000
1000
0000
0000
,
1001
1001
0010
0100
,
0001
1000
1001
0110
,
0010
1000
0001
0000
,
1000
0100
0010
0010
,
0001
0100
1000
0000
,
0010
1000
0000
0010
,
0000
1000
0100
0001
,
0010
0000
0001
0100
,
2000
0000
0002
3003
,
0011
1100
0101
1010
,
0000
0001
1000
0000
,
0010
1000
0100
0010
,
0001
0000
0000
0000
,
0100
0000
0010
0000
,
1000
0100
1000
0000
,
0001
0010
0001
0000
,
0100
0000
0010
0000
,
1000
0000
0001
1000
,
1001
0000
0010
0100
,
0110
0000
0010
1000
,
0001
0001
0001
0100
,
1001
0110
1001
0110
,
1001
0000
0010
1000
,
0110
0000
0001
0100
,
0002
0000
2000
3003
,
1100
0011
0101
1010
,
1001
1000
0001
0000
,
0010
0010
0001
1000
,
0010
1000
0100
0000
,
1000
0001
0000
0100
,
0000
0010
0100
0010
,
1000
0000
0001
0100
,
0020
0000
0200
0330
,
1001
1001
0110
0110
,
1001
0000
0000
0000
;

//---------------dance-single - ----------------
#NOTES:
     dance-single:
     :
     Medium:
     9:
     :
0000
0000
0000
0000
,
0000
0000
0000
0000
,
0000
0000
0000
0000
,
0000
0000
0000
0000
,
0000
0000
0000
0000
0000
1000
1000
1000
,
1001
0001
0100
0001
0100
0001
0000
1000
,
0010
0100
0010
1000
0000
0000
0001
0001
,
0000
0000
0110
0000
1000
0000
0001
0100
,
0010
1000
0010
1000
0002
0100
0103
0100
,
0000
0010
1000
0010
1000
0001
0000
1000
,
0100
0010
0001
1000
0000
0000
0010
0010
,
0200
0000
0301
1000
0002
0000
0003
0010
,
0100
1000
0001
1000
0002
0100
0103
0100
,
2001
0000
3020
0000
1030
0100
0010
0001
,
0200
0000
0320
0000
0030
0000
1000
0001
,
2000
0000
3200
0000
0310
0001
0100
0001
,
2000
0000
3001
0000
1001
0010
0100
0000
,
1001
0010
1000
0001
0200
0000
0300
0001
,
0010
0100
1000
0000
0002
0000
2003
0000
,
3000
0010
1000
0100
0020
0000
0030
0001
,
1000
0001
0100
0010
0000
1000
0001
1000
,
0000
0010
1000
0100
0010
0001
0100
0010
,
1000
0002
0000
0000
0013
0100
0010
0002
,
0000
0000
0000
1000
1003
0001
0100
0000
,
0010
0010
0010
0010
0010
0010
0010
0000
,
1001
0000
0100
0000
1000
0001
0000
0000
,
0010
0000
0001
0100
0000
0000
0010
1000
,
0000
0000
0000
0000
0000
0100
1000
0001
,
1000
0000
0010
0100
0002
0000
2003
0000
,
3001
0100
0010
0100
0001
1000
0000
0100
,
0010
0100
1000
0001
0000
1000
0000
0010
,
0100
0001
2000
0000
0000
0000
3000
0000
,
0020
0000
0030
0000
1000
0100
0010
0001
,
1001
0000
0000
0010
1000
0100
1000
0001
,
0100
0000
0000
0001
0010
0001
0100
0020
,
0000
1000
2030
0000
3002
0000
0013
0100
,
1100
0000
0101
0000
1100
0000
0001
0100
,
1001
0000
0000
0001
0010
0100
1000
0010
,
0110
0000
0000
0001
1000
0010
1000
0100
,
0020
0000
0000
0001
0031
1000
0000
0000
,
0100
0100
0100
0100
0100
0100
0100
0000
,
1001
1000
0100
0010
0002
0000
0003
0100
,
0001
1000
0001
0000
0200
0000
0320
0000
,
0030
1000
0001
1000
0200
0000
0300
0010
,
0001
0100
0001
2000
0000
3010
0100
0010
,
0000
1000
0100
1000
0001
0100
0010
1000
,
0100
0020
0000
0000
0031
1000
0001
0100
,
0020
0000
0000
1000
1030
0001
0100
0000
,
0001
0001
1000
1000
0001
0001
0001
0000
,
1001
0000
0000
0000
;

//---------------dance-single - ----------------
#NOTES:
     dance-single:
     :
     Hard:
     11:
     :
0000
0000
0000
0000
,
0000
0000
0000
0000
,
0000
0000
0000
0000
,
0000
0000
0000
0000
,
0000
0000
0000
0000
0000
1100
1100
1100
,
1001
0001
0100
0010
1000
0001
0100
0010
,
1000
0100
0001
0010
0100
0000
0110
0001
,
1000
0002
0103
0000
0010
1000
0001
0100
,
1000
0100
0010
0100
0001
1010
1010
1010
,
1001
0100
0010
1000
0001
0100
0010
1000
,
0100
0001
0100
1000
0010
0000
0110
0001
,
1000
0000
0020
0000
0130
0000
0001
1000
0001
0000
0010
0000
0100
0000
1000
0000
,
0010
1000
0001
0100
0010
0101
0101
0101
,
2001
0000
3020
0000
1030
0100
0010
0001
,
0200
0000
0320
1000
1030
0000
0001
0100
,
0002
1000
2003
0000
3010
1000
0100
0010
,
0001
0100
1000
0000
1001
1010
0101
1010
,
1001
0100
0001
0010
1000
0100
1000
0001
,
0010
0000
0100
0000
2000
0000
0000
0000
3001
0100
1000
0100
0001
0000
1000
0000
,
0001
0010
1000
0010
0001
0100
0010
1000
,
1100
0110
0011
0101
0000
2000
3002
0103
,
1001
0010
1000
0100
1000
0010
0100
1000
,
0100
0001
0020
0000
0031
0100
0010
1000
,
0102
0000
1000
0000
1003
0000
0100
1000
0001
1000
0010
0000
0100
0000
1000
0000
,
1001
1001
0110
0110
1001
0110
1001
0000
,
0010
1000
0100
0010
0001
1000
0000
0010
,
1000
0100
0010
0001
0000
0000
0100
0100
,
0010
0000
0001
0000
0000
1000
0001
1000
,
0010
0000
1000
0100
2000
0000
3002
0000
,
0013
0001
0100
0010
1000
0100
1000
0001
,
0100
0010
0100
0001
1000
0010
1000
0100
,
0001
0000
0100
0000
1000
0000
0010
0000
1000
0001
1000
0000
0010
0000
0100
0000
,
0002
1000
1003
1000
0010
0100
0001
1000
,
1001
1100
0001
1000
0100
0010
0001
0100
,
0110
1000
0100
0010
0001
0100
0001
0010
,
1000
0200
0320
0032
2003
0000
3010
0100
,
0101
0000
1100
0000
0101
0100
0110
1000
,
1010
0001
0100
0010
1000
0100
1000
0001
,
0011
0100
0010
1000
0001
1000
0100
0010
,
0012
0000
1000
0000
1003
0000
0001
0100
0010
1000
0001
0000
0100
0000
0000
0000
,
0101
0101
1100
1100
0101
1100
0101
0000
,
1001
0010
1000
0001
1000
0100
0010
0001
,
0001
0000
0100
0000
1000
0000
0000
0000
0010
1000
0010
1000
0001
0000
0100
0000
,
0010
1000
0100
0010
0001
0100
0001
1000
,
1010
0101
0011
1100
0000
0002
2003
3010
,
1001
0100
0001
0010
1000
0010
0100
0010
,
0001
0100
1000
0000
0010
1000
0100
0001
,
2010
0000
0100
0000
3100
0000
1000
0010
0100
0001
1000
0000
0100
0000
0010
0000
,
0011
0110
1100
1001
1100
0110
0011
0000
,
1001
0000
0000
0000
;
