#TITLE:?;
#ARTIST:TEAM;
#TITLETRANSLIT:BYUL;
#BANNER:BYUL-bn.png;
#BACKGROUND:BYUL-bg.png;
#JACKET:BYUL-jacket.png;
#MUSIC:BYUL.ogg;
#OFFSET:2.049;
#SAMPLESTART:45.659;
#SAMPLELENGTH:20;
#LASTBEATHINT:1.822;
#DISPLAYBPM:85:106;
#BPMS:0=105,106=105.5,108=105,171=106,173=100,174=90,175=85;
#BGCHANGES:;

//---------------dance-single - ----------------
#NOTES:
     dance-single:
     :
     Beginner:
     2:
     :
0000
0000
0000
0000
,
0000
0000
0000
0000
,
0000
0000
0000
0000
,
0000
0000
0000
0000
,
0000
0000
0000
0000
,
0001
0000
0100
0000
,
1000
0000
0010
0000
,
1000
0000
0000
0000
,
0001
0000
0010
0000
,
0001
0000
1000
0000
,
0010
0000
0100
0000
,
0010
0000
0000
0000
,
1000
0000
0001
0000
,
0100
0000
0010
0010
,
0000
0000
1000
1000
,
0000
0000
0001
0000
,
0010
0000
0001
0000
,
1000
0000
0010
0000
,
0100
0000
0001
0000
,
0001
0000
1000
0000
,
0010
0000
0100
0000
,
0001
0001
0000
0000
,
1000
1000
0000
0000
,
0100
0000
1000
0000
,
0010
0000
0001
0000
,
1000
0000
0001
0000
,
0100
0100
0000
0000
,
0010
0000
1000
0000
,
0001
0001
0000
0000
,
0100
0000
1000
0000
,
0100
0000
0010
0000
,
0001
0000
1000
0000
,
0010
0000
0100
0100
,
0000
0001
0000
1000
,
0000
0010
0000
0000
,
1000
0000
0100
0000
,
0001
0000
1000
0000
,
0001
0000
0001
0000
,
0010
0000
0001
0000
,
0100
0000
0010
0000
,
1000
0000
0001
0000
,
0100
0000
0010
0000
,
1000
0000
0000
0000
,
1000
0000
0001
0000
,
0100
0000
0000
0000
;

//---------------dance-single - ----------------
#NOTES:
     dance-single:
     :
     Easy:
     6:
     :
0000
0000
0000
0000
,
0000
0000
0000
0000
,
0000
0000
0000
0000
,
0000
0000
0000
0000
,
0000
0000
0000
0000
,
1001
0100
0100
0100
,
0001
0001
0100
0100
,
1001
0100
0100
0100
,
1000
1000
0100
0100
,
1001
0100
0100
0100
,
0001
0001
0100
0100
,
1001
0100
0100
0100
,
1000
0100
1000
0100
,
0000
0010
0000
1001
,
0000
0010
0000
1001
,
0000
0100
0000
1001
,
0000
0100
0000
1001
,
0000
0010
0000
1001
,
0000
0100
0000
1001
,
0000
0010
0000
1001
,
0000
1001
0000
0000
,
0010
0010
0010
1001
,
0100
0100
0100
1001
,
0010
1001
0100
1001
,
0010
0100
0010
1001
,
0100
0001
0010
1000
,
0100
0001
0010
1000
,
0010
0100
0001
1000
,
0010
0100
0001
1000
,
0100
0010
0001
1000
,
0100
0010
0001
1000
,
0010
0001
1000
0100
,
0001
0000
0000
0000
,
0001
0010
0100
1000
,
1000
0010
0100
0001
,
0001
0010
0100
1000
,
1000
0010
0100
0001
,
1000
0100
0001
0100
,
1000
0010
0001
0010
,
1001
1001
1001
1001
,
0110
0110
0110
0110
,
1001
0000
0000
0000
,
1001
0000
0000
0000
,
0100
0000
0000
0000
;

//---------------dance-single - ----------------
#NOTES:
     dance-single:
     :
     Medium:
     9:
     :
0000
0000
0000
0000
,
0000
0000
0000
0000
,
0000
0000
0000
0000
,
0000
0000
0000
0000
,
0000
0000
0000
0000
,
1001
0000
0000
0100
1000
0100
0010
0000
,
1001
0000
0000
0100
0001
0100
0010
0000
,
1001
0000
0000
0100
1000
0100
0010
0000
,
0001
0000
0100
0000
0010
1000
0100
0000
,
1001
0000
0000
0010
0100
0001
0010
0000
,
1001
0000
0000
0100
0010
0001
0100
0000
,
1001
0000
0000
0010
0100
0001
0010
0000
,
0100
0000
1000
0000
0001
0100
0001
0000
,
1000
1000
1000
0000
0100
0000
0100
0000
,
0010
0010
0010
0000
0001
0000
0001
0000
,
0100
0100
0100
0000
0010
0000
0010
0000
,
1000
1000
1000
0000
0001
0000
0001
0000
,
0010
0100
0010
0000
0001
0000
1000
0000
,
0100
0010
0100
0000
1000
0000
0001
0000
,
0100
0010
1000
0000
0001
0000
0001
0000
,
0001
0000
0000
0000
,
1001
0000
0010
0100
0010
0100
0001
0000
,
1001
0000
0100
0010
0100
0010
0001
0000
,
1001
0000
0100
0000
1001
0000
0010
0100
,
1000
0001
0100
0010
1000
0000
1001
0000
,
0100
0010
0100
0010
0000
1000
0001
0000
,
0100
0010
0100
0010
0000
1000
0001
0000
,
0010
0100
1000
0001
0000
0001
1000
0000
,
0010
0100
0001
1000
0000
1000
0001
0000
,
0001
1000
0010
0100
0000
0100
0010
0000
,
1000
0001
0100
0010
0000
0010
0100
0000
,
0001
1000
0100
0010
0000
0001
1000
0100
,
0010
0000
0000
0000
,
0001
0100
0001
1000
0000
1001
0000
0100
,
0010
0001
0100
0010
0000
1001
0000
0100
,
0010
0001
0010
0000
1000
0100
1000
0000
,
0001
0100
1000
0100
,
0001
0000
0100
0100
0000
0010
0010
0000
,
1000
0000
0100
0100
0000
0010
0010
0000
,
0001
0001
0001
0000
1000
1000
1000
0000
,
0110
0110
0110
0110
1001
1001
1001
1001
,
1001
0000
0000
0000
0000
0100
0000
0100
,
0100
0000
0010
0100
,
1001
0000
0000
0000
;

//---------------dance-single - ----------------
#NOTES:
     dance-single:
     :
     Hard:
     11:
     :
0000
0000
0000
0000
,
0000
0000
0000
0000
,
0000
0000
0000
0000
,
0001
0010
1000
1000
0000
0100
0010
0001
,
0000
0100
0010
0100
0010
0000
1000
0001
,
0010
0100
1000
0100
1000
0001
0000
0100
,
0010
0000
1000
0001
1000
0010
0100
0001
,
0000
0010
0001
1000
0000
0010
0100
0001
,
1000
0100
0100
0010
0000
0001
1000
0001
,
0100
0000
0010
1000
0010
0100
0000
0001
,
0010
0000
0001
0010
1000
0100
1000
0001
,
0000
0100
0010
1000
0000
0001
0100
1000
,
0001
0010
0001
1000
0000
0100
1000
0001
,
1001
0000
0010
1000
0010
0100
0001
1000
,
0100
0000
1000
0010
1000
0100
0010
0001
,
0100
0000
0001
2000
0000
3010
1000
0200
,
0000
0301
0100
0020
0000
0031
1000
0010
,
0100
0001
1000
0000
0010
0100
0010
1000
,
0100
1000
0001
0200
0000
0310
1000
0001
,
0010
0000
0001
0000
0100
0000
0010
1000
0010
0000
0100
0000
0001
0000
1000
0000
,
0100
0100
0100
1000
0001
0100
0000
0110
,
1000
0010
1000
0001
0100
0010
0100
0001
,
0000
0010
0001
1000
0100
1000
0001
2000
,
0000
3100
1000
0001
0010
0001
0001
0100
,
0010
1000
0010
0100
0101
0000
1100
0001
,
0001
0100
0010
1000
0100
0010
0001
0100
,
0010
0000
0010
0000
0010
1000
0000
0000
0000
0000
0100
0000
1000
0001
1000
0000
,
0010
0000
0100
0000
0001
0000
1000
0100
0000
0000
0010
0000
0010
0000
0001
0000
,
1000
0010
2000
0000
0000
0000
3001
0000
0000
0000
0100
0010
0100
0000
0001
0000
,
0010
0000
0100
0000
1000
0001
0000
0000
0100
0000
0010
0000
0100
0000
0001
1000
,
0000
0000
0100
0000
0100
0000
1000
0000
0010
0100
0000
0000
0000
0000
0001
0010
,
0001
0000
0100
0000
1000
0000
0010
0000
1000
0001
0000
0000
0100
0000
0010
0000
,
1000
0001
1000
0000
0000
0000
0010
0000
0010
0000
0100
0000
0001
0000
1000
0000
,
0010
1000
0100
0001
0010
0100
1000
0001
,
0100
1000
0100
0001
0010
0001
0010
1000
,
1000
0100
1000
0001
1000
0010
0100
0001
,
0010
0100
1000
0001
0000
0100
0100
0010
,
2000
0000
3100
1000
0002
0000
0013
0100
,
1000
0010
0100
0001
0000
0010
0001
1100
,
0000
0010
0100
0101
0000
1010
0000
0100
,
0001
0100
1000
0010
1000
0100
0001
1000
,
0010
0001
0100
0100
0000
0010
1000
0001
,
0000
1000
0100
0001
0010
0100
0010
0001
,
1000
0010
0100
0001
0000
1000
0100
0110
;

//---------------dance-single - ----------------
#NOTES:
     dance-single:
     :
     Challenge:
     13:
     :
0000
0000
0000
0000
,
0000
0000
0000
0000
,
0000
0000
0000
0000
,
0001
0100
1000
1000
0010
0100
0001
0001
,
0010
0001
1000
0001
1000
0100
0100
0010
,
0001
0100
0001
0010
1000
0010
0100
1000
,
0001
0000
0101
0010
1000
0100
1000
0001
,
0010
0000
1000
0000
0100
1000
0001
0000
0000
0000
0100
0000
0100
0000
0010
0000
,
1010
0100
1000
0001
0010
0001
0100
1000
,
0001
0000
0011
1000
0001
0001
0100
0010
,
1000
0000
1100
0010
1000
0001
0100
0010
,
1000
0000
0100
0000
0001
0010
0100
0000
0000
0000
1000
0010
1000
0000
0001
0000
,
0100
0010
0100
1000
0100
0001
0010
1000
,
0110
0000
0001
0100
1000
1000
0010
0100
,
0001
0000
0000
0000
1001
0000
0010
0000
1000
0000
0100
0000
0001
0000
0010
0100
,
1000
0000
1100
0001
0100
0010
1000
0100
,
0010
0001
0100
0110
0010
1000
0001
0101
,
1000
0010
0100
0000
0001
0000
0010
0000
0010
0000
0001
0000
0100
0000
1000
0000
,
0100
0010
1000
0100
0001
0010
1000
0001
,
0100
0010
1000
0000
0001
0000
0010
0001
0100
0000
0010
0000
1000
0000
1000
0000
,
1001
0110
1001
0010
1000
0001
0100
0110
,
1000
0000
0010
0000
0001
0000
0010
0000
1000
0100
1000
0000
0001
0000
1010
0000
,
0001
0100
1000
0100
0001
1000
0010
0001
,
0100
0000
1000
0001
0010
0000
0001
0000
0100
0000
0010
0000
1000
0000
0001
0000
,
1000
0010
0001
0100
0101
0010
1100
0001
,
0100
0010
0000
0000
1000
0100
0010
0100
1000
0000
0001
0100
0010
0000
0010
0000
,
1000
0000
0100
1000
0100
0001
0100
0000
0000
0000
0010
0001
1000
0001
0010
0000
,
0100
0000
1000
0010
1000
0000
0100
0001
0000
0000
0010
0001
1000
0000
1000
0000
,
1000
0010
0200
0000
0000
0000
0301
0000
0010
0000
0001
1000
0001
0000
0100
0010
,
1000
0000
0100
1000
0001
1000
0000
0000
0010
0100
0001
0100
0010
0100
0001
1000
,
0000
0000
1010
0000
0101
0000
0001
0010
0001
0100
0000
0000
0110
0000
1000
0001
,
1000
0010
0100
0000
0001
0000
0010
0001
1000
0100
0000
0000
0110
0000
0001
0100
,
0010
1000
0001
0000
0000
0000
0100
0010
0100
0000
0001
0000
1000
0000
0010
0000
,
1001
0100
0001
0010
1000
0100
1000
0001
,
0010
0000
0100
0000
1100
0000
0011
0000
0100
0001
1000
0000
0010
0000
0100
0001
,
1000
0010
0101
0010
1000
0001
0001
0100
,
0010
1000
0100
0001
0010
0001
1100
0011
,
0100
0000
0010
0000
1000
0000
0010
0100
0001
1000
0001
0000
0010
0000
0100
0000
,
1000
1010
0101
0011
0100
1100
0110
0011
,
1000
0000
0110
0000
1001
0000
0110
0000
0001
0100
1000
0000
0010
0000
0100
0000
,
0101
0000
0101
0000
1100
0000
1100
0000
0010
0000
1000
0000
0001
0100
0010
0100
,
0001
0010
1000
1000
0100
0010
0001
0001
,
0000
1010
1100
1010
0001
0100
1000
0100
,
0001
0010
1000
1000
0000
0010
0100
0002
,
0000
0000
0000
0000
,
0000
0003
0000
0000
;

//---------------dance-double - ----------------
#NOTES:
     dance-double:
     :
     Easy:
     5:
     :
00000000
00000000
00000000
00000000
,
00000000
00000000
00000000
00000000
,
00000000
00000000
00000000
00000000
,
00000000
00000000
00000000
00000000
,
00000000
00000000
00000000
00000000
,
00010000
00000000
00010000
00000000
,
00010000
00000000
00010000
00000000
,
00001000
00000000
00001000
00000000
,
00001000
00000000
00001000
00000000
,
00010000
00000000
00010000
00000000
,
00010000
00000000
00010000
00000000
,
00001000
00000000
00001000
00000000
,
00001000
00000000
00001000
00000000
,
00010000
00010000
00010000
00000000
,
00001000
00001000
00001000
00000000
,
00100000
00100000
00100000
00000000
,
00010000
00010000
00010000
00000000
,
10000000
10000000
10000000
00000000
,
01000000
01000000
01000000
00000000
,
00100000
00100000
00100000
00000000
,
00001000
00000000
00000000
00000000
,
00010000
00001000
00010000
00001000
,
00010000
00010000
00010000
00000000
,
00000100
00000010
00000100
00000010
,
00000100
00000100
00000100
00000000
,
00001000
00000000
00000100
00000000
,
00010000
00000000
00001000
00000000
,
00011000
00000000
00011000
00000000
,
01000000
00000000
00001000
00000000
,
00010000
00000000
00000010
00000000
,
00000100
00000000
00000110
00000000
,
00001000
00000000
00000100
00000000
,
00010000
00000000
00000000
00000000
,
00001000
00001000
00001000
00001000
,
00010000
00010000
00010000
00010000
,
00000100
00000100
00000100
00000100
,
00001000
00001000
00001000
00001000
,
00000010
00000010
00000010
00000010
,
00010000
00010000
00010000
00010000
,
00001000
00001000
00001000
00001000
,
00100000
00100000
00100000
00100000
,
00010000
00000000
00000000
00000000
,
10000000
00000000
00000000
00000000
,
10010000
00000000
00000000
00000000
;

//---------------dance-double - ----------------
#NOTES:
     dance-double:
     :
     Medium:
     9:
     :
00000000
00000000
00000000
00000000
,
00000000
00000000
00000000
00000000
,
00000000
00000000
00000000
00000000
,
00000000
00000000
00000000
00000000
,
00000000
00000000
00000000
00000000
,
10000000
00000000
10000000
00000000
10000000
00010000
00100000
00000000
,
00001000
00000000
00001000
00000000
00001000
00010000
00000100
00000000
,
00001000
00000000
00001000
00000000
00001000
00000001
00000010
00000000
,
00000001
00000000
00000001
00000000
00000001
00001000
00000100
00000000
,
00010000
00000000
00010000
00000000
00010000
00001000
00100000
00000000
,
00010000
00000000
00010000
00000000
00010000
10000000
01000000
00000000
,
10000000
00000000
10000000
00000000
10000000
00010000
00100000
00000000
,
00001000
00010000
00000100
00000000
00001000
00000001
00000010
00000000
,
00000000
00000100
00000100
00000000
00000000
00001000
00010000
00000000
,
00000000
00000010
00000010
00000000
00000000
00001000
00010000
00000000
,
00000000
00001000
00001000
00000000
00000000
00010000
00100000
00000000
,
00000000
00010000
00010000
00000000
00000000
10000000
00100000
00000000
,
00000000
00001000
00001000
00000000
00000000
00010000
00010000
00000000
,
00000000
00000100
00000010
00000000
00000000
00000001
00001000
00000000
,
00000000
00000100
00010000
00000000
00000000
00001000
00100000
00000000
,
00000000
00010000
00000100
00000000
00000000
00000000
00000000
00000000
,
00001000
00000001
00000010
00000100
00000010
00000000
00001001
00000000
,
00000100
00010000
00001000
00100000
00010000
00000000
00011000
00000000
,
00100000
00010000
01000000
00001000
00010000
00000100
00001000
00000000
,
00000001
00001000
00000010
00000100
00000010
00000000
00001001
00000000
,
00000100
00000100
00000100
00000000
00000010
00001000
00000010
00000000
,
00001000
00001000
00001000
00000000
00000100
00010000
00000100
00000000
,
00010000
00010000
00010000
00000000
00001000
00100000
00001000
00000000
,
00100000
00100000
00100000
00000000
00010000
10000000
00010000
00000000
,
10000000
10000000
10000000
00000000
01000000
00100000
01000000
00000000
,
00100000
00100000
00100000
00000000
00001000
00010000
00001000
00000000
,
00010000
00010000
00010000
00000000
00000100
00001000
00000100
00000000
,
00000010
00000001
00000010
00000000
00000000
00000000
00000000
00000000
,
00000100
00010000
00001000
00100000
00010000
00000000
10010000
00000000
,
01000000
00001000
00010000
00000010
00001000
00000000
00001001
00000000
,
00000100
00010000
00001000
00100000
00010000
00000000
10010000
00000000
,
01000000
00001000
00010000
00000010
00001000
00000000
00001001
00000000
,
00000100
00000010
00001000
00000000
00000100
00010000
00001000
00000000
,
00100000
00010000
10000000
00000000
01000000
00100000
00010000
00000000
,
01000000
00001000
00010000
00000010
00010000
00001000
01000000
00000000
,
00011000
00011000
00010010
00010010
00011000
00011000
01001000
01001000
,
00011000
00000000
00000000
00000000
,
00001001
00000000
00010000
00001000
,
10010000
00000000
00000000
00000000
;

//---------------dance-double - ----------------
#NOTES:
     dance-double:
     :
     Hard:
     11:
     :
00000000
00000000
00000000
00000000
,
00000000
00000000
00000000
00000000
,
00000000
00000000
00000000
00000000
,
00100000
01000000
00010000
10000000
00000000
10000000
01000000
00100000
,
00000000
00001000
00010000
00001000
00010000
00000000
00000010
00000100
,
00000001
00000010
00001000
00000010
00000001
00000100
00000000
00000010
,
00001000
00000000
00000100
00001000
00000100
00010000
00000000
01000000
,
10000000
00010000
10000000
01000000
00000000
00100000
00100000
00010000
,
01000000
00010000
10000000
00010000
00000000
00100000
00001000
00000100
,
00000001
00000000
00000001
00001000
00000010
00000100
00000000
00000001
,
00000010
00000000
00000100
00000010
00000001
00000100
00000000
00001000
,
01000000
00100000
10000000
00010000
00000000
00100000
00100000
00001000
,
01000000
00100000
01000000
00010000
00000000
10000000
01000000
00010000
,
10010000
00000000
00100000
01000000
00010000
01000000
10000000
01000000
,
00010000
00000000
00100000
00001000
00010000
00000010
00000001
00000010
,
00001000
00000000
00000100
00000110
00000000
00000001
00000100
00002000
,
00000000
00003010
00001000
00000002
00000000
00000013
00000100
00010000
,
01000000
10000000
00010000
00000000
01000000
00100000
01000000
00020000
,
00000000
00230000
00000000
00310000
10000000
00100000
10000000
01000000
,
00100000
00000000
00001000
00000000
00000000
00000000
00010000
00001000
00010000
00000000
00000010
00000000
00000100
00000000
00000001
00000000
,
00000010
00000010
00000010
00000001
00001000
00000100
00000000
00000110
,
00000001
00000100
00001000
00001000
00000010
00001000
00000000
00001100
,
00001000
00000010
00001000
00010000
01000000
00100000
00001000
02000000
,
00000000
03100000
10000000
00020000
00000000
00130000
00010000
01000000
,
10000000
01000000
00010000
00100000
01100000
00000000
00011000
00001000
,
00010000
00000100
00000000
00000000
00000100
00000000
00000010
00000000
00000001
00000100
00000001
00000100
00000001
00000000
00001000
00000000
,
00000010
00000000
00001000
00000100
00001000
00000100
00000000
00000000
00000000
00000000
00010000
00000000
00001000
01000000
00001000
00000000
,
00100000
00000000
00010000
00000000
00100000
00000000
10000000
01000000
00000000
00000000
10000000
00000000
00010000
00000000
01000000
00000000
,
00010000
00100000
00020000
00000000
00000000
00000000
00031000
00000000
00000000
00000000
00000100
00000001
00000100
00000000
00000010
00000000
,
00010000
00000000
00010000
00000000
00010000
00000100
00000000
00000000
00000010
00000000
00000001
00000000
00000100
00000000
00000010
00001000
,
00000000
00000000
00000100
00000000
00000100
00000000
00010000
00000000
00001000
00100000
00000000
00000000
01100000
00000000
10000000
00010000
,
10000000
00000000
00100000
00000000
01000000
00000000
00010000
00000000
00100000
00001000
00000000
00000000
00011000
00000000
00000010
00000000
,
00001000
00000001
00001000
00000000
00000000
00000000
00000010
00000000
00000100
00000000
00000001
00000000
00000100
00000000
00000010
00000000
,
00001000
00000100
00001000
00000001
00000010
00001000
00000010
00000100
,
00000000
00010000
00001000
00200000
01000000
01300000
10000000
00010000
,
01000000
00100000
01000000
00001000
00010000
01000000
10000000
00100000
,
00000000
01000000
00010000
10000000
00000000
01000000
10000000
00010000
,
02010000
00000000
03100000
01000000
20100000
00000000
30010000
00000100
,
00000001
00000010
00000001
00001000
00000000
00000100
00000010
00001001
,
00000000
00010000
00000100
00000110
00000000
00011000
00000000
00110000
,
00010000
01000000
10000000
00100000
00000000
10000000
01000000
00010000
,
10000000
00010000
01000000
00100000
00000000
01000000
00010000
00001000
,
00000000
00000100
00000010
00000100
00000001
00001000
00000010
00000100
,
00000001
00000010
00000001
00000100
00000000
00000010
00020000
00002000
,
00000000
00000000
00000000
00000000
,
00000000
00033000
00000000
00000000
;

//---------------dance-double - ----------------
#NOTES:
     dance-double:
     :
     Challenge:
     13:
     :
00000000
00000000
00000000
00000000
,
00000000
00000000
00000000
00000000
,
00000000
00000000
00000000
00000000
,
00000010
00000100
00000001
00000101
00001000
00000100
00010000
00011000
,
00000000
01000000
01000000
00100000
00100000
10000000
00010000
01000000
,
00100000
10000000
01000000
00010000
01000000
10000000
00100000
01000000
,
00001000
00000000
00010010
00000010
00000100
00001000
00000100
00000001
,
00000010
00000000
00000100
00000000
00001000
00000010
00001000
00000000
00000000
00000000
00000001
00000000
00000001
00000000
00000100
00000000
,
00001010
00000000
00000010
00000000
00010000
00000000
00001000
00000000
01000000
00000000
00100000
00000000
10000000
00000000
00010000
01000000
,
00010000
00000000
10010000
00100000
10000000
01000000
10000000
00010000
,
01000000
00000000
00101000
00000100
00000001
00000010
00000001
00000100
,
00000010
00000000
00010000
00000000
00001000
01000000
00001000
00000000
00000000
00000000
00100000
01000000
00100000
00000000
00001000
00000000
,
00010000
00000000
00000100
00000000
00001000
00000000
00000001
00000000
00000000
00000000
00000010
00000000
00000001
00000000
00000100
00000010
,
00010000
00000000
00000000
00000000
00010100
00000000
00000100
00000000
00001000
00000000
00000010
00000000
00001000
00000000
00000001
00000010
,
00000100
00000000
00000000
00000000
00001100
00000000
00001000
00000000
00010000
00000000
00100000
00000000
10000000
00000000
01000000
00100000
,
00010000
00000000
10100000
01010000
00100000
00010000
01000000
10000000
,
00100000
10000000
01000000
00010000
00100000
00001000
00000100
00000001
,
00000010
00000001
00000100
00000000
00000010
00000000
00000010
00000000
00010000
00000000
00001000
00000000
00010000
00000000
00000100
00000000
,
00000010
00000100
00000001
00000100
00010000
00001000
01000000
00100000
,
10000000
01000000
00010000
00000000
01000000
00000000
00100000
00010000
00100000
00000000
00001000
00000000
00010000
00000000
00000100
00000000
,
00001001
00000110
00001001
00000010
00001000
00000100
00010000
00011000
,
01000000
00000000
00100000
00000000
00001000
00000000
00100000
00000000
10000000
01000000
10000000
00000000
00010000
00000000
00110000
00000000
,
10000000
00100000
00001000
00000001
00000010
00000001
00000100
00001000
,
00000100
00000000
00000001
00000010
00000001
00000000
00001000
00000000
00000100
00000000
00000010
00000000
00000100
00000000
00001000
00000000
,
00010000
00000000
00100000
10000000
01000000
00000000
00100000
00000000
00100010
00000000
00010000
00000000
00011000
00000000
01000000
00000000
,
00100000
10000000
00000000
00000000
01000000
10000000
00010000
01000000
00100000
00000000
10000000
00010000
10000000
00000000
01000000
00000000
,
00100000
00000000
00001000
00010000
00000010
00010000
00001000
00000000
00000000
00000000
00000100
00000001
00000100
00000010
00010000
00000000
,
00001000
00000000
00010000
00000010
00000100
00000000
00000001
00001000
00000000
00000000
00000100
00001000
00000001
00000000
00000100
00000000
,
00000010
00001000
02000000
00000000
00100000
00000000
03100000
00000000
00000000
00000000
00010000
10000000
00010000
00000000
01000000
00100000
,
10000000
00000000
01000000
10000000
00010000
00100000
00000000
00000000
00001000
00010000
00001000
00010000
00000010
00000100
00000001
00001000
,
00000000
00000000
00000100
00001000
00000001
00000000
00000010
00000001
00000010
00000100
00000000
00000000
00010100
00000000
00010000
00000010
,
00000100
00000001
00001000
00000000
01000000
00100000
01000000
00100000
00001000
00010000
00000000
00000000
00100000
00000000
10000000
01000000
,
00100000
00010000
02000000
00000000
00000000
00000000
03100000
10000000
00010000
00000000
01000000
00000000
01100000
00000000
10010000
00000000
,
01001000
00010000
00001000
00000100
00000001
00000010
00000001
00001000
,
00000100
00000000
00000010
00000000
00000001
00000000
00001000
00000010
00000100
00000000
00000001
00000000
00001001
00000000
00001000
00000000
,
00001000
00000100
00010000
00100000
10000000
00010000
10000000
01000000
,
00100000
00010000
01000000
00100000
10000000
01000000
11000000
00110000
,
01000000
00000000
00100000
00000000
00010000
00000000
00000100
00000000
00000001
00000010
00001000
00000000
00000010
00000000
00000100
00000000
,
00001000
00000000
00000001
00000100
00000001
00000000
00001000
00000000
00000010
00000000
00001010
00000000
00000110
00000000
00000101
00000000
,
00001000
00000000
00000100
00010000
00001000
00000000
01001000
00000000
00100000
00000000
11000000
00000000
00010000
00000000
01000000
00000000
,
01100000
00000000
01100000
00000000
10010000
00000000
10010000
00000000
00100000
00000000
11000000
00000000
00010000
01000000
10000000
01000000
,
00010000
00100000
00001000
00011000
00000010
00000100
00000001
00000011
,
00000000
00001000
00000100
00001000
00000001
00000100
00001000
00000001
,
00000100
00000010
00001000
00010000
00000000
01000000
20000000
00020000
,
00000000
00000000
00000000
00000000
,
00000000
30030000
00000000
00000000
;

//---------------dance-couple - ----------------
#NOTES:
     dance-couple:
     :
     Hard:
     6:
     :
00000000
00000000
00000000
00000000
,
00000000
00000000
00000000
00000000
,
00000000
00000000
00000000
00000000
,
00000000
00000000
00000000
00000000
,
00000000
00000000
00000000
00000000
,
10010000
01000010
01000000
01000010
,
00010000
00010010
01000000
01000010
,
00001001
00100100
00000100
00100100
,
00000001
00100001
00000100
00100100
,
10010000
01000010
01000000
01000010
,
10000000
10000010
01000000
01000010
,
00001001
00100100
00000100
00100100
,
00001000
00101000
00000100
00100100
,
10000000
10000000
10000001
00000000
01000000
00000000
01000000
00000000
,
00001000
00001000
10001000
00000000
00000100
00000000
00000100
00000000
,
00100000
00100000
00100001
00000000
00010000
00000000
00010000
00000000
,
00000010
00000010
10000010
00000000
00000001
00000000
00000001
00000000
,
10000001
00100000
10000000
00000000
00010001
00000000
01000000
00000000
,
10001000
00000010
00001000
00000000
10000001
00000000
00000100
00000000
,
00100010
10001000
01000100
00000000
00100010
00000000
00100010
00000000
,
00100010
00000000
00000000
00000000
,
10011001
00000000
00100010
01000100
00100010
01000100
00010001
00000000
,
10011001
00000000
01000100
00100010
01000100
00100010
00010001
00000000
,
10011001
00000000
01000100
00000000
10011001
00000000
00100010
01000100
,
10001000
00010001
01000100
00100010
10001000
00000000
10011001
00000000
,
01000000
00000100
00010000
00000001
,
00100000
00000010
10000000
00001000
,
00100000
00000010
01000000
00000100
,
00010000
00000001
10000000
00001000
,
01000000
00000100
00100000
00000010
,
00010000
00000001
10000000
00001000
,
00100010
10001000
00010001
01000100
,
00010001
00000000
00000000
00000000
,
00010001
01000100
00010001
10001000
00000000
10011001
00000000
01000100
,
00100010
00010001
01000100
00100010
00000000
10011001
00000000
01000100
,
00100010
00010001
00100010
00000000
10001000
01000100
10001000
00000000
,
00010001
01000100
10001000
01000100
,
00010000
00000000
01000000
01000000
00000000
00100000
00100000
00000000
,
00001000
00000000
00000100
00000100
00000000
00000010
00000010
00000000
,
10000000
10000000
10000000
00000000
00000001
00000001
00000001
00000000
,
01100000
00000110
01100000
00000110
,
10011001
00000000
00000000
00000000
00000000
01000010
00000000
01000010
,
01000010
00000000
00100100
01000010
,
10011001
00000000
00000000
00000000
;

//---------------dance-solo - ----------------
#NOTES:
     dance-solo:
     :
     Easy:
     2:
     :
000000
000000
000000
000000
,
000000
000000
000000
000000
,
000000
000000
000000
000000
,
000000
000000
000000
000000
,
000000
000000
000000
000000
,
000000
000000
000000
010000
,
000000
100000
000000
010000
,
000000
000001
000000
000010
,
000000
000001
000000
000010
,
000000
010000
000000
010000
,
000000
000010
000000
000010
,
000000
001000
000000
001000
,
000000
000100
000000
000100
,
000000
100000
100000
100000
,
000000
000001
000001
000001
,
000000
010000
010000
010000
,
000010
000010
000010
000100
,
000000
001000
001000
001000
,
000000
000100
000100
000100
,
000000
001000
001000
001000
,
010000
000000
000000
000000
,
100000
100000
010001
000000
,
000010
000010
100001
000000
,
010000
100010
000001
010010
,
001000
001000
100001
000000
,
000010
010000
000001
100000
,
000010
010000
000001
100000
,
001000
000100
001000
010000
,
001000
000010
001000
000100
,
000001
100000
000010
010000
,
000001
100000
000010
010000
,
001000
000100
000001
100000
,
001000
000000
000000
000000
,
000001
000001
000001
000000
,
010000
010000
010000
000000
,
000010
000010
000010
000000
,
100000
100000
100000
000000
,
001000
001000
001000
001000
,
000100
000100
000100
000100
,
001000
001000
001000
000001
,
010000
010000
010000
100000
,
001000
000000
000000
000000
,
000100
000000
000000
000000
,
001000
000000
000000
000000
;

//---------------dance-solo - ----------------
#NOTES:
     dance-solo:
     :
     Medium:
     3:
     :
000000
000000
000000
000000
,
000000
000000
000000
000000
,
000000
000000
000000
000000
,
000000
000000
000000
000000
,
000000
000000
000000
000000
,
100001
001000
001000
001000
,
000010
000010
001000
001000
,
100001
001000
001000
001000
,
010000
010000
001000
001000
,
100001
001000
001000
001000
,
000010
000010
001000
001000
,
100001
001000
001000
001000
,
010000
001000
010000
001000
,
000000
000100
000000
100001
,
000000
010000
000000
100010
,
000000
001000
000000
010001
,
000000
001000
000000
100010
,
000000
000100
000000
100001
,
000000
001000
000000
010001
,
000000
000100
000000
100001
,
000000
010010
000000
000000
,
000100
000100
000100
100001
,
001000
001000
001000
100010
,
000100
100001
001000
010001
,
000100
001000
000100
100001
,
001000
000010
000100
010000
,
001000
000001
000100
100000
,
000100
001000
000010
100000
,
000100
001000
000001
100000
,
001000
000100
000001
010000
,
001000
000100
000001
100000
,
000100
000010
010000
001000
,
000001
000000
000000
000000
,
000010
000100
001000
010000
,
100000
000100
001000
000010
,
000001
000100
001000
010000
,
100000
000100
001000
000010
,
100000
001000
000001
001000
,
010000
000100
000010
000100
,
100001
100001
100001
100001
,
001100
001100
001100
001100
,
100001
000000
000000
000000
,
010010
000000
000000
000000
,
001000
000000
000000
000000
;

//---------------dance-solo - ----------------
#NOTES:
     dance-solo:
     :
     Hard:
     6:
     :
000000
000000
000000
000000
,
000000
000000
000000
000000
,
000000
000000
000000
000000
,
000000
000000
000000
000000
,
000000
000000
000000
000000
,
100001
000000
000000
001000
010000
001000
000100
000000
,
100001
000000
000000
001000
000010
001000
000100
000000
,
100001
000000
000000
001000
010000
001000
000100
000000
,
000001
000000
001000
000000
000100
100000
001000
000000
,
010001
000000
000000
000010
001000
000001
000100
000000
,
010010
000000
000000
001000
000100
000001
001000
000000
,
100010
000000
000000
000100
001000
000010
000100
000000
,
001000
000000
010000
000000
000001
001000
000001
000000
,
100000
100000
100000
000000
001000
000000
001000
000000
,
010000
010000
010000
000000
000001
000000
000001
000000
,
001000
001000
001000
000000
000010
000000
000010
000000
,
100000
100000
100000
000000
000001
000000
000001
000000
,
000100
001000
000100
000000
000001
000000
100000
000000
,
001000
000100
001000
000000
100000
000000
000001
000000
,
001000
000100
100000
000000
000010
000000
000010
000000
,
000010
000000
000000
000000
,
010001
000000
000100
001000
000100
001000
000010
000000
,
100001
000000
001000
000100
001000
000100
000001
000000
,
010010
000000
001000
000000
100001
000000
000100
001000
,
100000
000001
001000
000100
100000
000000
010010
000000
,
001000
000100
001000
000100
000000
100000
000001
000000
,
001000
000100
001000
000100
000000
100000
000001
000000
,
000100
001000
010000
000001
000000
000001
010000
000000
,
000100
001000
000010
100000
000000
100000
000010
000000
,
000001
010000
000100
001000
000000
001000
000100
000000
,
100000
000001
001000
000010
000000
000010
001000
000000
,
000001
100000
001000
010000
000000
000001
010000
001000
,
000100
000000
000000
000000
,
000001
001000
000001
100000
000000
100001
000000
001000
,
000100
000001
001000
000010
000000
100001
000000
001000
,
000100
000001
000100
000000
010000
001000
010000
000000
,
000001
001000
100000
001000
,
000001
000000
001000
001000
000000
000010
000010
000000
,
100000
000000
001000
001000
000000
000100
000100
000000
,
000001
000001
000001
000000
010000
010000
010000
000000
,
001100
001100
001100
001100
100001
100001
100001
100001
,
100001
000000
000000
000000
000000
001000
000000
001000
,
001000
000000
010000
000001
,
000110
000000
000000
000000
;
