#TITLE:BYE BYE BABY BALLOON;
#SUBTITLE:;
#ARTIST:JOGA;
#TITLETRANSLIT:;
#SUBTITLETRANSLIT:;
#ARTISTTRANSLIT:;
#GENRE:;
#CREDIT:;
#BANNER:BYE BYE BABY BALLOON-bn.png;
#BACKGROUND:BYE BYE BABY BALLOON-bg.png;
#LYRICSPATH:;
#CDTITLE:;
#MUSIC:BYE BYE BABY BALLOON.ogg;
#OFFSET:0.000000;
#SAMPLESTART:44.680000;
#SAMPLELENGTH:20.000000;
#SELECTABLE:YES;
#DISPLAYBPM:145.000000;
#BPMS:0.000000=144.410004
,4.000000=145.000000
;
#STOPS:
;
#BGCHANGES:20.000=BYE BYE BABY BALLOON.mp4=1.000=1=0=0=StretchNoLoop==CrossFade==,
99999=-nosongbg-=1.000=0=0=0 // don't automatically add -songbackground-
;
#KEYSOUNDS:;
#ATTACKS:;

//---------------dance-single - ----------------
#NOTES:
     dance-single:
     :
     Beginner:
     2:
     0.074535,0.141306,0.000000,0.163045,0.000000,48.000000,48.000000,0.000000,15.000000,0.000000,0.000000,0.074535,0.141306,0.000000,0.163045,0.000000,48.000000,48.000000,0.000000,15.000000,0.000000,0.000000:
0000
0000
0000
0000
,
0000
0000
0000
0000
,
0000
0000
0000
0000
,
0000
0000
0000
0000
,
0000
0000
0000
0000
,
0000
0000
0000
0000
,
2000
0000
0000
0000
,
0000
0000
3000
0000
,
0002
0000
0000
0000
,
0000
0000
0003
0000
,
0100
0000
0000
0000
,
0100
0000
0000
0000
,
0200
0000
0000
0000
,
0000
0000
0300
0000
,
0010
0000
0000
0000
,
0010
0000
0000
0000
,
0020
0000
0000
0000
,
0000
0000
0030
0000
,
1000
0000
1000
0000
,
2000
0000
3000
0000
,
0001
0000
0001
0000
,
0002
0000
0003
0000
,
1000
0000
1000
0000
,
2000
0000
3000
0000
,
0001
0000
0001
0000
,
0002
0000
0003
0000
,
0100
0000
0000
0000
,
0010
0000
0000
0000
,
0100
0000
0000
0000
,
0020
0000
0030
0000
,
0000
0000
0000
0000
,
0100
0000
0000
0000
,
0010
0000
0000
0000
,
0200
0000
0300
0000
,
0000
0000
0000
0000
,
1000
1000
0000
0000
,
0001
0001
0000
0000
,
1000
1000
0000
0000
,
0002
0000
0003
0000
,
0001
0001
0000
0000
,
1000
1000
0000
0000
,
0001
0001
0000
0000
,
2000
0000
3000
0000
,
2000
0000
0000
0000
,
0000
0000
3000
0000
,
0002
0000
0000
0000
,
0000
0000
0003
0000
,
1000
0000
0000
0000
,
0001
0000
0000
0000
,
1000
0000
0000
0000
,
0001
0000
0000
0000
,
0200
0000
0000
0000
,
0300
0000
0000
0000
;

//---------------dance-single - ----------------
#NOTES:
     dance-single:
     :
     Easy:
     3:
     0.091616,0.141306,0.000000,0.260872,0.000000,59.000000,59.000000,0.000000,24.000000,0.000000,0.000000,0.091616,0.141306,0.000000,0.260872,0.000000,59.000000,59.000000,0.000000,24.000000,0.000000,0.000000:
0000
0000
0000
0000
,
0000
0000
0000
0000
,
0000
0000
0000
0000
,
0000
0000
0000
0000
,
0000
0000
0000
0000
,
0000
0000
0000
0000
,
2000
0000
3000
0000
,
2000
0000
3000
0000
,
0002
0000
0003
0000
,
0200
0000
0300
0000
,
0010
0000
0000
0000
,
1000
0000
0000
0000
,
0001
0000
0000
0000
,
1000
0000
0000
0000
,
0100
0000
0000
0000
,
0001
0000
0000
0000
,
1000
0000
0000
0000
,
0001
0000
0000
0000
,
0020
0000
0030
0000
,
0200
0000
0300
0000
,
0020
0000
0030
0000
,
0100
0000
0010
0000
,
0002
0000
0003
0000
,
2000
0000
3000
0000
,
0020
0000
0030
0000
,
0100
0000
0001
0000
,
1000
0000
0000
0000
,
0100
0000
0100
0000
,
0010
0000
0010
0000
,
0001
0000
0001
0000
,
1000
0000
0100
0000
,
0001
0000
0001
0000
,
0100
0000
0100
0000
,
0010
0000
0010
0000
,
1000
0000
0100
0000
,
0020
0000
0030
0000
,
0002
0000
0003
0000
,
2000
0000
3000
0000
,
0010
0000
0100
0000
,
0002
0000
0003
0000
,
2000
0000
3000
0000
,
0200
0000
0300
0000
,
0010
0000
0001
0000
,
2000
0000
3000
0000
,
2000
0000
3000
0000
,
0002
0000
0003
0000
,
0002
0000
0003
0000
,
0020
0000
0030
0000
,
0020
0000
0030
0000
,
0200
0000
0300
0000
,
0010
0000
0001
0000
,
2000
0000
0000
0000
,
3000
0000
0000
0000
,
0000
0000
0000
0000
;

//---------------dance-single - ----------------
#NOTES:
     dance-single:
     :
     Medium:
     9:
     0.374228,0.452179,0.260872,0.108697,0.032609,241.000000,217.000000,24.000000,10.000000,0.000000,0.000000,0.374228,0.452179,0.260872,0.108697,0.032609,241.000000,217.000000,24.000000,10.000000,0.000000,0.000000:
0000
0000
0000
0000
,
0000
0000
0000
0000
,
0000
0000
0000
0000
,
0000
0000
0000
0000
,
0020
0000
0000
0030
,
0200
0300
0020
0030
,
1000
0000
0001
0000
1000
0000
0001
0100
,
0001
0000
1000
0000
0001
0000
1000
0100
,
1000
0000
0001
0000
1000
0000
0001
0010
,
0100
1001
0100
1001
,
0100
0010
0001
0100
,
0010
1000
0100
1001
,
0100
0010
1000
0001
,
0010
0000
0110
0000
0001
0100
0001
0100
,
0010
1000
0001
0010
,
0100
0000
1000
0000
0100
0000
0010
0100
,
0010
0001
1000
0010
,
0100
0000
1001
0000
0100
1000
0100
0010
,
0001
0000
0000
0001
1000
0000
0000
0000
0100
0000
0010
0000
0001
0000
0000
0000
,
1000
0000
0000
1000
0001
0000
0000
0000
0100
0000
0010
0000
1000
0000
0000
0000
,
0001
0000
0000
0001
1000
0000
0000
0000
0100
0000
0010
0000
0001
0000
1000
0000
,
0000
0010
0000
0100
0000
0001
1000
0000
,
0100
0000
0000
0100
0010
0000
0000
0000
0001
0000
0100
0000
0010
0000
0000
0000
,
1000
0000
0000
1000
0100
0000
0000
0000
0010
0000
0001
0000
0100
0000
0000
0000
,
0010
0000
0000
0010
1000
0000
0000
0000
0001
0000
0010
0000
0100
0000
1000
0000
,
0000
0001
0000
1000
0000
0010
0100
0000
,
0000
0000
0000
0000
,
1001
0000
0100
0000
0010
0001
0100
0010
,
0100
0000
1001
0000
0100
0010
0001
1000
,
0100
0000
1001
0000
0100
0010
1000
0100
,
0010
1001
0100
1001
,
1000
0000
1100
0000
0001
0010
0100
1000
,
0001
0000
0101
0000
0010
1000
0100
0010
,
0001
0000
0101
0000
0010
1000
0001
0010
,
0100
1001
0010
0000
,
0100
0000
1001
0000
0100
0010
0001
0100
,
0010
0000
1001
0000
0100
1000
0001
0100
,
0010
0000
1001
0000
0100
0010
0001
0100
,
0010
1100
0010
0101
,
1000
0000
1100
0000
0001
0100
0010
1000
,
0001
0000
0011
0000
0100
1000
0010
0100
,
0001
0000
0011
0000
0100
1000
0001
0100
,
0010
1001
0100
0010
,
0002
0000
0000
0003
,
2000
0000
0000
3000
,
0020
0000
0000
0030
,
0200
0300
0002
0003
,
1000
0000
0100
0000
0001
0000
0100
0010
,
1000
0000
0100
0000
0010
0000
0001
1000
,
0010
0000
0100
0000
0010
0000
1000
0001
,
0010
0100
1000
0001
,
0220
0000
0000
0000
,
0330
0000
0000
0000
;

//---------------dance-single - ----------------
#NOTES:
     dance-single:
     :
     Hard:
     12:
     0.500005,0.565224,0.010870,0.282612,0.293481,322.000000,321.000000,1.000000,26.000000,0.000000,0.000000,0.500005,0.565224,0.010870,0.282612,0.293481,322.000000,321.000000,1.000000,26.000000,0.000000,0.000000:
0000
0000
0000
0000
,
0000
0000
0000
0000
,
0000
0000
0000
0000
,
0000
0000
0000
0000
,
0000
0000
0000
0000
,
0000
0000
0000
0000
,
1000
0000
0100
0000
0001
0000
0100
0000
1000
0000
0010
0100
0000
0100
0001
0000
,
1000
0000
0100
0000
0010
0000
0001
0000
0100
0000
0010
1000
0000
1000
0100
0000
,
0010
0000
0001
0000
1000
0000
0100
0000
0010
0000
0001
0100
0000
0100
0010
0000
,
1000
0100
1000
0001
1000
0100
1000
0001
,
0100
0000
0010
0000
1000
0000
0100
0000
0010
0000
0001
0100
0001
0000
1000
0000
,
0100
0000
0010
0000
0001
0000
0100
0000
0010
0000
1000
0100
1000
0000
0001
0000
,
0100
0000
0010
0000
1000
0000
0100
0000
0010
0000
0001
1000
0001
0000
0100
0000
,
0010
0000
1000
0100
1000
0000
0001
0000
0010
0000
0100
1000
0100
0000
0010
0000
,
0001
0000
0100
0000
0010
0000
1000
0000
0100
0000
0010
0001
0010
0000
0100
0000
,
1000
0000
0001
0000
0100
0000
0010
0000
1000
0000
0100
0010
0100
0000
1000
0000
,
0001
0000
0100
0000
0010
0000
1000
0000
0001
0000
0010
0100
0010
0000
0001
0000
,
1000
0010
0100
0001
1000
0100
0100
0100
,
0020
0000
0030
0001
1000
0000
0000
0000
0010
0000
0100
0000
0001
0000
1000
0000
,
0200
0000
0300
1000
0001
0000
0000
0000
0100
0000
0010
0000
1000
0000
0001
0000
,
0020
0000
0030
0001
1000
0000
0000
0000
0010
0000
0100
0000
0001
0000
0010
0000
,
0000
0100
0000
1000
0000
0001
0100
0000
,
0020
0000
0030
1000
0100
0000
0000
0000
0010
0000
0001
0000
0100
0000
0010
0000
,
2000
0000
3000
0001
0100
0000
0000
0000
0010
0000
1000
0000
0001
0000
0010
0000
,
0200
0000
0300
1000
0001
0000
0000
0000
0100
0000
0010
0000
1000
0000
0100
0000
,
0000
0010
0000
0001
0000
1000
0100
0000
,
0000
0000
0000
0000
,
0010
0001
0000
0000
0100
0010
0000
0000
1000
0000
0100
0000
0010
0000
0002
0000
,
0000
0000
0003
0000
1000
0100
0000
0000
0010
0000
0001
0000
0100
0000
0020
0000
,
0000
0000
0030
0000
1000
0001
0000
0000
0100
0000
0010
0000
1000
0000
0200
0000
,
0000
0000
0300
0000
0010
0001
0000
0000
0100
0000
0010
0000
1000
0000
0001
0000
,
0010
0100
0000
0000
1000
0010
0000
0000
0100
0000
0001
0000
1000
0000
0200
0000
,
0000
0000
0300
0000
0010
0001
0000
0000
0100
0000
0010
0000
1000
0000
0002
0000
,
0000
0000
0003
0000
0010
0100
0000
0000
1000
0000
0010
0000
0100
0000
0002
0000
,
0000
0003
1000
0100
0010
0001
0100
0010
,
1000
0100
0000
0000
0001
0100
0000
0000
0010
0000
1000
0000
0001
0000
0020
0000
,
0000
0000
0030
0000
0100
1000
0000
0000
0001
0000
0100
0000
0010
0000
2000
0000
,
0000
0000
3000
0000
0100
0010
0000
0000
0001
0000
1000
0000
0010
0000
0200
0000
,
0000
0000
0300
0000
0001
1000
0000
0000
0100
0000
0010
0000
0001
0000
0100
0000
,
0010
1000
0000
0000
0100
0010
0000
0000
0001
0000
0100
0000
0010
0000
2000
0000
,
0000
0000
3000
0000
0100
0010
0000
0000
0001
0000
1000
0000
0100
0000
0020
0000
,
0000
0000
0030
0000
0001
0100
0000
0000
0010
0000
1000
0000
0001
0000
0020
0000
,
0000
0030
0100
1000
0001
0100
0010
0000
,
1000
0100
0000
1000
0100
0000
0020
0000
0030
0000
0001
0000
0100
0000
0010
0000
,
1000
0001
0000
1000
0001
0000
0020
0000
0030
0000
0100
0000
1000
0000
0010
0000
,
0100
0001
0000
0100
0001
0000
0020
0000
0030
0000
0100
0000
1000
0000
0001
0000
,
0100
0000
0000
0010
0000
0000
1000
0000
0100
0000
0000
0010
0000
0000
0001
0000
,
0100
0010
0000
0010
0100
0000
0002
0000
0003
0000
0010
0000
0100
0000
1000
0000
,
0001
0100
0000
0100
0010
0000
2000
0000
3000
0000
0100
0000
0010
0000
0001
0000
,
0100
0010
0000
0010
1000
0000
0002
0000
0003
0000
0010
0000
0100
0000
1000
0000
,
0001
0000
0000
0100
0000
0000
0010
0000
1000
0000
0000
0100
0000
0000
0010
0000
,
2002
0000
0000
0000
,
3003
0000
0000
0000
,
0000
0000
0000
0000
;

//---------------dance-double - ----------------
#NOTES:
     dance-double:
     :
     Easy:
     3:
     0.091616,0.141306,0.000000,0.141306,0.000000,59.000000,59.000000,0.000000,13.000000,0.000000,0.000000,0.091616,0.141306,0.000000,0.141306,0.000000,59.000000,59.000000,0.000000,13.000000,0.000000,0.000000:
00000000
00000000
00000000
00000000
,
00000000
00000000
00000000
00000000
,
00000000
00000000
00000000
00000000
,
00000000
00000000
00000000
00000000
,
00000000
00000000
00000000
00000000
,
00000000
00000000
00000000
00000000
,
10000000
00000000
00000000
00000000
,
00010000
00000000
00000000
00000000
,
00001000
00000000
00000000
00000000
,
00000001
00000000
00000100
00001000
,
00010000
00000000
00000000
00000000
,
01000000
00000000
00000000
00000000
,
10000000
00000000
00000000
00000000
,
00100000
00000000
01000000
00000000
,
00001000
00000000
00000000
00000000
,
00000010
00000000
00000000
00000000
,
00000001
00000000
00000000
00000000
,
00000100
00000000
00001000
00000000
,
00010000
00000000
01000000
00000000
,
10000000
00000000
00000000
00000000
,
00100000
00000000
00010000
00000000
,
00001000
00000000
00000000
00000000
,
00000010
00000000
00000001
00000000
,
00000100
00000000
00000000
00000000
,
00000010
00000000
00001000
00000000
,
00000100
00000000
00000000
00000000
,
00000000
00000000
00000000
00000000
,
00020000
00000000
00030000
00000000
,
00002000
00000000
00003000
00000000
,
00000020
00000000
00000030
00000000
,
00000100
00000000
00001000
00000000
,
00000020
00000000
00000030
00000000
,
00000200
00000000
00000300
00000000
,
00002000
00000000
00003000
00000000
,
00010000
00000000
00000100
00000000
,
00020000
00000000
00030000
00000000
,
00000200
00000000
00000300
00000000
,
00002000
00000000
00003000
00000000
,
00000010
00000000
00000100
00000000
,
00020000
00000000
00030000
00000000
,
02000000
00000000
03000000
00000000
,
00002000
00000000
00003000
00000000
,
00010000
00000000
01000000
00000000
,
10000000
00000000
00000000
00000000
,
00010000
00000000
00000000
00000000
,
01000000
00000000
00000000
00000000
,
00001000
00000000
00010000
00000000
,
00000100
00000000
00000000
00000000
,
00000001
00000000
00000000
00000000
,
00000010
00000000
00000000
00000000
,
00001000
00000000
00000100
00000000
,
00020000
00000000
00000000
00000000
,
00030000
00000000
00000000
00000000
,
00000000
00000000
00000000
00000000
;

//---------------dance-double - ----------------
#NOTES:
     dance-double:
     :
     Medium:
     6:
     0.287270,0.310873,0.010870,0.076088,0.000000,185.000000,184.000000,1.000000,7.000000,0.000000,0.000000,0.287270,0.310873,0.010870,0.076088,0.000000,185.000000,184.000000,1.000000,7.000000,0.000000,0.000000:
00000000
00000000
00000000
00000000
,
00000000
00000000
00000000
00000000
,
00000000
00000000
00000000
00000000
,
00000000
00000000
00000000
00000000
,
00000000
00000000
00000000
00000000
,
00000000
00000000
00000000
00000000
,
00010000
00000000
00001000
00000000
00010000
00001000
00100000
00000000
,
00010000
00000000
00001000
00000000
00010000
00001000
01000000
00000000
,
00010000
00000000
00001000
00000000
00010000
00001000
00100000
00000000
,
00010000
00000100
00001000
00100000
,
00010000
00001000
00010000
00000010
,
00001000
00000100
00001000
00000010
,
00000100
00000001
00000100
00000010
,
00001000
00000100
00010000
00000010
,
00001000
00010000
00001000
00100000
,
00010000
01000000
00010000
00100000
,
01000000
10000000
01000000
00100000
,
00010000
10000000
00100000
01000000
,
00020000
10000000
10000000
10030000
,
02000000
00100000
00100000
03100000
,
00020000
01000000
01000000
01030000
,
00001000
00010000
00100000
00010000
,
02000000
00001000
00001000
03001000
,
00020000
00000010
00000010
00030010
,
00001000
00000100
00000010
00000001
,
00000100
00000000
00000100
00000000
00000010
00000000
00000010
00000100
,
00000000
00000000
00000000
00000000
,
00000001
00001000
00000100
00010000
,
00000001
00001000
00000100
00010000
,
00000001
00001000
00000100
00010000
,
00100000
00010000
00001000
00000010
,
00000001
00001000
00000100
00010000
,
00000001
00001000
00000100
00010000
,
00000001
00001000
00000100
00010000
,
00100000
10000000
01000000
00000000
,
00010000
00001000
00000100
00000001
,
00010000
00001000
00000100
00000001
,
00010000
00001000
00000100
00000001
,
00000010
00001000
00000001
00000100
,
00001000
00010000
01000000
10000000
,
00001000
00010000
01000000
10000000
,
00001000
00010000
01000000
10000000
,
00100000
00010000
10000000
01000000
,
00100000
00000000
00100000
00000000
00100000
00000000
00001000
00010000
,
00000100
00000000
00000100
00000000
00000100
00000000
00001000
00000010
,
00000100
00000100
00000100
00000100
,
00000001
00000001
00001000
00001000
,
00000100
00000000
00000100
00000000
00000100
00000000
00010000
00001000
,
00100000
00000000
00100000
00000000
00100000
00000000
00010000
01000000
,
00100000
00100000
00100000
00100000
,
00010000
00010000
00001000
00001000
,
00000220
00000000
00000000
00000000
,
00000330
00000000
00000000
00000000
,
00000000
00000000
00000000
00000000
;

//---------------dance-double - ----------------
#NOTES:
     dance-double:
     :
     Hard:
     12:
     0.515534,0.508701,0.260872,0.010870,0.206524,332.000000,308.000000,24.000000,1.000000,0.000000,0.000000,0.515534,0.508701,0.260872,0.010870,0.206524,332.000000,308.000000,24.000000,1.000000,0.000000,0.000000:
00000000
00000000
00000000
00000000
,
00000000
00000000
00000000
00000000
,
00000000
00000000
00000000
00000000
,
00000000
00000000
00000000
00000000
,
00000000
00000000
00000000
00000000
,
00000000
00000000
00000000
00000000
,
10000000
01000000
00100000
00010000
01000000
00001000
01000000
00010000
,
00100000
00001000
00010000
00000100
00001000
00000001
00001000
00000100
,
00010000
00001000
00000010
00000001
00000100
00001000
00000100
00000001
,
00001000
00000000
00000000
00000100
00000000
00000000
00000010
00000000
00000001
00000000
00000000
00000100
00000000
00000000
00000010
00000000
,
00001000
00000000
00000100
00000000
00001000
00000000
00000010
00000000
00000100
00000000
00001000
00010000
00001000
00000000
00000000
00000000
,
00100000
00000000
01000000
00000000
00100000
00000000
00010000
00000000
01000000
00000000
00100000
10000000
00100000
00000000
00000000
00000000
,
01000000
00000000
00010000
00000000
01000000
00000000
00100000
00000000
10000000
00000000
00010000
01000000
00010000
00000000
00000000
00000000
,
00100000
00001000
00010000
00000000
00000010
00000001
00000010
00001000
,
00000100
00000000
00010000
00000000
00000100
00000000
00001000
00000000
00000001
00000000
00000100
00000010
00000100
00000000
00000000
00000000
,
00000001
00000000
00001000
00000000
00000001
00000000
00000010
00000000
00000100
00000000
00010000
00001000
00010000
00000000
00000000
00000000
,
01000000
00000000
10000000
00000000
00010000
00000000
01000000
00000000
00100000
00000000
00010000
00001000
00010000
00000000
00000000
00000000
,
00000010
00000100
00000001
00000000
00000010
00000100
00001000
00000010
,
00000100
00000000
00010000
00000000
00000100
00000000
00000001
00000000
00000010
00000000
00000100
00001000
00000000
00000000
00000100
00000000
,
00010000
00000000
00001000
00000000
00100000
00000000
00010000
00000000
01000000
00000000
00100000
10000000
00000000
00000000
00010000
00000000
,
00100000
00000000
01000000
00000000
00010000
00000000
01000000
00000000
10000000
00000000
00100000
01000000
00010000
00000000
00000000
00000000
,
00100000
00001000
00000000
00010000
00000000
00000010
00000100
00000001
,
00000010
00000000
00000100
00000000
00001000
00000000
00000100
00000000
00000010
00000000
00000001
00000100
00000000
00000000
00000010
00000000
,
00001000
00000000
00000100
00000000
00010000
00000000
00001000
00000000
00100000
00000000
00010000
01000000
00000000
00000000
00001000
00000000
,
00010000
00000000
01000000
00000000
10000000
00000000
00100000
00000000
01000000
00000000
00001000
00010000
00000000
00000000
00000100
00000000
,
00001000
00000010
00000000
00000010
00000000
00000100
00000001
00000000
,
00000100
00001000
00010000
01000000
,
00101000
00000000
00010010
00000000
00001000
00010000
00000100
00000000
,
00101000
00000000
00010010
00000000
00001000
00010000
00000100
00000000
,
00101000
00000000
00010010
00000000
00001000
00010000
00000100
00001000
,
00000001
00000100
00000000
00000000
00000010
00001000
00000000
00000000
00000100
00000000
00000001
00000000
00000100
00000000
00000000
00000000
,
00001001
00000000
00011000
00000000
00100000
10000000
01000000
00000000
,
10010000
00000000
00011000
00000000
00000010
00000001
00000100
00000000
,
00001001
00000000
00011000
00000000
00100000
10000000
01000000
00100000
,
00010000
01000000
00000000
00000000
00100000
00010000
00000000
00000000
00001000
00000000
00000010
00000000
00000001
00000000
00000000
00000000
,
00010100
00000000
00101000
00000000
01000000
10000000
00010000
00000000
,
01001000
00000000
00010010
00000000
00000100
00000001
00001000
00000000
,
00010100
00000000
00101000
00000000
01000000
10000000
00010000
01000000
,
00001000
00010000
00000000
00000000
01000000
10000000
00000000
00000000
00100000
00000000
00010000
00000000
00001000
00000000
00000000
00000000
,
00001001
00000000
00000110
00000000
00010000
00001000
00100000
00000000
,
10010000
00000000
01100000
00000000
00001000
00010000
00000010
00000000
,
00001001
00000000
00000110
00000000
00010000
00001000
00100000
01000000
,
10000000
00100000
00000000
00000000
01000000
00010000
00000000
00000000
00001000
00000000
00000100
00000000
00000001
00000000
00000000
00000000
,
00000010
00000100
00000000
00001000
00000010
00000000
00000100
00000000
00001000
00000000
00010000
00000000
01000000
00000000
00000000
00000000
,
10000000
00100000
00000000
01000000
00010000
00000000
00100000
00000000
01000000
00000000
00010000
00000000
00001000
00000000
00000000
00000000
,
00000100
00000001
00000000
00000010
00000100
00000000
00001000
00000000
00000010
00000000
00000100
00000000
00001000
00000000
00000000
00000000
,
00010000
00000000
00000000
01000000
00000000
00000000
10000000
00000000
00100000
00000000
00000000
01000000
00000000
00000000
00010000
00000000
,
00100000
01000000
00000000
10000000
00100000
00000000
01000000
00000000
00001000
00000000
00010000
00000000
00000100
00000000
00000000
00000000
,
00000010
00000001
00000000
00000100
00000010
00000000
00001000
00000000
00000100
00000000
00000010
00000000
00000001
00000000
00000000
00000000
,
00000100
00001000
00000000
00010000
01000000
00000000
10000000
00000000
00010000
00000000
01000000
00000000
00100000
00000000
00000000
00000000
,
10000000
00000000
00000000
01000000
00000000
00000000
00010000
00000000
00001000
00000000
00000000
00000100
00000000
00000000
00000001
00000000
,
00002000
00000000
00000000
00000000
,
00003000
00000000
00000000
00000000
,
00000000
00000000
00000000
00000000
;

//---------------dance-single - ----------------
#NOTES:
     dance-single:
     :
     Challenge:
     15:
     0.729822,0.806530,0.260872,0.065218,0.619572,470.000000,446.000000,24.000000,6.000000,0.000000,0.000000,0.729822,0.806530,0.260872,0.065218,0.619572,470.000000,446.000000,24.000000,6.000000,0.000000,0.000000:
// measure 0
0000
0000
0000
0000
,  // measure 1
0000
0000
0000
0000
,  // measure 2
0000
0000
0000
0000
,  // measure 3
0000
0000
0000
0000
,  // measure 4
0000
0000
0000
0000
,  // measure 5
0000
0000
0000
0000
,  // measure 6
0001
0000
0010
0100
0000
0100
1000
0000
0010
1000
0000
1000
0001
0000
0100
0000
,  // measure 7
0001
0000
1000
0100
0000
0100
0010
0000
0001
1000
0000
1000
0010
0000
0100
0000
,  // measure 8
0010
0000
0100
0001
0000
0001
1000
0000
0100
0010
0000
0010
0001
0000
1000
0000
,  // measure 9
0001
0000
0100
0010
0000
0100
0010
0000
1000
0000
0100
0010
0000
0100
0010
0000
,  // measure 10
1001
0010
1000
0100
1000
0010
0001
0100
,  // measure 11
0001
0010
1000
0001
0100
0010
1000
0100
,  // measure 12
0010
0001
0100
0010
0100
0001
1000
0100
,  // measure 13
0010
1000
0010
0001
0010
0100
1000
0001
,  // measure 14
0110
1000
0010
0100
0010
1000
0100
0001
,  // measure 15
0100
1000
0010
0100
0001
0010
1000
0001
,  // measure 16
0100
0001
0010
0100
1000
0010
0100
0001
,  // measure 17
0010
0000
0100
0000
1000
0010
1000
0010
0100
0001
0100
0001
0010
0000
0000
0000
,  // measure 18
0100
1000
0010
1000
0002
0000
0000
0000
0013
0000
0001
0000
0100
0000
1000
0000
,  // measure 19
0110
0000
0001
0010
0002
0000
0000
0000
1003
0000
0010
0000
0100
0000
0001
0000
,  // measure 20
1010
0000
0100
0001
1000
0000
0010
1000
0100
0000
0010
0000
0001
0000
1000
0000
,  // measure 21
1010
0101
0000
0011
0000
1100
0101
0000
,  // measure 22
1001
0000
0010
0001
0200
0000
0000
0000
0310
0000
1000
0000
0100
0000
0001
0000
,  // measure 23
0110
0000
0000
0000
0001
0010
0001
0100
0010
0000
1000
0000
0100
0000
0001
0000
,  // measure 24
0011
0000
0000
0000
0100
0000
1000
0001
0100
0000
0010
1000
0001
0000
0100
0000
,  // measure 25
0110
0000
1001
0000
0001
0010
0001
0010
0100
1000
0100
1000
0010
0100
0001
1000
,  // measure 26
0200
0001
1000
0000
,  // measure 27
0310
0000
0001
0000
0100
0000
0001
0000
1000
0010
0100
0010
1000
0000
0001
0000
,  // measure 28
0100
0000
1000
0000
0100
0000
0001
0000
0100
0010
1000
0001
0010
0000
0100
0000
,  // measure 29
1000
0000
0010
0000
0100
0000
0001
0000
0010
0100
1000
0001
1000
0000
0100
0000
,  // measure 30
0010
0000
1000
0000
0010
0000
0001
0000
0100
0010
0100
0001
1000
0000
0010
0000
,  // measure 31
0110
0000
0100
0001
1000
0000
0100
0010
0001
0000
1000
0000
0001
0000
0010
0000
,  // measure 32
1100
0000
0000
0000
1000
0010
0100
0010
1000
0000
0001
0010
0100
0000
1000
0000
,  // measure 33
0101
0000
0010
0000
1000
0000
0100
1000
0001
0000
0010
0001
0100
0000
0010
0000
,  // measure 34
1010
0000
1000
0001
0100
0000
0001
0000
0010
0100
0010
0100
1000
0001
0100
0010
,  // measure 35
0100
0000
0001
1000
0001
0000
0010
0100
1000
0000
0010
0000
0100
0000
0001
0000
,  // measure 36
1000
0000
0100
0010
0001
0000
1000
0010
1000
0000
0001
0000
0100
0000
0010
0000
,  // measure 37
1000
0000
0001
0010
0100
0000
0010
0001
1000
0000
0010
0000
1000
0000
0100
0000
,  // measure 38
0010
0000
0001
0100
0001
0000
1000
0010
1000
0100
0010
0001
0100
0000
0010
0000
,  // measure 39
1001
0000
0010
1000
0001
0000
0010
0001
0100
0010
0100
0001
1000
0000
0100
0000
,  // measure 40
0011
0000
0010
0001
1000
0000
0001
0100
0010
1000
0100
0010
0001
0000
1000
0100
,  // measure 41
1000
0000
0001
0010
0100
0000
1000
0001
1000
0000
0010
0000
0100
0000
0001
0000
,  // measure 42
0010
0001
0010
0100
1000
0000
0001
0000
0100
0010
1000
0001
0010
0000
0100
0000
,  // measure 43
1001
0000
0010
1000
0000
0010
0100
0000
0001
0010
0000
0100
1000
0000
0001
0000
,  // measure 44
0100
0000
0001
1000
0000
0100
0010
0000
0100
1000
0000
0001
0100
0000
0101
0000
,  // measure 45
1100
0000
0010
0001
0000
0100
0010
0000
1000
0001
0000
1000
0100
0000
0010
0000
,  // measure 46
0001
0000
0100
0010
0000
0100
0001
0000
1000
0000
0100
0010
0000
0100
1000
0001
,  // measure 47
0100
0000
0001
1000
0010
1000
0100
0000
0010
0001
0010
0100
1000
0000
0001
0000
,  // measure 48
0100
0000
0001
1000
0010
1000
0100
0000
0010
0001
0100
0001
1000
0000
0010
0000
,  // measure 49
0100
0000
0001
1000
0010
1000
0100
0000
0010
0001
0100
0001
1000
0000
0010
0000
,  // measure 50
0100
0001
1000
0001
0010
0000
0100
0000
1000
0001
0100
0010
1000
0000
0001
0000
,  // measure 51
0220
0000
0300
0001
,  // measure 52
1000
0000
0000
0000
,  // measure 53
0030
0000
0000
0000
;
