#TITLE:BURNIN' THE FLOOR (MOMO MIX);
#ARTIST:NAOKI;
#BANNER:BURNIN' THE FLOOR (MOMO MIX)-bn.png;
#BACKGROUND:BURNIN' THE FLOOR (MOMO MIX)-bg.png;
#JACKET:BURNIN' THE FLOOR (MOMO MIX)-jacket.png;
#DISCIMAGE:;
#MUSIC:BURNIN' THE FLOOR (MOMO MIX).ogg;
#SAMPLESTART:52.229;
#SAMPLELENGTH:20;
#DISPLAYBPM:170:340;
#BPMS:0=169.972,40=340.426,56=170.001;
#BGCHANGES:0=BURNIN' THE FLOOR (MOMO MIX).mp4=1=0=0=0,
;

//---------------dance-single - ----------------
#NOTES:
     dance-single:
     :
     Beginner:
     5:
     :
0000
0000
0000
0000
,
0000
0000
0000
0000
,
0000
0000
0000
0000
,
0000
0000
0000
0000
,
0000
0000
0000
0000
,
0000
0000
0000
0000
,
0001
0000
0100
0000
,
1000
0000
0100
0000
,
1001
0000
1001
0000
,
1001
0000
0100
0000
,
0100
0000
0000
0000
,
0000
0000
0000
0000
,
0000
0000
0000
0000
,
0000
0000
0000
0000
,
1000
0000
1000
0000
,
0001
0000
0001
0000
,
0010
0000
0010
0000
,
0100
0000
0100
0000
,
0001
0000
0001
0000
,
0100
0000
0100
0000
,
1000
0000
1000
0000
,
0010
0000
0010
0000
,
1001
0000
0000
0000
,
1000
0000
1000
0000
,
0001
0000
0100
0000
,
0001
0000
0001
0000
,
1000
0000
0100
0000
,
0010
0000
0100
0000
,
0010
0000
0100
0000
,
0001
0000
1000
0000
,
0001
0000
1000
0000
,
0010
0000
0000
0000
,
1000
1000
0000
0000
,
0010
0000
0000
0000
,
0001
0001
0000
0000
,
0110
0000
0000
0000
,
1001
0000
0000
0000
,
0110
0000
0000
0000
,
0100
0100
0000
0000
,
0010
0000
1000
0000
,
0010
0000
0010
0000
,
0001
0001
0000
0000
,
0100
0000
0100
0000
,
0010
0000
0001
0000
,
0010
0000
0010
0000
,
1000
1000
0000
0000
,
1001
0000
0000
0000
,
0010
0000
0010
0000
,
1000
0000
0001
0000
,
0100
0000
0100
0000
,
0001
0000
1000
0000
,
0010
0000
0100
0000
,
0001
0000
1000
0000
,
0100
0000
0010
0000
,
1000
0000
0001
0000
,
1000
0000
1000
0000
,
0001
0000
0001
0000
,
0100
0000
0100
0000
,
1000
0000
0001
0000
,
0010
0000
0001
0000
,
0010
0000
1000
0000
,
0100
0000
0010
0000
,
0100
0000
1001
0000
,
0010
0010
0000
0000
,
1000
0000
1000
0000
,
0100
0100
0000
0000
,
0001
0000
0001
0000
,
1001
0000
0000
0000
,
0110
0000
0000
0000
,
1000
0000
0000
0001
,
0000
0000
1000
0000
;

//---------------dance-single - ----------------
#NOTES:
     dance-single:
     :
     Easy:
     6:
     :
0000
0000
0000
0000
,
0000
0000
0000
0000
,
0000
0000
0000
0000
,
0000
0000
0000
0000
,
0000
0000
0000
0000
,
0000
0000
0000
0000
,
1000
0100
0010
0001
,
1000
0100
1000
0100
,
0010
1000
0100
0010
,
0001
0100
0010
1000
,
0100
0000
0000
0000
,
0000
0000
0000
0000
,
0000
0000
0000
0000
,
0000
0000
0010
0000
,
0001
0001
0100
1000
,
1000
0000
1001
0000
,
0010
0010
1000
0001
,
0100
0000
0110
0000
,
1000
1000
0001
0100
,
0010
0000
1001
0000
,
0100
0100
0010
1000
,
0001
0000
0110
0000
,
0200
0000
0300
0000
,
0001
0001
1000
0100
,
0010
1000
0001
0100
,
0001
0000
1000
0000
,
0100
0010
0110
0000
,
1000
1000
0001
0001
,
0100
0010
0100
0001
,
0100
0100
0010
0010
,
1000
0001
1001
0000
,
0010
0000
0010
0000
,
0001
1000
0100
0000
,
1000
0000
1000
0000
,
0010
0100
0001
0000
,
1001
0000
0100
0100
,
0110
0000
0001
0001
,
1001
0000
0010
0010
,
1000
0001
0100
0000
,
0010
0010
0010
0000
,
1000
0100
0010
0001
,
0100
0010
0100
0000
,
0001
0000
1000
0000
,
0010
0010
1000
0001
,
0100
0000
0100
0000
,
0020
0000
0030
0000
,
0001
1000
0001
1000
,
0010
0010
1000
0000
,
0001
0001
0100
0000
,
0010
0000
0100
0000
,
0001
0001
1000
0100
,
0010
0000
0010
0000
,
0100
0000
0100
0000
,
0001
1000
0010
1000
,
0010
0100
0110
0000
,
0010
0000
1000
0000
,
0010
0000
0001
0000
,
1000
0000
0100
0000
,
0001
0000
0100
0000
,
2000
0000
3000
0000
,
0002
0000
0003
0000
,
0020
0000
0030
0000
,
0100
0100
0100
0100
,
0001
0001
0001
0000
,
1000
0100
1000
0100
,
1000
0000
0001
0000
,
0100
0010
0110
0000
,
1000
0001
0001
0000
,
0010
0100
0001
0000
,
1001
0000
0000
0110
,
0000
0000
1001
0000
,
0200
0000
0300
0000
;

//---------------dance-single - ----------------
#NOTES:
     dance-single:
     :
     Medium:
     8:
     :
0000
0000
0000
0000
,
0000
0000
0000
0000
,
0000
0000
0000
0000
,
0000
0000
0000
0000
,
0000
0000
0000
0000
,
0000
0000
0000
0000
,
0010
1000
0100
0010
,
0001
0100
0001
0000
1000
0010
1000
0000
,
0001
0000
0100
0010
0000
0000
1000
0000
,
0100
0010
0000
0000
0001
0000
0100
0020
,
0000
0000
0000
0000
,
0000
0000
0000
0000
,
0000
0000
0000
0000
,
0000
0030
0100
0000
,
0001
0100
1000
0100
,
0010
0000
0001
0100
0000
0000
0001
0000
,
1000
0010
1000
0100
,
0010
0000
0100
0001
0000
0000
1000
0000
,
0010
0100
0010
1000
,
0001
1000
0010
0110
,
0001
1000
0100
1000
,
0010
0000
0100
0001
0000
0000
1000
0000
,
2002
0000
0000
3003
,
0010
0000
0010
0000
1000
0100
1000
0000
,
0010
0100
0010
0000
1000
0000
0001
0000
,
0100
0100
0010
0010
,
1000
0000
0100
0000
1000
0001
0100
0000
,
0010
0010
0100
0100
,
0001
0000
0100
0000
0010
1000
0100
0000
,
0010
0100
0001
1100
,
0100
0000
0100
0000
0100
0000
0001
0100
,
0001
1000
0010
0001
,
0100
0000
0001
0000
1000
0100
1000
0000
,
0010
0100
0001
0010
,
0001
1000
0110
0001
,
1001
1000
0010
1000
,
0110
0001
1000
0100
,
0010
0100
1100
0010
,
1000
0010
1000
0002
0000
0000
0103
0000
,
0011
0011
1000
0100
,
0010
0100
0001
0100
,
1000
0001
1001
0010
,
0100
0000
1000
0000
0100
0010
0100
0000
,
1001
0100
0010
0100
,
0110
0001
0100
0001
,
1000
0001
0100
0110
,
0010
0000
0010
0000
1000
0001
1000
0000
,
0100
0000
0100
0000
0001
0010
0001
0000
,
1000
0000
1000
0000
0010
0100
0010
0000
,
0001
0000
0001
0000
1000
0100
1000
0000
,
0010
0000
0010
0000
0100
0010
0100
0010
,
1000
0000
0001
0000
0010
0100
1000
0000
,
0001
0000
1000
0000
0010
1000
0100
0000
,
0010
0000
0001
0000
1000
0001
0100
0000
,
0001
0010
0001
0000
1000
0100
1000
0000
,
0001
0100
0000
0100
0000
0100
0000
0100
,
0000
0001
0000
0001
0000
0001
0000
0001
,
1000
0010
0000
0010
0000
0010
0000
0010
,
0000
1000
0000
1000
0000
1000
0000
1000
,
0010
0100
0000
0100
0000
0100
0000
0100
,
0001
1000
0000
1000
0000
1000
0000
1000
,
0010
0100
0000
0100
0000
0010
0000
1000
,
0001
0010
0100
0000
1000
0010
0100
0000
,
0101
0101
1000
0100
,
0010
1100
0001
0010
,
1001
0001
0100
0010
,
1000
0001
0100
0000
0100
0010
1000
0000
,
1001
1000
0100
0010
,
0110
1000
0001
1000
,
0010
0000
1000
0100
0000
0000
1000
0000
,
0001
0010
0000
0000
0100
0000
0010
0002
,
0000
0000
0000
0003
,
0000
0100
0001
1000
0000
0000
0000
0000
;

//---------------dance-single - ----------------
#NOTES:
     dance-single:
     :
     Hard:
     11:
     :
0000
0000
0000
0000
,
0000
0000
0000
0000
,
0000
0000
0000
0000
,
0000
0000
0000
0000
,
0000
0000
0000
0000
,
0000
0000
0000
0000
,
0010
0001
0100
0010
0000
1000
1000
0000
,
0100
0010
0001
0100
0010
1000
0001
0000
,
1000
0100
0010
0001
0000
0001
1000
0010
,
0100
0001
0000
0001
0010
0100
1000
0001
,
0200
0000
0000
0000
,
0000
0000
0000
0000
,
0000
0000
0000
0000
,
0000
0300
1000
0000
,
0001
0100
0010
0000
1000
0001
0100
0000
,
0010
1000
0001
0100
0000
0000
0010
0000
,
1000
0010
0100
0000
0001
0100
0001
0000
,
1000
0100
0010
0001
0000
0000
0010
0000
,
0001
0100
1000
0000
0010
0100
0001
0000
,
1000
0010
0100
0010
0000
0000
0100
0000
,
0001
1000
0010
0000
0100
0001
0010
0000
,
0100
1000
0010
0100
0000
0000
0001
0000
,
0220
0000
0000
0330
,
1000
0000
1000
0000
0010
1000
0001
0000
,
0100
0010
0100
0001
1000
0100
1000
0000
,
0010
0100
0001
0000
1000
0100
0010
0000
,
0001
0100
0001
1000
0010
0000
1010
0000
,
0001
0010
0001
0000
0100
0001
0100
0000
,
1000
0100
1000
0000
0010
1000
0010
0000
,
1000
0001
0100
0010
1000
0001
0010
0000
,
0001
1000
0100
0010
0100
0000
1001
0000
,
0010
0100
0001
0100
0001
1000
0100
0010
,
0100
1000
0001
0100
0010
0000
0101
0000
,
1000
0010
0100
0001
0100
0010
1000
0100
,
0010
0001
1000
0010
0100
0000
0110
0000
,
0001
0100
0001
0100
0000
0000
1100
0000
,
0010
0100
0001
0100
0010
1000
0010
0100
,
0001
0010
0200
0000
0000
0000
1300
0000
,
0010
0100
0010
1000
0000
0000
1001
0000
,
0010
1000
0010
1000
0010
0100
0001
1000
,
0010
0100
0000
0000
0001
0000
0011
0000
,
1000
0010
1000
0100
0000
0000
1000
0000
,
0010
1100
1000
0101
,
0001
0010
0001
0010
0100
1000
0010
0000
,
1000
0100
0010
0001
0100
0010
1000
0000
,
0001
0000
2000
0200
0000
0000
3000
0000
,
0010
0310
0001
0100
,
0010
0000
0000
1000
0000
0000
0100
0000
0000
0000
0001
0000
0100
0000
1000
0000
,
0010
0000
0000
0100
0000
0000
0001
0000
0000
0000
1000
0000
0100
0000
0100
0000
,
0010
0000
0000
0001
0000
0000
0100
0000
0000
0000
0010
0000
0100
0000
0001
0000
,
1000
0000
0000
0001
0000
0000
1000
0000
0010
0000
0100
0000
0001
0000
0100
0000
,
0010
0000
0000
0010
0000
0000
1010
0000
0000
0000
0100
0000
0001
0000
0100
0000
,
0001
0000
0000
0001
0000
0000
0101
0000
0000
0000
0010
0000
1000
0000
0001
0000
,
0100
0000
0000
0100
0000
0000
0110
0000
0000
0000
0010
0000
1000
0000
0100
0000
,
1000
0010
0100
0010
1000
0001
1001
0000
,
0001
0100
0000
0010
0000
0100
0000
0001
,
0000
1000
0000
0100
0000
0001
0000
0100
,
1000
0100
0000
0010
0000
0100
0000
1000
,
0000
0010
0000
0001
0000
1000
0000
1000
,
0010
0100
0000
0100
0000
0001
0000
0010
,
0100
0010
0000
0010
0000
0100
0000
1000
,
0001
0010
0000
0001
0000
1000
0000
0100
,
0001
0100
0010
1000
0100
1000
0001
0010
,
0100
1000
0100
1000
0100
0010
0001
0100
,
0010
1000
0000
0000
0100
0000
1100
0000
,
0001
1000
0010
0100
0000
0000
0001
0000
,
1000
0000
0001
0010
0100
1000
0010
0100
,
0001
1000
0001
0010
0100
0010
0001
0000
,
1000
0010
0100
0010
1000
0100
0010
0001
,
1000
0100
0010
0100
0000
1000
0010
0100
,
0001
0010
0000
1000
0001
0100
0010
1000
,
0002
0000
0000
0003
,
1000
0010
0100
0101
0000
0000
0000
0000
;

//---------------dance-single - ----------------
#NOTES:
     dance-single:
     :
     Challenge:
     13:
     :
0000
0000
0000
0000
,
0000
0000
0000
0000
,
0000
0000
0000
0000
,
0000
0000
0000
0000
,
0000
0000
0000
0000
,
0000
0000
0000
0000
,
0001
1000
0100
1000
0010
0010
0100
0001
,
0100
1000
0001
1000
0100
0001
0010
0010
,
0100
0001
0100
0010
0001
0010
1000
1000
,
0001
0100
1000
0010
0100
0010
1000
0001
,
0100
0000
0010
0000
0100
0000
0010
0000
0100
0000
0010
0000
,
0100
0000
0010
0000
0100
0000
0010
0000
0100
0000
0010
0000
,
0100
0000
0010
0000
0100
0000
0010
0000
0100
0000
0010
0000
,
0100
0000
0010
0000
0100
0000
0001
0000
0000
0000
0000
0000
,
1001
0010
1000
0010
0100
0010
1000
0100
,
0001
0100
0010
0002
0000
1000
1003
0001
,
0100
1000
0100
0010
0100
1000
0100
0001
,
0010
0000
1000
0000
0010
0000
0002
0000
0000
0000
1003
0100
1000
0000
0001
0000
,
1000
0010
0100
0010
0001
0010
1000
0010
,
0001
0010
1000
0200
0000
0010
0310
0001
,
1000
0100
0010
0100
1000
0010
0100
0010
,
1000
0001
0100
0020
0000
1000
1030
0001
,
1001
0000
0000
0000
0000
0000
1000
0100
1000
0000
0001
0000
0000
0000
0000
0000
,
0011
0000
0000
0000
1100
0000
0000
0000
0001
0100
0000
0010
1000
0000
0000
0000
,
0100
0000
1000
0001
1000
0000
0010
0000
1000
0000
0100
0000
0001
0000
0000
0000
,
0010
0000
0001
0000
0010
0000
0100
0000
1000
0000
0010
0000
0001
0000
0000
0100
,
0010
0010
0010
1000
0100
1000
0001
1000
,
1000
0010
0100
0001
0010
0010
0010
0000
,
0001
1000
0001
0000
0100
0000
0000
0000
0010
0000
0010
0000
0010
0000
1000
0000
,
1000
0000
0100
0000
0001
0000
0100
0000
1000
0000
0010
0100
0000
0100
0001
0000
,
0010
0000
0001
0000
0010
0000
0100
0000
1000
0010
0000
0100
0001
0000
0001
0000
,
0001
0010
1000
0001
1000
0010
0100
0001
,
0010
1000
0010
0100
0010
0001
0100
0000
,
0010
1000
0001
0010
1000
0100
1000
0001
,
0100
0000
1000
0000
0100
0000
0001
0000
0000
0000
1000
0100
1000
0000
0001
0000
,
0010
0001
0100
0010
1000
0100
1000
0001
,
0100
0010
0001
0010
1000
0010
0100
0001
,
1000
0100
0010
0001
0010
0100
1000
0000
,
0010
0000
0010
0000
1000
0000
0001
0000
0000
0000
0100
0010
0100
0000
0000
0000
,
0101
0000
1100
0000
0101
0100
0010
1000
,
0100
0001
0100
0010
0001
0100
0010
1000
,
0100
0000
1000
0010
1000
0000
0002
0000
0000
0000
0100
0000
0103
0000
0010
0000
,
1000
0100
0001
0200
2300
3020
0230
0302
,
1003
0000
0010
0000
0100
0000
0010
0000
0001
0000
0010
0000
1000
0000
0001
0100
,
0001
1000
0010
0100
0001
0010
0100
1000
,
0010
0000
0100
0001
0100
0000
0010
0000
1000
0000
0100
0000
1000
0000
0001
0000
,
0100
0101
0000
1100
0000
0010
1000
0001
,
0010
0000
0000
0001
0000
0000
1000
0100
1000
0000
0000
0001
0000
0000
0100
0010
,
0100
0000
0001
0000
0010
0000
0001
0000
1000
0000
0100
0010
0100
0000
1000
0000
,
0001
0000
0100
0010
0000
0000
1000
0000
0100
0000
1000
0001
1000
0000
0000
0000
,
0010
0000
0000
0000
1000
0001
1000
0001
1000
0000
0100
0000
0010
0000
0100
0000
,
0110
0000
0000
0001
0000
0000
1000
0000
0001
0100
0001
0000
1000
0000
0000
0000
,
0010
0000
1000
0000
0100
0000
0010
0001
0010
0000
0001
0000
1000
0000
0000
0000
,
0010
0010
1000
1000
0010
0100
0001
0000
,
1001
0000
0001
0100
0001
0000
1000
0000
0010
0000
0010
0000
0010
0000
0000
0000
,
1010
0000
0101
0000
1010
0000
0001
1000
,
0000
0010
0000
0100
0000
0010
1000
0001
,
1000
0100
0010
0002
0000
0000
0000
0000
,
0000
0103
0001
0020
2030
3020
0032
0203
,
0310
1000
0010
0200
0000
0302
0000
0000
,
0000
1003
0000
0010
0000
0100
0001
1000
,
0010
1000
0100
0002
0000
0000
0000
0000
,
0013
0010
0100
0100
1000
0001
1000
0001
,
0011
0000
1100
0000
0011
0100
1000
0001
,
0100
1000
0100
0001
0100
0010
1000
0100
,
0001
0000
1000
0010
1000
0000
0001
0000
0100
0000
0010
0000
0100
0000
0001
0000
,
1000
0010
1000
0200
0320
0032
2003
3020
,
0130
0001
0100
0010
1000
0100
0001
0000
,
1000
0010
1000
0100
0010
0001
0001
0100
,
0001
0010
1000
0010
0001
0000
0001
0010
,
1000
0010
0001
1000
1000
0010
0001
0010
,
1000
0000
0101
0000
0000
0000
0010
0100
0010
0000
1000
0000
1000
0000
0001
0000
,
0010
0100
2000
0002
0000
0000
0000
0000
,
0000
0000
0000
3003
;

//---------------dance-double - ----------------
#NOTES:
     dance-double:
     :
     Easy:
     6:
     :
00000000
00000000
00000000
00000000
,
00000000
00000000
00000000
00000000
,
00000000
00000000
00000000
00000000
,
00000000
00000000
00000000
00000000
,
00000000
00000000
00000000
00000000
,
00000000
00000000
00000000
00000000
,
00100000
00010000
10000000
01000000
,
00100000
00001000
00010000
00000100
,
00000010
00000001
00000100
00000010
,
00010000
00001000
00100000
00010000
,
10000000
00000000
00000000
00000000
,
00000000
00000000
00000000
00000000
,
00000000
00000000
00000000
00000000
,
00000000
00000000
10000000
00000000
,
00100000
00010000
01000000
00001000
,
00010000
00000000
00011000
00000000
,
00000010
00001000
00000001
00001000
,
00000010
00000000
00000110
00000000
,
00000010
00001000
00000100
00010000
,
00001000
00000000
00011000
00000000
,
00100000
01000000
00100000
10000000
,
00010000
00000000
01100000
00000000
,
00002000
00000000
00003000
00000000
,
00010000
00010000
00000010
00001000
,
00000001
00000100
00000001
00000100
,
00000010
00000000
00001000
00000000
,
00000100
00010000
00011000
00000000
,
01000000
01000000
00010000
00010000
,
00100000
10000000
00100000
10000000
,
01000000
00010000
01000000
00001000
,
00010000
00001000
00011000
00000000
,
00000010
00000000
00000010
00000000
,
00001001
00000000
00000100
00000000
,
00000010
00000000
00000010
00000000
,
00010000
00001000
00010000
00000000
,
00011000
00000000
01000000
01000000
,
00100000
00000000
10000000
10000000
,
00100000
00000000
01000000
01000000
,
00001000
00010000
00011000
00000000
,
00000010
00001000
00001000
00000000
,
00000001
00000010
00000100
00001000
,
00000100
00010000
00001000
00000000
,
00100000
00000000
00010000
00000000
,
01000000
01000000
10000000
00010000
,
01000000
00000000
01000000
00000000
,
00001000
00010000
00011000
00000000
,
00000010
00001000
00000010
00000100
,
00000001
00000001
00000100
00000000
,
00000010
00000010
00010000
00000000
,
00001000
00010000
00001000
00000000
,
00100000
00000000
00010000
01000000
,
00100000
00100000
10000000
00000000
,
01000000
01000000
00010000
00000000
,
00100000
00001000
00010000
00001000
,
00000010
00001000
00001001
00000000
,
00000100
00000000
00000100
00000000
,
00000010
00000000
00001000
00000000
,
00000100
00000000
00010000
00000000
,
00001000
00000000
00010000
00000000
,
00002000
00000000
00003000
00000000
,
02000000
00000000
03000000
00000000
,
00200000
00000000
00300000
00000000
,
10000000
10000000
10000000
10000000
,
00010000
01000000
00001000
00000000
,
00010000
00001000
00010000
00000100
,
00001000
00000000
00000010
00000000
,
00000100
00000001
00001001
00000000
,
00000010
00001000
00001000
00000000
,
00000010
00010000
00001000
00000000
,
00011000
00000000
00000000
01100000
,
00000000
00000000
10010000
00000000
,
02000000
00000000
03000000
00000000
;

//---------------dance-double - ----------------
#NOTES:
     dance-double:
     :
     Medium:
     8:
     :
00000000
00000000
00000000
00000000
,
00000000
00000000
00000000
00000000
,
00000000
00000000
00000000
00000000
,
00000000
00000000
00000000
00000000
,
00000000
00000000
00000000
00000000
,
00000000
00000000
00000000
00000000
,
00100000
01000000
00001000
00000000
00010000
00000000
00000100
00000000
,
00000010
00000001
00000100
00000000
00000010
00000000
00010000
00000000
,
00001000
00000000
01000000
00100000
00000000
00000000
10000000
00000000
,
01000000
00100000
00000000
00000000
00001000
00000000
00010000
00000200
,
00000000
00000000
00000000
00000000
,
00000000
00000000
00000000
00000000
,
00000000
00000000
00000000
00000000
,
00000000
00000300
00001000
00000000
,
00000001
00000100
00001000
00000100
,
00000010
00000000
00001000
00000100
00000000
00000000
00001000
00000000
,
00000001
00000100
00001000
00010000
,
00100000
00000000
10000000
01000000
00000000
00000000
10000000
00000000
,
00100000
01000000
00100000
10000000
,
01000000
00000000
00010000
00001000
00000000
00000000
00001010
00000000
,
00000001
00001000
00000010
00000100
,
00001000
00000000
00010000
00001000
00000000
00000000
00100000
00000000
,
02200000
00000000
00000000
03300000
,
00010000
00000000
00010000
00000000
10000000
01000000
10000000
00000000
,
00010000
01000000
00010000
00000000
00100000
00000000
00001000
00000000
,
00010000
00010000
00000100
00000100
,
00000010
00000000
00000001
00000000
00001000
00000010
00000100
00000000
,
00001000
00001000
00010000
00010000
,
00100000
00000000
01000000
00000000
00100000
10000000
01000000
00000000
,
00100000
00010000
01000000
01010000
,
01000000
00000000
01000000
00000000
01000000
00000000
00001000
00010000
,
00001000
00010000
00000010
00000100
,
00000001
00000000
00000100
00000000
00000010
00001000
00000001
00000000
,
00000100
00001000
00010000
00100000
,
01000000
00010000
01100000
00000000
,
00010000
10000000
00100000
10000000
,
01000000
00010000
01000000
10000000
,
01000000
00010000
00011000
00000000
,
00000010
00001000
00000001
00000200
00000000
00000000
00000300
00000000
,
00000110
00000110
00000001
00000100
,
00001000
00000100
00000001
00000010
,
00001000
00000000
00010000
00002000
00000000
00000000
00003000
00000000
,
01000000
00000000
00010000
00000000
10000000
00100000
10000000
00000000
,
10010000
00100000
01000000
00010000
,
00011000
00000100
00001000
00000101
,
00001000
00000000
00000010
00000200
00000000
00000000
00000300
00000000
,
00000001
00000100
00001000
00010000
,
01000000
00000000
01000000
00000000
10000000
01000000
10000000
00000000
,
00010000
00000000
00010000
00000000
00100000
00010000
00100000
00000000
,
00001000
00000000
00001000
00000000
00010000
00001000
00010000
00000000
,
00000010
00000000
00000010
00000000
00001000
00000010
00001000
00000010
,
00000100
00000000
00000100
00000000
00000001
00000100
00000001
00000000
,
00001000
00000000
00001000
00000000
00000100
00001000
00000100
00000000
,
00010000
00000000
00010000
00000000
00001000
00010000
00001000
00000000
,
00100000
00010000
00100000
00000000
01000000
10000000
01000000
00000000
,
10000000
01000000
00000000
01000000
00000000
01000000
00000000
01000000
,
00000000
00100000
00000000
00100000
00000000
00100000
00000000
00100000
,
00001000
00010000
00000000
00010000
00000000
00010000
00000000
00010000
,
00000000
00001000
00000000
00001000
00000000
00001000
00000000
00001000
,
00010000
00000100
00000000
00000100
00000000
00000100
00000000
00000100
,
00001000
00000001
00000000
00000001
00000000
00000001
00000000
00000001
,
00000100
00000010
00000000
00000010
00000000
00000100
00000000
00000100
,
00000001
00001000
00000100
00000000
00000010
00000001
00000100
00000000
,
00000101
00000101
00000100
00001000
,
00010000
00000000
00100000
00000000
01000000
00010000
00100000
00000000
,
10010000
10000000
01000000
00100000
,
00010000
10000000
00010000
00000000
10000000
00010000
10000000
00000000
,
11000000
01000000
00010000
00001000
,
00001010
00000001
00001000
00000010
,
00001000
00000000
00000001
00000100
00000000
00000000
00000010
00000000
,
00010000
00001000
00000000
00000000
01000000
00000000
00010000
20000000
,
00000000
00000000
00000000
30000000
,
00000000
00100000
10000000
00010000
00000000
00000000
00000000
00000000
;

//---------------dance-double - ----------------
#NOTES:
     dance-double:
     :
     Hard:
     11:
     :
00000000
00000000
00000000
00000000
,
00000000
00000000
00000000
00000000
,
00000000
00000000
00000000
00000000
,
00000000
00000000
00000000
00000000
,
00000000
00000000
00000000
00000000
,
00000000
00000000
00000000
00000000
,
00000100
00000010
00000001
00001000
00000000
00000100
00000100
00000000
,
00010000
00001000
00100000
00010000
00000000
10000000
10000000
00000000
,
01000000
00100000
00010000
01000000
00000000
00000000
00001000
00010000
,
00000100
00000010
00000000
00000000
00000001
00000100
00000010
00001000
,
00000200
00000000
00000000
00000000
,
00000000
00000000
00000000
00000000
,
00000000
00000000
00000000
00000000
,
00000000
00000300
00000010
00000000
,
00000001
00001000
00000100
00000000
00000010
00000100
00001000
00000000
,
00000001
00000100
00001000
00010000
00000000
00000000
00000000
00000000
,
00100000
10000000
01000000
00000000
10000000
00100000
01000000
00000000
,
00100000
01000000
00010000
01000000
00000000
00000000
00000000
00000000
,
10000000
01000000
00010000
00000000
00001000
00000100
00000001
00000000
,
00000100
00000010
00000100
00000010
00000000
00000000
00000000
00000000
,
00000100
00000001
00000010
00000000
00001000
00010000
00100000
00000000
,
10000000
00010000
10000000
00010000
00000000
00000000
00000000
00000000
,
02200000
00000000
00000000
03300000
,
00010000
00000000
00010000
00000000
00100000
00010000
10000000
00000000
,
01000000
00010000
00001000
00010000
00001000
00000100
00000010
00000000
,
00001000
00000001
00000100
00000000
00000001
00001000
00000100
00000000
,
00000010
00000001
00000100
00001000
00010000
00000000
00011000
00000000
,
00100000
00010000
00100000
00000000
01000000
10000000
01000000
00000000
,
10000000
01000000
10000000
00000000
00100000
01000000
00100000
00000000
,
10000000
00100000
00010000
00000000
00001000
00000010
00000001
00000000
,
00001000
00000001
00000100
00000001
00000100
00000000
00001100
00000000
,
00010000
00001000
00100000
00010000
10000000
01000000
10000000
01000000
,
00100000
00010000
10000000
01000000
00010000
00000000
00011000
00000000
,
00000010
00001000
00000010
00000100
00000001
00000100
00001000
00000100
,
00000010
00001000
00000001
00000010
00000100
00000000
00000110
00000000
,
00001000
00000100
00001000
00000100
00000000
00000000
00011000
00000000
,
00100000
00010000
10000000
01000000
00100000
00010000
00100000
01000000
,
00010000
00001000
00000200
00000000
00000000
00000000
00000300
00000000
,
00000010
00000100
00000001
00000100
00000000
00000000
00000101
00000000
,
00001001
00000000
00001001
00000000
00000001
00000100
00001000
00000100
,
00001000
00010000
00000000
00000000
00100000
00000000
01100000
00000000
,
10000000
00100000
10000000
01000000
00000000
00000000
00100000
00000000
,
00010000
10000000
01010000
00011000
,
00000010
00001000
00000010
00001000
00000100
00001000
00000001
00000000
,
00000100
00001000
00010000
00100000
00010000
00001000
00010000
00000000
,
00001000
00000000
00200000
02000000
00000000
00000000
00300000
00000000
,
10000000
13000000
10000000
00010000
,
00100000
00000000
00000000
10000000
00000000
00000000
01000000
00000000
00000000
00000000
00010000
00000000
00001000
00000000
00000100
00000000
,
00000001
00000000
00000000
00000010
00000000
00000000
00001000
00000000
00000000
00000000
00000010
00000000
00000001
00000000
00000100
00000000
,
00001000
00000000
00000000
00010000
00000000
00000000
00100000
00000000
00000000
00000000
10000000
00000000
01000000
00000000
00010000
00000000
,
00001000
00000000
00000000
00010000
00000000
00000000
00000010
00000000
00000100
00000000
00000001
00000000
00000100
00000000
00000001
00000000
,
00001000
00000000
00000000
00001000
00000000
00000000
00001001
00000000
00000000
00000000
00000100
00000000
00000001
00000000
00000100
00000000
,
00000001
00000000
00000000
00000001
00000000
00000000
00001001
00000000
00000000
00000000
00000001
00000000
00000100
00000000
00001000
00000000
,
00010000
00000000
00000000
00010000
00000000
00000000
00011000
00000000
00000000
00000000
00100000
00000000
00010000
00000000
10000000
00000000
,
00010000
00100000
00010000
01000000
00100000
10000000
10010000
00000000
,
00100000
01000000
00000000
00100000
00000000
01000000
00000000
00010000
,
00000000
10000000
00000000
01000000
00000000
00010000
00000000
00001000
,
00000100
00001000
00000000
00000100
00000000
00000001
00000000
00000010
,
00000000
00000001
00000000
00001000
00000000
00000001
00000000
00001000
,
00000010
00000100
00000000
00001000
00000000
00010000
00000000
00100000
,
01000000
00100000
00000000
10000000
00000000
00010000
00000000
01000000
,
00010000
00100000
00000000
00010000
00000000
10000000
00000000
01000000
,
00010000
00001000
00010000
00000010
00001000
00000100
00000010
00000100
,
00001000
00000000
00001001
00000000
00000001
00000010
00001000
00010000
,
00100000
10000000
00000000
00000000
01000000
00000000
01000000
00000000
,
10000000
00100000
01000000
00020000
00000000
00000000
00000000
00030000
,
10000000
00000000
00010000
00100000
01000000
10000000
01000000
00000000
,
00010000
00001000
00000010
00000001
00001000
00000001
00000000
00000000
,
00001000
00000010
00000100
00000001
00001000
00000010
00000000
00000000
,
00000100
00010000
00001000
00010000
00000000
00000000
00100000
00010000
,
01000000
00010000
00000000
00000000
00001000
01000000
00001000
00010000
,
00002000
00000000
00000000
00003000
,
00010000
00000010
00001000
00001001
00000000
00000000
00000000
00000000
;
