#TITLE:BURNIN' THE FLOOR;
#SUBTITLE:(25th Anniversary Special);
#ARTIST:NAOKI;
#TITLETRANSLIT:;
#SUBTITLETRANSLIT:;
#ARTISTTRANSLIT:;
#GENRE:;
#CREDIT:;
#BANNER:BURNIN' THE FLOOR (25th Anniversary Special)-bn.png;
#BACKGROUND:BURNIN' THE FLOOR (25th Anniversary Special)-bg.png;
#LYRICSPATH:;
#CDTITLE:;
#MUSIC:BURNIN' THE FLOOR (25th Anniversary Special).ogg;
#OFFSET:0.000000;
#SAMPLESTART:13.930000;
#SAMPLELENGTH:20.000000;
#SELECTABLE:YES;
#DISPLAYBPM:155.000000;
#BPMS:0.000000=155.059998
;
#STOPS:
;
#BGCHANGES:;
#KEYSOUNDS:;
#ATTACKS:;

//---------------dance-single - ----------------
#NOTES:
     dance-single:
     :
     Challenge:
     15:
     0.696049,0.861702,0.382979,0.372340,0.382979,458.000000,422.000000,36.000000,35.000000,0.000000,0.000000,0.696049,0.861702,0.382979,0.372340,0.382979,458.000000,422.000000,36.000000,35.000000,0.000000,0.000000:
// measure 0
0000
0000
0000
0000
,  // measure 1
0000
0000
0000
0000
,  // measure 2
0000
0000
0000
0000
,  // measure 3
0000
0000
0000
0000
,  // measure 4
0001
0010
1000
0010
0001
0010
0100
0010
,  // measure 5
1000
0010
0001
0200
0000
0010
0310
0000
,  // measure 6
0100
0001
0010
1000
0010
0100
0010
0001
,  // measure 7
0100
1000
0100
0002
0000
1000
1003
0001
,  // measure 8
0100
0000
0000
0000
0000
0000
0001
1000
0001
0000
0001
0000
0000
0000
0000
0000
,  // measure 9
0011
0000
0000
0000
1100
0000
0000
0000
0001
0100
0010
1000
0000
0000
0000
0000
,  // measure 10
0100
1000
0100
0010
0001
0100
0010
1000
0001
0000
1000
0100
0000
0000
0000
0100
,  // measure 11
0010
0000
0001
1000
0000
0000
0001
0000
0010
0000
0100
1000
0000
0000
0000
0001
,  // measure 12
1000
0000
1000
0000
1000
0000
0010
0000
0100
0000
0010
1000
0000
0000
0000
0000
,  // measure 13
0001
0010
0100
0000
1000
0000
0001
0000
0100
0000
0010
0000
1001
0000
0000
0000
,  // measure 14
0100
0001
1000
0000
1100
0000
0000
0000
0010
0000
0010
0000
0010
0000
0000
0001
,  // measure 15
1000
0000
0001
0000
0100
0000
0010
0000
1000
0100
0000
0010
0000
0000
0001
1000
,  // measure 16
0001
0000
0100
0010
0000
0000
1000
0000
0100
0000
0010
0001
0000
0000
0000
0000
,  // measure 17
1000
0010
1000
0001
0100
0000
0000
0010
,  // measure 18
1000
0100
1000
0100
1000
0001
0100
0000
,  // measure 19
0001
0010
0001
0100
0010
0000
0000
1000
,  // measure 20
0100
0010
0001
0100
0000
0001
0010
1000
,  // measure 21
0100
0000
0010
0001
0000
0000
0100
0010
,  // measure 22
0000
0010
1000
0100
1000
0010
0001
0200
,  // measure 23
1000
0010
0001
0310
,  // measure 24
0100
0010
0100
0002
0000
0000
0003
0000
,  // measure 25
0101
0000
1100
0000
0101
0000
1000
0010
,  // measure 26
0000
0000
0100
0000
0001
0000
0010
0100
0010
0000
0001
0000
0100
0000
1000
0000
,  // measure 27
0010
0000
0000
0100
0001
0000
2000
0000
0000
0000
0100
0000
3100
0000
0002
0000
,  // measure 28
0010
0000
1003
0002
2003
3200
0320
0032
,  // measure 29
0103
0000
0001
0000
0010
0000
0100
1000
0010
0000
0200
0000
0001
0000
0000
0000
,  // measure 30
1300
0000
0100
0000
0001
0000
0010
0100
0010
0000
0001
0000
1000
0000
0010
0000
,  // measure 31
0101
0000
0000
1000
0001
0000
2010
0000
0000
0000
0100
0000
3100
0000
0001
0000
,  // measure 32
0000
1001
0000
0110
0000
1000
1000
0001
,  // measure 33
0011
0000
0000
1100
0000
0000
0001
0100
0010
0000
0000
1010
0000
0000
0100
0001
,  // measure 34
0010
0000
0001
1000
0000
0000
0010
1000
0100
0000
1000
0010
0100
0000
0001
0000
,  // measure 35
1000
0000
0100
0010
0000
0000
0001
0000
1000
0000
0001
0100
0000
0010
1000
0000
,  // measure 36
0100
0000
0000
1000
0010
0100
0001
0010
0100
0000
1000
0001
0000
1000
0100
0000
,  // measure 37
0110
0000
0000
0001
1000
0000
0001
0000
0100
0010
1000
0000
0001
0000
0000
0000
,  // measure 38
0010
0000
0100
1000
0000
0000
0001
1000
0010
0000
1000
0100
0000
0000
0000
0010
,  // measure 39
0001
0000
0001
0000
1000
0000
1000
0000
0001
0000
0100
0010
1000
0000
0000
0000
,  // measure 40
0100
0000
0010
0001
1000
0000
0001
0000
0110
0000
0110
0000
1001
0000
0000
0000
,  // measure 41
1100
0000
0101
0000
1100
0000
0001
0010
,  // measure 42
0001
0100
1000
0010
0000
1000
0100
0010
,  // measure 43
0001
0000
0000
0100
0010
0000
2000
0000
0000
0000
0100
0000
3100
0000
0001
0000
,  // measure 44
0000
0020
0032
0203
0320
2030
3002
0203
,  // measure 45
0301
0000
0010
0000
1000
0000
0100
0010
0001
0000
0200
0000
1000
0000
0000
0000
,  // measure 46
0310
0000
0100
0000
0001
0000
1000
0010
1000
0000
0100
0000
0010
0000
0001
0000
,  // measure 47
1100
0000
0000
0001
0100
0000
2010
0000
0000
0000
0100
0000
0100
0000
3001
0000
,  // measure 48
0000
1001
0100
0002
2003
3200
0320
0032
,  // measure 49
0103
0000
0010
1000
0100
0000
0010
0001
0100
0000
0010
1000
0100
0000
0001
0000
,  // measure 50
0010
0000
0001
0100
0010
0000
1000
0100
0010
0000
0001
1000
0010
0000
0100
0000
,  // measure 51
0001
0000
1000
0100
1000
0000
0010
0100
0010
0000
1000
0001
1000
0000
0100
0000
,  // measure 52
0010
0001
0100
0020
2030
3002
2003
3200
,  // measure 53
0310
0000
0001
0100
0010
0000
1000
0100
0010
0000
0001
1000
0001
0000
0100
0000
,  // measure 54
0010
0000
1000
0100
0010
0000
0100
0010
0001
0000
0100
0010
1000
0000
0001
0000
,  // measure 55
1010
0000
0100
0001
0010
0000
1100
0000
0000
0000
0010
0000
0101
0000
1000
0001
,  // measure 56
0100
0000
1010
0000
0000
0000
0100
0000
0011
0000
0001
0100
0010
0000
1000
0000
,  // measure 57
1001
0000
0110
0000
1000
0000
0100
0010
0001
0000
0101
0000
0001
0000
1000
0000
,  // measure 58
1100
0110
0011
0202
0000
0000
0000
0000
,  // measure 59
0000
0000
0000
0000
,  // measure 60
0303
0000
0000
0000
;
