#TITLE:BROKEN EDEN;
#ARTIST:MYTHOLOGIA by MLREC.;
#BANNER:BROKEN EDEN-bn.png;
#BACKGROUND:BROKEN EDEN-bg.png;
#JACKET:BROKEN EDEN-jacket.png;
#MUSIC:BROKEN EDEN.ogg;
#OFFSET:0.741;
#SAMPLESTART:68.149;
#SAMPLELENGTH:20;
#DISPLAYBPM:162;
#BPMS:0=162;
#STOPS:47.5=1.482;
#BGCHANGES:;

//---------------dance-single - ----------------
#NOTES:
     dance-single:
     :
     Beginner:
     4:
     :
0000
0000
0000
0000
,
0000
0000
0000
0000
,
0000
0000
0000
0000
,
0000
0000
0000
0000
,
0000
0000
0000
0000
,
1100
0000
0000
0000
,
0101
0000
0000
0000
,
1010
0000
0000
0000
,
0011
0000
0000
0000
,
1000
0000
1000
0000
,
0001
0000
0001
0000
,
0100
0100
0100
0100
,
1001
0000
0100
0000
,
1000
0000
0001
0100
,
0001
0000
0010
0000
,
0100
0000
1000
0001
,
1000
0000
0010
0000
,
1000
0000
0001
0010
,
0001
0000
0100
0000
,
0010
0000
1000
0000
,
0110
0000
0100
0000
,
0001
0010
0001
0000
,
1000
0000
1000
0100
,
1000
0000
0001
0000
,
1001
0000
0000
0000
,
0010
0000
0000
0000
,
0100
0000
0001
0000
,
1000
1000
1000
0001
,
0100
0000
0000
0010
,
0000
0000
1000
0000
,
0000
0001
0000
0000
,
1000
0000
0000
0100
,
0000
0000
0010
0000
,
0000
0001
0000
0000
,
0100
0000
0010
0000
,
1000
1000
0001
0000
,
0110
0000
0000
0000
,
0000
0000
0000
0000
,
0000
0000
0000
0000
,
0000
0000
0000
0000
,
0000
0000
0000
0000
,
0101
0000
0000
0000
,
1100
0000
0000
0000
,
0011
0000
0000
0000
,
1010
0000
0000
0000
,
1001
0000
0000
0000
,
1010
0000
0100
0000
,
0001
0010
0001
1000
,
0010
0000
0100
0000
,
0010
1000
0001
0100
,
0001
0000
1000
0000
,
0100
0000
0010
0000
,
0001
0000
0001
0000
,
0001
1000
1000
0001
,
0100
0000
0010
0000
,
1000
0100
1000
0000
,
0001
0010
0100
0000
,
1000
0000
0010
1000
,
0001
0000
0100
0000
,
0001
0000
1000
0000
,
0010
0000
1000
0000
,
0100
0100
1000
0001
,
0200
0000
0300
0000
,
0010
0000
0000
0100
,
0000
0000
0001
0000
,
0000
1000
0000
0000
,
0001
0000
0000
0010
,
0000
0000
0100
0000
,
0000
1000
0000
0000
,
0010
0000
1000
0000
,
0001
0001
1000
0000
,
0010
0000
0010
0000
,
0020
0000
0000
0000
,
0000
0000
0000
0000
,
0000
0000
0000
0030
;

//---------------dance-single - ----------------
#NOTES:
     dance-single:
     :
     Easy:
     8:
     :
0000
0000
0000
0000
,
0000
0000
0000
0000
,
0000
0000
0000
0000
,
0000
0000
0000
0000
,
0000
0000
0000
0000
,
1100
0010
0001
0100
,
0101
0010
1000
0100
,
1010
0100
0001
1000
,
0011
0010
0110
0100
,
1000
0000
0010
0000
1000
0000
0001
0100
,
0010
0000
1000
0000
0100
0000
1000
0001
,
0010
0000
0001
0000
0100
0000
0001
1000
,
1001
0010
1000
0001
,
1000
0100
1000
0000
0001
0000
0100
0000
,
0010
1000
0010
0000
0100
0000
0001
0000
,
1000
0000
0010
0000
1000
0000
0001
0100
,
0010
1000
0100
0001
,
1000
0001
1000
0000
0010
0000
0100
0000
,
0001
0010
0001
0000
0100
0000
1000
0000
,
0010
1000
0001
0100
,
0110
0000
1000
0000
0001
0000
0010
0100
,
1000
0000
0001
0000
1000
0010
0100
0000
,
0001
0000
0010
0000
0100
0000
1000
0001
,
0000
1000
0100
0000
0010
0000
0001
0000
,
0011
0000
0100
0000
0010
0000
1000
0001
,
1000
0000
0010
0000
0100
0001
1000
0000
,
0001
0000
0010
0000
0001
0100
1000
0000
,
0000
1000
0100
0001
,
1100
1100
0001
0101
,
0101
1000
1010
1010
,
0100
0011
0011
0010
,
1001
1001
0100
0110
,
0110
0001
1100
0101
,
0010
1010
0011
0100
,
2000
3020
0230
0302
,
0023
0000
0230
0000
2300
0000
3000
1000
,
0002
0000
0000
0000
,
0000
0000
0000
0000
,
0003
0000
0000
0000
,
0000
0000
0000
0000
,
0000
0000
0000
0000
,
1001
0000
0000
0000
1000
0100
0001
0000
,
0110
0000
0000
0000
0010
1000
0001
0000
,
0011
0100
1100
0001
,
1010
1000
0101
0010
,
1001
0000
0101
0000
,
1010
0000
0010
0000
1000
0001
1000
0100
,
0010
0000
0001
0000
0100
0000
0001
1000
,
0100
0000
0010
0000
0001
0100
0010
1000
,
0100
1000
0001
0010
,
0001
0000
0100
0000
0010
1000
0010
1000
,
0100
0000
0010
0000
0001
0100
0001
1000
,
0020
1030
0200
0301
,
1100
0101
1100
0101
,
0110
0010
1000
0001
,
0010
0100
1000
0000
0001
0100
0010
0000
,
1000
0001
1000
0000
0100
0010
0001
0000
,
1000
0100
0000
1000
0001
0100
0010
1000
,
0001
0000
0010
0000
0001
0000
1000
0010
,
1000
0000
0100
0000
0010
0000
0001
1000
,
0001
0000
0100
0000
0010
1000
0100
0000
,
0110
1001
0110
1001
,
0110
2000
0002
3003
,
0011
0011
1000
1100
,
1100
0010
0101
0101
,
0100
1010
1010
0001
,
1001
1001
1000
0110
,
0110
0001
0011
1010
,
0100
0101
1100
0010
,
0002
0023
0230
2300
,
3020
0230
0302
0003
,
1001
0000
0000
1000
0001
0000
0000
0100
,
0020
0000
0000
0000
,
0000
0000
0000
0000
,
0000
0000
0000
0030
;

//---------------dance-single - ----------------
#NOTES:
     dance-single:
     :
     Medium:
     12:
     :
0000
0000
0000
0000
,
0000
0000
0000
0000
,
0000
0000
0000
0000
,
0000
0000
0000
0000
,
0000
0000
0000
0000
,
1100
0000
0001
0000
0100
0010
1000
0000
,
0101
0000
0010
0000
1000
0100
0001
0000
,
1010
0000
0100
0000
0001
1000
0100
0010
,
0011
0000
1000
0000
0010
1000
0001
0100
,
0001
0010
0100
0000
1000
0001
0100
0010
,
1000
0100
0001
0000
1000
0010
0100
0001
,
0010
0100
1000
0000
0001
1000
0010
0100
,
1001
0000
0100
0001
0010
0001
1000
0100
,
1000
0010
0100
0000
0010
1000
0001
0100
,
0001
0010
0100
0000
1000
0010
1000
0001
,
0000
0100
0010
0000
1000
0001
1000
0100
,
0110
0000
0001
0010
0001
0100
0001
1000
,
0100
0010
0001
0000
1000
0010
1000
0100
,
0010
0001
0100
0010
1000
0100
1000
0001
,
0000
1000
0100
0000
0010
0001
0100
0000
,
1010
0000
0001
0010
0001
0000
1000
0100
,
0001
0000
0010
0100
1000
0010
1000
0001
,
0100
0010
1000
0000
0001
0010
0001
0100
,
0000
0010
1000
0000
1000
0100
0010
0001
,
0101
0000
0010
0000
1000
0100
1000
0001
,
0010
0100
1000
0010
1000
0001
1000
0100
,
0010
0001
0100
0001
0010
0100
1000
0001
,
0000
0000
1000
0010
0000
0100
0001
0000
1000
0100
0000
0000
,
1001
0000
0000
1000
0200
0000
0000
0000
1300
0000
0001
0000
0010
0000
0000
0001
,
0200
0000
0000
0000
0310
0000
1000
0000
0001
0000
0000
1000
0002
0000
0000
0000
,
0013
0000
0100
0000
1000
0000
0000
0010
2000
0000
0000
0000
3001
0000
0100
0000
,
0001
0000
0010
0000
0001
0000
0000
1000
0100
0000
0010
0000
0001
0000
0100
0000
,
0001
0000
0000
1000
0010
0000
0100
0000
0010
0000
1000
0000
0100
0000
0000
0010
,
0001
0000
1000
0000
0001
0000
1000
0000
0010
0000
0000
0100
0001
0000
0010
0000
,
0001
1000
0000
0000
0001
1000
0000
0000
0010
0100
0000
0000
0010
0100
0000
0000
,
0001
0000
0010
0000
0100
0000
1000
0000
0002
0000
0000
0000
0003
0000
1000
0010
,
2000
0000
0000
0000
,
0000
0000
0000
0000
,
3000
0000
0000
0000
,
0000
0000
0000
0000
,
0000
0000
0000
0000
,
1001
0000
0010
0000
1000
0100
0001
0000
,
0110
0000
0010
0000
1000
0001
1000
0100
,
1100
0000
0001
0000
0101
0010
1000
0000
,
1010
0100
0001
0000
0011
1000
0001
0100
,
1001
0000
0101
0000
,
1010
0000
0000
0000
0100
0000
0001
0000
0010
0000
0000
0100
0000
0000
1000
0000
,
0001
0000
0100
0000
0001
0000
1000
0000
0010
0000
0000
0100
0000
0000
0001
0000
,
1000
0000
0100
0000
0010
0000
0000
0000
0001
0000
0000
1000
0000
0000
0001
0000
,
1000
0000
0010
0000
0100
0000
0010
0000
1000
0000
0000
0001
0000
0000
0010
0000
,
0100
1000
0010
1000
0100
0010
0001
0100
,
0010
0100
0001
0100
0010
1000
0001
0100
,
0001
0000
0000
0001
0000
0000
0100
0000
1000
0000
0000
1000
0000
0000
0010
0000
,
1010
0101
0011
1100
,
1001
0000
0000
0000
0100
0000
0001
0000
1000
0000
0000
0100
0000
0000
0010
0000
,
0001
0000
0100
0000
0010
0000
1000
0000
0001
0000
0000
1000
0000
0000
0100
0000
,
1000
0000
0000
0000
0010
0000
1000
0000
0100
0000
0000
0010
0000
0000
0001
0000
,
0100
0010
1000
0001
0010
0100
1000
0001
,
0010
0000
0100
1000
0001
1000
0010
0100
,
0001
0000
0010
0000
0001
0000
0000
1000
0000
0000
0010
0000
1000
0000
0001
0000
,
1000
0100
1000
0010
0100
0001
0010
0001
,
0011
1100
1010
0101
,
0110
1000
0001
1000
0002
0000
0003
0000
,
1001
0000
0000
0100
1000
0000
0000
0001
1000
0000
0010
0000
0100
0000
0000
0001
,
0010
0000
0000
0100
1000
0000
0001
0000
1000
0000
0000
0001
0010
0000
0000
0001
,
1000
0000
0100
0000
0010
0000
0000
0001
0100
0000
0000
0001
1000
0000
0100
0000
,
0010
0000
0000
0100
1000
0000
0000
0001
1000
0000
0010
0000
1000
0000
0000
0001
,
0100
0000
0000
0010
1000
0000
0100
0000
0010
0000
0000
0001
0010
0000
0000
0001
,
0100
0000
1000
0000
0010
0000
0000
1000
0001
0000
0000
0100
0010
0000
1000
0000
,
0001
1000
0000
0000
0001
1000
0000
0000
0010
0100
0000
0000
0010
0100
0000
0000
,
0001
0010
0001
0100
0010
1000
0001
0100
,
0101
0000
0000
1000
1000
0000
0000
0001
,
0002
0000
0000
0000
,
0000
0000
0000
0000
,
0000
0000
0000
0003
;

//---------------dance-single - ----------------
#NOTES:
     dance-single:
     :
     Hard:
     16:
     :
0000
0000
0000
0000
,
0000
0000
0000
0000
,
0000
0000
0000
0000
,
0000
0000
0000
0000
,
0000
0000
0000
0000
,
1100
0001
0100
0010
0000
1000
0000
0001
,
0101
0000
0000
0000
0100
0000
0000
0010
0000
1000
0000
0000
0001
0000
0100
0000
,
1010
0000
0000
0000
0100
0000
0001
0010
0000
0001
0010
0000
1000
0000
0100
0000
,
0011
0000
0000
0000
1000
0000
0010
0100
0000
0010
0100
0000
0001
0000
1000
0000
,
0001
0010
0000
0100
0000
0000
1000
0001
0000
1000
0000
0000
0010
0000
0100
0000
,
0010
1000
0000
0001
0000
0000
1000
0100
0000
0010
0000
0000
0001
0000
1000
0000
,
0010
1000
0000
0100
0000
0000
1000
0010
0000
0100
0000
0000
0001
0000
1000
0000
,
1001
0000
0100
0001
0010
0001
1000
0100
,
0010
0001
0010
0001
0000
0000
1000
0100
0000
0000
0010
0001
1000
0000
1000
0000
,
0001
0100
0001
0100
0000
0000
0010
1000
0000
0000
1000
0100
0010
0000
0010
0000
,
0001
1000
0000
0001
1000
0000
0010
0100
0000
0010
0100
0000
0001
0000
1000
0000
,
0110
0000
0000
0000
0100
0000
0001
0000
0010
0000
0001
1000
0001
0000
0100
0000
,
0010
1000
0010
1000
0000
0000
0100
0010
0000
0010
0001
0000
1000
0100
1000
0000
,
0001
0010
0000
0001
0000
1000
0010
0000
1000
0100
1000
0000
0001
0100
0001
0000
,
0010
0100
0000
1000
0001
0000
0100
0010
0000
1000
0001
0000
0010
0000
0100
0000
,
1100
0000
0000
0000
0001
0100
0010
0100
0001
0000
0010
0100
1000
0000
1000
0000
,
0001
0100
0010
1000
0000
0000
0100
0010
0001
0000
1000
0001
1000
0000
0100
0000
,
0010
0001
0000
0100
0000
0000
0010
1000
0000
0010
1000
0100
1000
0001
0100
0000
,
0010
1000
0000
1000
0100
0000
0010
0001
0000
0001
0100
0010
1000
0000
0001
0000
,
0011
0000
0000
0000
1000
0000
0100
0000
1000
0010
0100
0010
1000
0001
0100
0000
,
0001
1000
0001
0100
0000
0000
0010
1000
0010
0100
0010
0000
1000
0001
0100
0000
,
0001
0010
0100
1000
0000
0001
1000
0000
0010
0100
0010
0000
1000
0001
0100
0000
,
0000
0001
0010
0100
1000
0010
1000
0100
0010
0001
0000
0000
,
0100
0001
0000
0001
0100
0001
0000
0000
1000
0100
1000
0000
0010
1000
0000
1000
,
0010
1000
0000
1000
0001
0000
0100
0000
0001
0010
0100
0010
0001
1000
0000
1000
,
0001
0000
0100
0000
0001
0010
0100
1000
0100
0010
0000
0010
0001
0000
1000
0000
,
0001
0100
0000
0010
1000
0010
0000
1000
0001
0000
1000
0100
0010
0001
0000
0001
,
1000
0010
0000
0010
0100
0000
0001
1000
0001
0000
0010
0000
0100
1000
0100
1000
,
0001
0000
0100
0010
1000
0001
1000
0001
0010
0100
0010
0100
1000
0000
0001
0000
,
1000
0100
1000
0000
0001
0100
0001
0000
1000
0010
1000
0000
0001
0010
0001
0000
,
1000
0100
0010
0001
1000
0100
0010
0001
0200
0000
0000
0000
0300
0000
0001
1000
,
0002
0000
0000
0000
,
0000
0000
0000
0000
,
0003
0000
0000
0000
,
0000
0000
0000
0000
,
0000
0000
0000
0000
,
1001
0000
0000
0000
0100
0000
0000
0010
0000
1000
0000
0000
0001
1000
0100
0000
,
0110
0000
0000
0001
1000
0000
0000
0010
0000
0100
0000
0010
1000
0000
0001
0000
,
0011
0000
0000
0100
1000
0000
0000
0000
0010
1000
0000
0010
1000
0000
0001
0000
,
0100
0010
0000
0100
0010
0000
0000
0000
1000
0001
0000
1000
0001
0000
0100
0000
,
1001
0000
0101
0000
,
1010
0000
0000
0000
0001
0010
0100
1000
0010
0000
0100
0001
0000
1000
0001
0000
,
0010
0000
0100
1000
0100
0000
0010
0001
0100
0000
0001
1000
0000
0001
1000
0000
,
0010
1000
0010
0100
0001
0000
1000
0100
0010
0000
0001
1000
0000
0001
0100
0000
,
0010
1000
0001
0010
0100
0000
1000
0001
1000
0000
0000
0010
0000
0000
0100
0000
,
0001
0010
0100
1000
0010
0000
0100
0001
1000
0000
0001
0010
0000
0100
1000
0000
,
0001
0100
0010
1000
0001
0000
0010
0000
0100
1000
0001
0000
1000
0010
0100
0000
,
0001
0000
0000
1000
0000
0000
0100
0010
0001
0000
0000
1000
0001
0100
0010
0000
,
1000
0100
1000
0001
0100
0001
1000
0100
0010
0001
0000
0000
,
1100
0000
0000
0000
0001
1000
0001
0010
0100
0000
1000
0010
0000
0100
0001
0000
,
1000
0001
0010
0001
1000
0000
0100
0010
0100
0000
1000
0001
0000
0100
0010
0000
,
1000
0100
1000
0000
0001
0100
0001
0000
0010
0000
0100
1000
0000
0001
0100
0000
,
0001
0000
0000
0010
0000
0000
0100
0000
0000
0000
0000
0000
1000
0000
0000
0001
0000
0000
0100
0000
0000
0000
0000
0000
0001
0000
0000
0000
0010
0000
0000
0000
0100
0000
0000
0000
1000
0000
0000
0000
0100
0000
0000
0000
0010
0000
0000
0000
,
0001
0000
0100
0000
0010
1000
0001
0010
0100
0000
1000
0100
0000
1000
0001
0000
,
0010
0001
0100
0000
0010
1000
0100
0000
1000
0001
0100
0001
0010
0001
0100
0000
,
0010
0000
1000
0001
0010
0100
1000
0100
0010
0000
0001
1000
0000
0001
1000
0000
,
0010
0000
0000
0000
0000
0000
1000
0000
0000
0100
0000
0000
1000
0000
0000
0000
0000
0000
0001
0000
0000
0100
0000
0000
0001
0000
0000
0000
0000
0000
1000
0000
0000
0001
0000
0000
1000
0000
0000
0000
0100
0000
0000
0000
0010
0000
0000
0000
,
0001
0000
0100
0010
0100
0000
0010
0100
0020
0000
0000
0000
0130
0000
0000
0000
,
0110
0000
0000
1000
0001
0000
0000
0010
0001
0000
0100
0000
0010
1000
0000
0010
,
1000
0001
0000
1000
0100
0000
0010
0000
0001
0100
0001
0100
0010
1000
0000
0100
,
1000
0000
0001
0000
0010
0100
0010
0001
1000
0100
0000
1000
0001
0000
0100
0000
,
0010
1000
0001
1000
0100
0000
1000
0001
0100
0000
0010
0100
0010
0000
1000
0100
,
0010
0001
0000
0001
0100
0000
0010
1000
0100
0000
1000
0001
0010
0100
0000
0100
,
1000
0000
0001
0100
0010
1000
0000
1000
0100
0000
0010
0001
0100
0010
1000
0000
,
0001
0100
0010
0000
1000
0100
0010
0000
0001
1000
0100
0000
1000
0001
0010
0000
,
0001
0100
0010
1000
0001
0100
0010
1000
0002
0000
0000
0000
0003
0000
0101
0000
,
1100
0000
0000
0000
0000
0000
1000
0100
2000
0000
0000
0000
3000
0000
0001
0100
,
0002
0000
0000
0000
,
0000
0000
0000
0000
,
0000
0000
0000
0003
;

//---------------dance-single - ----------------
#NOTES:
     dance-single:
     :
     Challenge:
     18:
     :
0000
0000
0000
0000
,
0000
0000
0000
0000
,
0000
0000
0000
0000
,
0000
0000
0000
0000
,
0000
0000
0000
0000
,
1100
0001
0100
0010
0000
1000
0000
0001
,
0101
0000
0000
0000
0010
0000
0000
1000
0000
0001
0000
1000
0100
0000
0010
0000
,
0011
0000
2000
0000
0000
0000
3001
0100
0000
0100
0001
0000
1000
0000
0010
0000
,
1010
0000
0200
0000
0000
0000
0301
0010
0000
0010
0001
0000
1000
0000
0100
0000
,
0110
0000
0001
0000
0100
0000
0010
1000
0000
1000
0001
0000
1000
0000
0100
0000
,
0010
0001
0000
0001
0100
0000
0010
1000
0000
1000
0001
0000
1000
0000
0100
0000
,
0010
0001
0000
0100
0000
0000
0001
1000
0000
0010
0100
0000
0001
0000
1000
0000
,
1001
0000
0010
1000
0100
0000
0010
0000
0001
0100
0000
0001
1000
0000
0010
0000
,
0100
0001
0100
0001
0000
0000
0010
0100
0000
1000
0100
0010
0001
0000
0001
0000
,
0100
0010
0100
0010
0000
0000
1000
0001
0000
0001
0010
0100
1000
0000
1000
0000
,
0010
1000
0000
1000
0100
0000
0010
0001
0000
0001
1000
0001
0100
0000
0100
0000
,
0110
0000
1000
0010
1000
0000
0001
0010
0001
0000
1000
0100
1000
0000
0001
0000
,
0010
0100
1000
0100
0000
0000
0010
0001
0000
0001
1000
0001
1000
0010
0100
0001
,
1000
0100
1000
0100
0000
0010
0001
0100
0001
0010
0100
1000
0001
1000
0010
0000
,
0100
0001
0000
0001
0100
0000
0010
1000
0000
1000
0010
0000
0100
0000
0000
0000
,
1001
0000
0001
1000
0001
0000
0010
0100
0010
0000
0100
1000
0100
0000
0010
0000
,
0001
0100
0010
0100
0001
0000
1000
0100
0010
0001
0010
0100
1000
0000
1000
0000
,
0001
0010
0100
1000
0010
0000
0100
0001
0000
0001
0010
0100
1000
0001
1000
0100
,
0010
0001
0000
1000
0001
0000
1000
0100
0000
0100
0010
0100
1000
0000
0001
0000
,
0011
0000
0000
0000
0100
0000
1000
0010
1000
0000
0001
0010
0100
0010
0100
1000
,
0001
0100
0001
1000
0000
0010
0100
0010
1000
0100
0010
0001
0010
0100
1000
0000
,
0001
1000
0100
0010
0000
0001
0010
0001
1000
0010
0100
0010
1000
0100
0010
0001
,
0000
0100
0100
0010
1000
1000
0001
0010
0010
0100
0000
0000
,
1000
0010
0000
1000
0001
0000
0100
0000
0010
0000
1000
0000
0100
0010
0000
0010
,
0001
0000
1000
0000
0001
0000
0100
0000
0010
1000
0010
0100
0010
1000
0000
1000
,
0001
0000
0100
0000
0001
0010
0100
0010
0001
1000
0000
1000
0010
0000
0100
0000
,
0001
0010
0100
0010
0001
0100
0010
0100
0001
0000
1000
0000
0100
0010
0100
1000
,
0010
0100
0001
1000
0001
0000
0010
0000
0100
1000
0100
0010
0001
0100
0001
0010
,
0001
1000
0100
0000
1000
0010
0100
0010
1000
0100
0010
0001
0010
0100
1000
0000
,
0001
0010
0100
0010
0001
0100
0010
0100
0001
1000
0100
1000
0001
1000
0010
1000
,
0001
0010
0100
1000
0001
0100
0010
1000
0002
0000
0100
0000
0103
0000
0010
1000
,
0001
0200
0000
0000
0000
0000
0000
0000
0000
0000
0000
0000
0000
0000
0000
0000
,
0000
0000
0000
0000
,
0000
0300
0000
0000
0000
0000
0000
0000
0000
0000
0000
0000
0000
0000
0000
0000
,
0000
0000
0000
0000
,
0000
0000
0000
0000
,
1000
0100
0000
0010
0001
0000
0100
0010
0000
0010
1000
0010
1000
0001
0100
0000
,
0001
0010
0000
0100
1000
0000
0010
1000
0000
1000
0100
0010
0001
0100
0001
0000
,
1000
0001
0000
1000
0100
0000
0010
0000
0001
0100
0000
0010
1000
0000
0001
0000
,
1000
0100
0000
0100
0010
0000
0000
0001
1000
0001
0100
0010
1000
0000
0001
0000
,
1001
0000
0101
0000
,
1010
0000
0001
0010
0100
0010
0001
0100
0010
1000
0100
1000
0001
1000
0100
0000
,
0010
0001
0010
0001
1000
0010
0100
0010
1000
0100
0010
0001
0000
0001
1000
0000
,
0010
1000
0001
1000
0100
0010
0100
1000
0010
0100
0001
1000
0000
0001
0100
0000
,
0010
1000
0001
0010
0100
1000
0001
0100
0010
0000
1000
0001
0000
1000
0001
0000
,
1000
0100
0010
0001
0010
0100
1000
0100
0010
0001
0010
0100
1000
0001
0100
0000
,
0001
0010
0100
0010
0001
0100
0010
1000
0100
1000
0000
1000
0001
0100
0010
0000
,
1000
0001
0000
0010
0001
0000
0100
0010
1000
0001
0000
1000
0100
0010
0001
0000
,
1000
1000
1000
0001
0001
0001
1000
1000
0001
0001
1000
0001
,
0100
0000
0010
1000
0010
0100
0001
0010
0001
1000
0001
0100
0000
0010
1000
0000
,
0001
0010
0001
1000
0100
0010
0001
0100
0001
1000
0100
1000
0000
0001
0010
0000
,
0100
0010
0100
1000
0010
0100
0010
1000
0001
0010
0001
0010
0000
0001
1000
0000
,
0010
0000
0000
1000
0000
0000
0001
0000
0000
0100
0000
0000
0010
0000
0000
1000
0000
0000
0001
0000
0000
0100
0000
0000
0010
0000
0000
0000
1000
0000
0000
0000
0001
0000
0000
0000
0100
0000
0000
0000
0001
0000
0000
0000
1000
0000
0000
0000
,
0100
0000
0010
0001
1000
0001
0010
0001
0100
0010
0100
0001
0000
1000
0100
0000
,
0010
0001
0010
0100
1000
0100
0010
0001
0010
0100
1000
0100
0010
0100
1000
0000
,
1001
0000
0001
0010
0001
0000
0100
0010
1000
0000
0100
0010
0100
1000
0001
0000
,
0110
0000
0000
0000
0000
0000
1000
0000
0000
0001
0000
0000
0010
0000
0000
0000
0000
0000
0001
0000
0000
1000
0000
0000
0100
0000
0000
0000
0010
0000
0000
0000
0001
0000
0000
0000
1000
0000
0000
0000
0001
0000
0000
0000
0100
0000
0000
0000
,
0010
0000
0000
0000
0000
0000
1000
0000
0000
0001
0000
0000
1000
0000
0000
0000
0000
0000
0001
0000
0000
1000
0000
0000
0001
0000
0000
0000
0000
0000
1000
0000
0001
0000
1000
0000
0001
0000
0000
0000
0000
0000
0000
0000
0000
0000
0000
0000
,
0010
0001
0000
0001
1000
0010
0100
0000
0001
1000
0100
0000
0010
0000
0100
0010
,
0001
0100
0001
0010
0001
1000
0100
0000
1000
0010
1000
0010
0100
0001
0010
0100
,
1000
0000
0001
0000
0010
0100
1000
0010
1000
0001
0000
1000
0001
0010
0100
0000
,
1000
0010
0000
0100
0001
0010
0000
0001
1000
0000
0100
1000
0010
0100
0000
0100
,
0001
0010
0001
1000
0001
0000
0100
0000
0001
0010
0100
0010
0100
1000
0100
1000
,
0001
0000
0100
0000
0010
1000
0010
0100
0001
0010
0100
1000
0001
0000
1000
0100
,
0010
1000
0001
1000
0100
0001
0100
0001
0010
0100
0010
1000
0100
0001
0010
1000
,
0001
0010
1000
0100
1000
0001
0010
0100
1000
0001
1000
0000
0010
0000
0101
0000
,
1100
0000
0000
0000
0000
0000
0001
1000
0002
0000
0000
0000
0003
0000
0100
0010
,
0200
0000
0000
0000
,
0000
0000
0000
0000
,
0000
0000
0000
0300
;
