#VERSION:0.83;
#TITLE:BRILLIANT 2U;
#SUBTITLE:;
#ARTIST:NAOKI;
#TITLETRANSLIT:;
#SUBTITLETRANSLIT:;
#ARTISTTRANSLIT:;
#GENRE:;
#ORIGIN:;
#CREDIT:;
#BANNER:BRILLIANT 2U-bn.png;
#BACKGROUND:BRILLIANT 2U-bg.png;
#PREVIEWVID:;
#JACKET:BRILLIANT 2U-jacket.png;
#CDIMAGE:;
#DISCIMAGE:;
#LYRICSPATH:;
#CDTITLE:;
#MUSIC:BRILLIANT 2U.ogg;
#OFFSET:0.000000;
#SAMPLESTART:27.197001;
#SAMPLELENGTH:20.000000;
#SELECTABLE:YES;
#DISPLAYBPM:150.000000;
#BPMS:0.000=150.000;
#STOPS:;
#DELAYS:;
#WARPS:;
#TIMESIGNATURES:0.000=4=4;
#TICKCOUNTS:0.000=4;
#COMBOS:0.000=1;
#SPEEDS:0.000=1.000=0.000=0;
#SCROLLS:0.000=1.000;
#FAKES:;
#LABELS:0.000=Song Start;
#BGCHANGES:0.000=BRILLIANT 2U.avi=1.000=0=0=0=StretchNoLoop====,
207.000=BRILLIANT 2U-bg.png=1.000=1=0=0=StretchNoLoop==CrossFade==,
99999=-nosongbg-=1.000=0=0=0 // don't automatically add -songbackground-
;
#KEYSOUNDS:;
#ATTACKS:
;

//---------------dance-couple - ----------------
#NOTEDATA:;
#CHARTNAME:;
#STEPSTYPE:dance-couple;
#DESCRIPTION:;
#CHARTSTYLE:;
#DIFFICULTY:Easy;
#METER:4;
#RADARVALUES:0.257937,0.324653,0.081019,0.000000,0.000000,156.000000,149.000000,7.000000,0.000000,0.000000,0.000000,0.000000,0.000000,0.000000,0.257937,0.324653,0.081019,0.000000,0.000000,156.000000,149.000000,7.000000,0.000000,0.000000,0.000000,0.000000,0.000000,0.000000;
#CREDIT:;
#DISPLAYBPM:150.000000;
#NOTES:
00000000
00000000
00000000
00000000
,
00000000
00000000
00000000
00000000
,
00000000
00000000
00000000
00000000
,
00000000
00000000
00000000
00000000
,
00000000
00000000
00000000
00000000
,
00000000
00000000
00000000
00000000
,
00000000
00000000
00000000
00000000
,
00100010
00000010
00100001
00000001
,
00100100
00000100
00101000
00001000
,
10000010
00000000
10000010
00000000
,
00100010
00000000
01000100
00000000
10000001
00001000
01000100
00000000
,
00010000
00000010
00010000
00000100
,
00100010
10000001
00100010
00011000
,
00100010
00000000
01000100
00000000
10000001
00001000
01000100
00000000
,
00100000
00000010
00100000
00000100
,
00100010
10000001
00100010
00011000
,
00100010
00000000
01000100
00000000
00100010
00000001
00011000
00000000
,
10000010
01000100
00010010
00100110
,
00000000
01000100
00000000
01000100
,
00100010
01000000
00100010
01001001
,
10000000
00000100
10000100
00000100
,
00100100
00010001
01000010
10000110
,
00000000
00100010
00000010
00100010
,
00000010
01000100
00100010
10011001
,
00000000
00011000
00001000
00001000
,
00100010
00000000
00100010
00000000
,
00100010
01000100
01100110
00000000
,
00100010
00000000
00100010
00000000
,
10000001
01000100
00011000
00000000
,
00100010
01000100
10000001
01000100
,
00011000
01000100
10011001
00000000
,
00100010
01000100
00011000
00100010
,
10000001
00100010
10000001
01000100
,
00100001
00000000
00100001
00000000
,
00100010
00000000
01000100
00000000
10000001
00010000
01000100
00000000
,
00101000
10000000
01001000
00010000
,
00100010
10000001
00100010
00011000
,
00100010
00000000
01000100
00000000
10000001
00010000
01000100
00000000
,
00100010
10000000
01000010
00010000
,
00100010
10000001
00100010
00011000
,
00100010
00000000
01000100
00000000
00100010
10000000
00011000
00000000
,
00100001
01000100
00101000
01100010
,
00000000
01000100
10000000
01000100
,
00100010
01000100
00100010
10010100
,
00000001
00010000
01000001
10000000
,
00100010
10001000
00100100
01100001
,
00000000
10000010
01000000
00010010
,
00100000
01000100
00100010
10011001
,
00000000
00011000
00011000
00011000
,
01000100
01000100
00000000
00000000
00000000
00000000
00000000
10000001
,
10000001
10000001
00000000
10000001
10000001
10000001
10000001
10000001
,
10000001
00000000
00000000
00000000
;

//---------------dance-couple - ----------------
#NOTEDATA:;
#CHARTNAME:;
#STEPSTYPE:dance-couple;
#DESCRIPTION:;
#CHARTSTYLE:;
#DIFFICULTY:Medium;
#METER:5;
#RADARVALUES:0.333995,0.413194,0.428241,0.000000,0.000000,202.000000,165.000000,37.000000,0.000000,0.000000,0.000000,0.000000,0.000000,0.000000,0.330688,0.383681,0.405093,0.000000,0.000000,200.000000,165.000000,35.000000,0.000000,0.000000,0.000000,0.000000,0.000000,0.000000;
#CREDIT:;
#DISPLAYBPM:150.000000;
#NOTES:
00000000
00000000
00000000
00000000
,
00000000
00000000
00000000
00000000
,
00000000
00000000
00000000
00000000
,
00000000
00000000
00000000
00000000
,
00000000
00000000
00000000
00000000
,
00000000
00000000
00000000
00000000
,
00000000
00000000
00000000
00000000
,
00100010
00100010
00011000
01000100
,
10000001
10000001
01000100
00011000
,
00100010
00000000
00100010
00000000
,
00101010
00000000
01000101
00000000
00011000
10000001
01000100
00000000
,
00100010
00011000
00101010
10000100
,
00100010
10000001
00100010
10101000
,
10100010
00000000
01010100
00000000
10000001
00011000
01000100
00000000
,
00100010
10000001
10100010
01000100
,
00100010
00011000
00100010
00111001
,
00110010
00000000
11000100
00000000
00100010
00011000
10000001
00000000
,
00010000
11000000
00001000
00000101
,
00011000
11000101
10000001
01011100
,
00000001
00001100
10000000
01010000
,
10000001
01011100
00011000
11000101
,
00100000
00000100
00100010
01100110
,
00000010
10000000
01000100
10011001
,
00000010
00010000
01000100
10011001
,
00000000
10000001
10000001
10000001
,
00100010
01000100
10100011
11000101
,
00000010
00000100
00101001
01000000
,
00011000
10000001
00111010
10100011
,
00010000
10000000
01101000
00000001
,
01000100
00100010
01011100
00111010
,
00000100
00000010
00101001
01000000
,
10000001
00011000
11000101
00011000
,
10000001
00011000
11000101
01011100
,
00000010
00000010
00100000
00100000
,
00101010
00000000
01000101
00000000
00011000
10000001
01000100
00000000
,
00100010
00011000
00111010
01000100
,
00100010
10011001
00100010
10100011
,
10100010
00000000
01010100
00000000
10000001
00011000
01000100
00000000
,
00100010
00011000
10000011
01000100
,
00100010
10011001
00100010
00111000
,
00100010
00000000
01000100
00000000
00100010
00011000
10000001
00000000
,
00011000
01000100
10000001
01000100
,
00011000
11000100
10000001
01010100
,
10000001
01000100
00011000
01000100
,
10000001
01001100
00011000
01000101
,
00100000
00000100
00100000
01100110
,
00100010
00011000
01000100
10000001
,
00100010
00011000
01000100
10011001
,
00001000
10000000
00000001
10000000
,
01000100
10000001
00000000
00000000
00000000
00000000
00000000
01000100
,
10000001
00100010
00000000
10000001
01000100
10000001
00100010
10000001
,
00011000
00000000
00000000
00000000
;

//---------------dance-couple - ----------------
#NOTEDATA:;
#CHARTNAME:;
#STEPSTYPE:dance-couple;
#DESCRIPTION:;
#CHARTSTYLE:;
#DIFFICULTY:Hard;
#METER:6;
#RADARVALUES:0.438161,0.560764,0.462963,0.000000,0.040509,265.000000,225.000000,40.000000,0.000000,0.000000,0.000000,0.000000,0.000000,0.000000,0.438161,0.560764,0.462963,0.000000,0.040509,265.000000,225.000000,40.000000,0.000000,0.000000,0.000000,0.000000,0.000000,0.000000;
#CREDIT:;
#DISPLAYBPM:150.000000;
#NOTES:
00000000
00000000
00000000
00000000
,
00000000
00000000
00000000
00000000
,
00000000
00000000
00000000
00000000
,
00000000
00000000
00000000
00000000
,
00000000
00000000
00000000
00000000
,
00000000
00000000
00000000
00000000
,
00000000
00000000
00000000
00000000
,
00100010
00000000
00100010
00000000
00011000
01000100
00011000
00000000
,
10000001
00000000
10000001
00000000
01000100
10000001
00011000
00000000
,
00100010
00000000
01000100
00000000
00100010
00100010
00100010
00000000
,
00111010
00000000
11000101
00000000
00011000
10000001
01000100
00000000
,
00100010
00000000
00100010
00000000
00100010
10000001
01000100
00000000
,
00100010
00000000
10000001
00000000
00011000
00011000
10000001
00000000
,
10100011
00000000
01011100
00000000
11000101
01011100
11000101
00000000
,
00100010
00100010
10000001
00000000
10011001
00000000
11000101
00000000
,
00100010
00011000
00100010
10000001
,
00100010
10000001
01000100
00000000
00011000
01000100
10000001
00000000
,
00011000
10000001
10000001
10000001
,
00011000
11000101
01011100
11000101
,
00011000
01000100
01000100
01000100
,
11000101
01011100
11000101
01011100
,
01000100
00100010
01000100
00100010
,
10100011
00111010
10100011
00111010
,
01000100
10000001
01000100
00011000
,
10000001
10000001
10000001
10000001
,
00100010
00000000
01000100
00000000
00100010
10000001
00011000
00000000
01000100
00000000
00000000
00000000
00011000
00000000
00000000
00000000
,
00100010
00000000
01000100
00000000
00100010
10000001
00011000
00000000
01000100
00000000
00000000
00000000
00100010
00000000
00000000
00000000
,
00011000
00000000
10000001
00000000
00011000
10000001
01000100
00000000
00011000
00000000
00000000
00000000
01000100
00000000
00000000
00000000
,
10000001
00000000
00011000
00000000
10000001
00011000
01000100
00000000
10000001
00000000
00000000
00000000
01000100
00000000
00000000
00000000
,
00100010
00000000
01000100
00000000
00100010
10000001
00011000
00000000
01000100
00000000
00000000
00000000
00011000
00000000
00000000
00000000
,
00100010
00000000
01000100
00000000
00100010
10000001
00011000
00000000
01000100
00000000
00000000
00000000
00100010
00000000
00000000
00000000
,
00011000
00000000
10000001
00000000
00011000
10000001
01000100
00000000
00011000
00000000
00000000
00000000
01000100
00000000
00000000
00000000
,
00100010
00011000
01000100
10000001
00100010
00011000
01000100
10000001
,
00100010
00000000
01000100
00000000
00100010
00100010
00100010
00000000
,
00111010
00000000
11000101
00000000
00011000
10000001
01000100
00000000
,
00100010
00000000
00100010
00000000
00100010
10000001
01000100
00000000
,
00100010
00000000
10000001
00000000
00011000
00011000
10000001
00000000
,
10100011
00000000
01011100
00000000
11000101
01011100
11000101
00000000
,
00100010
00100010
10000001
00000000
10011001
00000000
11000101
00000000
,
01100110
00000000
10011001
00000000
01100110
00000000
00100010
01000100
,
00100010
01000100
00100010
10000001
,
00011000
01000100
10000001
01000100
,
00011000
00000000
11000101
00000000
01011100
00000000
10000001
01000100
,
00011000
01011100
11000101
01011100
,
10000001
00000000
00111010
00000000
10100011
00000000
00011000
00100010
,
10000001
01000100
00100010
01100110
,
00100010
00100010
01000100
10000001
,
00100010
00011000
01000100
10000001
,
00100010
00011000
01000100
10000001
,
01000100
10000001
01000100
00000000
10000001
00000000
01000100
00000000
,
10000001
00100010
01000100
00000000
01000100
10000001
00100010
10000001
,
00011000
00000000
00000000
00000000
;

//---------------dance-couple - ----------------
#NOTEDATA:;
#CHARTNAME:;
#STEPSTYPE:dance-couple;
#DESCRIPTION:;
#CHARTSTYLE:;
#DIFFICULTY:Challenge;
#METER:6;
#RADARVALUES:0.317460,0.501736,0.347222,0.000000,0.023148,192.000000,162.000000,30.000000,0.000000,0.000000,0.000000,0.000000,0.000000,0.000000,0.317460,0.501736,0.347222,0.000000,0.023148,192.000000,162.000000,30.000000,0.000000,0.000000,0.000000,0.000000,0.000000,0.000000;
#CREDIT:;
#DISPLAYBPM:150.000000;
#NOTES:
00000000
00000000
00000000
00000000
,
00000000
00000000
00000000
00000000
,
00000000
00000000
00000000
00000000
,
00000000
00000000
00000000
00000000
,
00000000
00000000
00000000
00000000
,
00000000
00000000
00000000
00000000
,
00000000
00000000
00000000
00000000
,
00100010
00000000
00100010
00000000
00010001
01000100
00010001
00000000
,
10001000
00000000
10001000
00000000
01000100
10001000
00010001
00000000
,
00100000
00000000
01000001
00000000
00100000
00100000
00100001
00000000
,
00110000
00000000
11000001
00000000
00010000
10000000
01000001
00000000
,
00000010
00000000
10000100
00000000
00000010
00000010
10000010
00000000
,
00000011
00000000
10001100
00000000
00000001
00001000
10000100
00000000
,
10101010
00000000
01010101
00000000
10001000
00010001
11001100
00000000
,
00100010
00100010
10001000
00000000
10011001
00000000
11001100
00000000
,
00100010
00010001
00100010
10001000
,
00100010
10001000
01000100
00000000
00010001
01000100
10001000
00000000
,
10010000
00001001
01000000
00000100
,
10010000
00001001
10010000
00001001
,
00000100
01000000
00001000
00010000
,
00000101
11000000
00000101
11000000
,
00000001
10000000
00001000
00010000
,
00001100
01010000
00001010
00110000
,
01000100
01000100
01000100
01000100
,
00100010
10001000
01000100
00000000
00010001
10001000
11001100
00000000
,
00100000
00000000
01000000
00000000
00100001
10000000
00000000
00000000
00010000
00000000
00000000
00000000
01000001
00000000
00000000
00000000
,
00100000
00000000
01000000
00000000
00100001
10000000
00000000
00000000
01000000
00000000
00000000
00000000
00100001
00000000
00000000
00000000
,
00000010
00000000
00000100
00000000
10000010
00001000
00000000
00000000
00000001
00000000
00000000
00000000
10000100
00000000
00000000
00000000
,
00000010
00000000
00000100
00000000
10000010
00001000
00000000
00000000
00000100
00000000
00000000
00000000
10000010
00000000
00000000
00000000
,
00010000
00000000
10000000
00000000
00010000
10000000
00000000
00000000
00010000
00000000
00000000
00000000
01000000
00000000
00000000
00000000
,
00000001
00000000
00001000
00000000
00000001
00001000
00000000
00000000
00000001
00000000
00000000
00000000
00000100
00000000
00000000
00000000
,
10001000
00000000
01000100
00000000
01000100
10001000
00000000
00000000
00010001
00000000
00000000
00000000
01000100
00000000
00000000
00000000
,
01000100
01000100
01000100
10011001
,
00100000
00000000
01000001
00000000
00100000
00100000
00100001
00000000
,
00110000
00000000
11000001
00000000
00010000
10000000
01000001
00000000
,
00000010
00000000
10000100
00000000
00000010
00000010
10000010
00000000
,
00000011
00000000
10001100
00000000
00000001
00001000
10000100
00000000
,
10101010
00000000
01010101
00000000
10001000
00010001
11001100
00000000
,
00100010
00100010
10001000
00000000
10011001
00000000
11001100
00000000
,
01100110
00000000
10011001
00000000
01100110
00000000
00100010
01000100
,
00100010
01000100
00100010
10011001
,
00010000
01000000
10000000
01000000
,
00010000
00000000
11000000
00000000
01010000
00000000
10000000
01000000
,
00010001
00000100
00001000
00000100
,
00000001
00000000
00001100
00000000
00000101
00000000
00001000
00000100
,
10000001
01000000
00100000
01100000
,
00100000
00100000
01000000
10000000
,
00000001
00000100
00000010
00000110
,
00000010
00000010
00000100
00000001
,
01000100
10001000
01000100
00000000
10001000
00000000
01000100
00000000
,
10001000
00100010
01000100
00000000
01000100
10001000
00100010
10001000
,
00010001
00000000
00000000
00000000
;

//---------------dance-solo - ----------------
#NOTEDATA:;
#CHARTNAME:;
#STEPSTYPE:dance-solo;
#DESCRIPTION:;
#CHARTSTYLE:;
#DIFFICULTY:Easy;
#METER:4;
#RADARVALUES:0.277778,0.324653,0.115741,0.000000,0.000000,168.000000,158.000000,10.000000,0.000000,0.000000,0.000000,0.000000,0.000000,0.000000,0.277778,0.324653,0.115741,0.000000,0.000000,168.000000,158.000000,10.000000,0.000000,0.000000,0.000000,0.000000,0.000000,0.000000;
#CREDIT:;
#DISPLAYBPM:150.000000;
#NOTES:
000000
000000
000000
000000
,
000000
000000
000000
000000
,
000000
000000
000000
000000
,
000000
000000
000000
000000
,
000000
000000
000000
000000
,
000000
000000
000000
000000
,
000000
000000
000000
000000
,
000010
000010
100000
100000
,
000001
000001
010000
010000
,
000100
000000
000100
000000
,
000100
000000
001000
000000
000001
100000
001000
000000
,
010000
000000
000001
001000
,
000100
100000
000010
010000
,
000001
000000
000100
000000
001000
100000
001000
000000
,
000100
000000
010000
001000
,
000100
000001
000010
001000
,
000100
000000
000001
000000
010000
000010
100000
000000
,
000100
001000
000100
001100
,
000000
001000
000000
001000
,
000010
000000
010000
100001
,
000000
001000
001000
001000
,
001000
000010
000100
001100
,
000000
000100
000100
000100
,
000100
001000
000010
100001
,
000000
010000
010000
010000
,
000010
000000
000010
000000
,
000100
001000
001100
000000
,
000010
000000
000010
000000
,
000001
001000
100000
000000
,
000100
001000
000001
100000
,
000010
001000
100001
000000
,
000100
001000
100000
000100
,
010000
000010
001000
000001
,
000100
000000
000100
000000
,
000100
000000
001000
000000
010000
000001
001000
000000
,
000100
100000
001000
010000
,
000100
000001
000100
100000
,
000010
000000
001000
000000
000100
100000
001000
000000
,
010000
000001
001000
000010
,
100000
000100
001000
000001
,
100000
000000
001000
000000
010000
000001
001000
000000
,
000100
100000
000001
001100
,
000000
001000
000001
001000
,
000010
001000
000100
100001
,
000000
010000
001000
000100
,
000001
010000
000100
100001
,
000000
000010
001000
000100
,
100000
001000
000100
100001
,
000000
010000
010000
010000
,
000010
000000
000100
000000
,
001000
001000
001000
001000
,
001000
000000
000000
000000
;

//---------------dance-solo - ----------------
#NOTEDATA:;
#CHARTNAME:;
#STEPSTYPE:dance-solo;
#DESCRIPTION:;
#CHARTSTYLE:;
#DIFFICULTY:Medium;
#METER:5;
#RADARVALUES:0.365410,0.413194,0.520833,0.000000,0.000000,221.000000,176.000000,45.000000,0.000000,0.000000,0.000000,0.000000,0.000000,0.000000,0.365410,0.413194,0.520833,0.000000,0.000000,221.000000,176.000000,45.000000,0.000000,0.000000,0.000000,0.000000,0.000000,0.000000;
#CREDIT:;
#DISPLAYBPM:150.000000;
#NOTES:
000000
000000
000000
000000
,
000000
000000
000000
000000
,
000000
000000
000000
000000
,
000000
000000
000000
000000
,
000000
000000
000000
000000
,
000000
000000
000000
000000
,
000000
000000
000000
000000
,
010000
010000
000001
001000
,
000010
000010
100000
000001
,
000100
000000
000100
000000
,
010010
000000
100100
000000
000001
001000
000100
000000
,
100000
000001
000110
001000
,
010000
000001
000100
010100
,
000110
000000
100001
000000
010000
001000
000100
000000
,
000001
100000
010100
000001
,
000100
000001
010000
000110
,
010100
000000
101000
000000
000100
000001
100000
000000
,
000010
001000
000100
100000
,
000001
011000
000100
100001
,
001000
000100
000001
001000
,
000100
100001
001000
010001
,
000010
000100
001000
001100
,
010000
000001
001000
000100
,
100000
000001
001000
100010
,
000000
010000
010000
010000
,
000001
000100
011000
100001
,
000100
001000
100001
000000
,
000010
010000
000101
100100
,
000001
001000
100100
000000
,
001000
010000
100001
001010
,
000100
100000
010010
000000
,
000100
000001
011000
100001
,
001000
000010
100100
001001
,
000100
000000
000100
000000
,
010010
000000
000101
000000
001000
010000
001000
000000
,
000001
100000
001010
000100
,
100000
010010
000100
100001
,
100001
000000
001010
000000
100000
000001
000100
000000
,
001000
100000
001001
000100
,
001000
100001
010000
000110
,
001000
000000
010000
000000
000001
000100
001000
000000
,
100000
000001
001000
000100
,
100000
001010
100000
001001
,
100000
001000
000100
001000
,
010000
100001
000100
001010
,
100000
000001
000100
001100
,
010000
000001
100000
000010
,
001000
000100
001000
100001
,
000000
000010
000010
000010
,
001000
000100
000000
000000
000000
000000
000000
100000
,
001000
000100
000000
000001
001000
000010
000100
000001
,
100000
000000
000000
000000
;

//---------------dance-solo - ----------------
#NOTEDATA:;
#CHARTNAME:;
#STEPSTYPE:dance-solo;
#DESCRIPTION:;
#CHARTSTYLE:;
#DIFFICULTY:Hard;
#METER:7;
#RADARVALUES:0.429894,0.472222,0.405093,0.000000,0.040509,260.000000,225.000000,35.000000,0.000000,0.000000,0.000000,0.000000,0.000000,0.000000,0.429894,0.472222,0.405093,0.000000,0.040509,260.000000,225.000000,35.000000,0.000000,0.000000,0.000000,0.000000,0.000000,0.000000;
#CREDIT:;
#DISPLAYBPM:150.000000;
#NOTES:
000000
000000
000000
000000
,
000000
000000
000000
000000
,
000000
000000
000000
000000
,
000000
000000
000000
000000
,
000000
000000
000000
000000
,
000000
000000
000000
000000
,
000000
000000
000000
000000
,
010000
000000
010000
000000
000001
001000
000001
000000
,
100000
000000
100000
000000
001000
010000
000001
000000
,
000100
000000
001000
000000
000100
000100
000100
000000
,
010001
000000
100100
000000
001000
000010
100000
000000
,
000100
000000
000100
000000
000100
010000
001000
000000
,
000100
000000
100000
000000
000001
000001
010000
000000
,
100010
000000
001001
000000
100000
001000
011000
000000
,
000100
000100
001000
000000
100001
000000
011000
000000
,
000100
000001
000100
001000
,
010000
000001
001000
000000
000010
001000
100000
000000
,
000001
001000
001000
001000
,
000001
101000
001010
010100
,
000001
001000
001000
001000
,
101000
010001
000110
010001
,
001000
000100
000001
000010
,
001100
110000
101000
000101
,
001000
100000
001000
000001
,
010000
010000
010000
010000
,
000100
000000
001000
000000
000100
001000
000001
000000
100000
000000
000000
000000
001000
000000
000000
000000
,
010000
000000
100000
000000
010000
100000
000100
000000
001000
000000
000000
000000
000010
000000
000000
000000
,
000001
000000
100000
000000
000001
100000
001000
000000
000100
000000
000000
000000
000001
000000
000000
000000
,
100000
000000
000001
000000
100000
000001
001000
000000
000100
000000
000000
000000
010000
000000
000000
000000
,
000010
000000
000100
000000
000010
000100
001000
000000
100000
000000
000000
000000
000001
000000
000000
000000
,
001000
000000
000010
000000
001000
000010
100000
000000
000100
000000
000000
000000
001000
000000
000000
000000
,
000001
000000
100000
000000
000001
100000
001000
000000
000100
000000
000000
000000
000010
000000
000000
000000
,
010000
000001
000100
001000
000010
001000
000100
000001
,
010000
000000
001000
000000
100000
100000
100000
000000
,
010001
000000
000110
000000
000001
010000
001000
000000
,
000100
000000
000100
000000
000100
000001
001000
000000
,
000100
000000
100000
000000
000010
000010
010000
000000
,
100100
000000
001001
000000
100000
001000
000001
000000
,
010000
010000
000001
000000
100010
000000
001100
000000
,
100001
000000
010010
000000
001100
000000
000100
001000
,
000100
001000
000100
010000
,
000010
001000
100000
001000
,
000001
000000
011000
000000
001010
000000
100000
001000
,
000010
100001
001010
000101
,
100000
000000
011000
000000
100001
000000
000010
000100
,
001000
010000
000100
001010
,
000100
000100
001000
100000
,
000100
001000
000010
100000
,
001000
000100
000001
010000
,
001000
100000
001000
000000
100000
000000
000010
000000
,
001000
000100
001000
000000
010000
100000
000100
001000
,
000010
000000
000000
000000
;

//---------------dance-single - ----------------
#NOTEDATA:;
#CHARTNAME:;
#STEPSTYPE:dance-single;
#DESCRIPTION:;
#CHARTSTYLE:;
#DIFFICULTY:Hard;
#METER:14;
#RADARVALUES:0.586971,0.705440,0.393519,0.335648,0.596065,355.000000,321.000000,34.000000,29.000000,0.000000,0.000000,0.000000,0.000000,0.000000,0.586971,0.705440,0.393519,0.335648,0.596065,355.000000,321.000000,34.000000,29.000000,0.000000,0.000000,0.000000,0.000000,0.000000;
#CREDIT:;
#DISPLAYBPM:150.000000;
#NOTES:
0000
0000
0000
0000
,
0000
0000
0000
0000
,
0000
0000
0000
0000
,
0000
0000
0000
0000
,
0000
0000
0000
0000
,
1000
0000
0000
0010
0000
0000
0001
0000
0000
0100
0000
0000
1000
0000
0000
0000
,
0001
0000
0000
0010
0000
0000
1000
0000
0000
0100
0000
0000
0001
0000
0000
0000
,
1000
0000
0000
0001
0000
0000
0010
0000
0000
0001
0000
0000
2000
0000
0200
0000
,
0000
0000
0000
0000
0000
0000
0000
0000
0000
0000
0000
0000
3300
0000
1000
0001
,
1000
0000
0000
0010
0000
0000
1000
0000
0000
0100
0000
0000
0001
0000
0000
0000
,
0000
0000
0000
0000
0010
0001
0000
0000
1000
0000
1000
0000
1000
0001
0100
0000
,
1001
0000
0000
0000
0110
0000
0000
0000
1001
0000
1000
0001
1000
0100
0000
0000
,
1001
0000
0010
0000
0100
0000
0001
1000
0001
0010
0100
1000
0000
0001
0000
0100
,
0000
0000
0000
0001
0000
0000
0010
0000
0000
1000
0000
0000
0100
0000
0000
0000
,
1000
0000
1000
0000
1000
0000
0000
0000
0001
0010
0000
0001
0100
0000
0000
0000
,
0101
0000
1100
0000
0101
0000
1000
0100
,
0010
0001
0100
0001
0010
0000
1000
0000
1000
0000
0100
0000
1000
0000
0001
0000
,
0020
0000
0000
0032
0000
0000
0203
0000
0000
0310
0000
0010
1000
0000
0001
0000
,
0011
0000
1100
0000
0011
0000
1000
1000
,
2000
0000
0000
3002
0000
0000
0023
0000
0000
0130
0000
0100
1000
0000
0001
0000
,
0101
0000
1010
0000
0101
0000
0010
0010
,
0020
0000
0000
2030
0000
0000
3200
0000
0000
0310
0000
0010
0001
0000
1000
0000
,
1001
0000
0110
0000
1001
0000
0100
0100
,
0200
0000
0000
0302
0000
0000
2003
0000
0000
3010
0000
0010
0100
0000
0001
0000
,
1000
0010
0100
0010
1000
0000
0001
0000
0001
0000
0100
0000
0010
0000
1000
0000
,
0001
0000
0010
0000
0001
0100
0000
1000
0000
2000
0000
0000
0000
3010
1000
0010
,
0100
0000
0100
0000
0100
0001
0000
0020
0000
0000
0000
0000
0000
0000
0000
0000
,
0031
0000
1000
0000
0010
1000
0000
0100
0000
0200
0000
0000
0000
0310
0001
0010
,
0100
0000
0100
0000
0100
1000
0000
0002
0000
0000
0000
0000
0000
0000
1003
0100
,
1000
0000
0010
0000
1000
0001
0000
0100
0000
0200
0000
0000
0000
0301
0010
0001
,
1000
0000
1000
0000
1000
0100
0000
0020
0000
0000
0000
0000
0000
0000
0001
0000
,
0031
0000
0010
0000
0100
1000
0000
0010
0000
0020
0000
0000
0000
0000
0000
0000
,
0130
0001
0100
0001
0100
0001
0100
0001
0100
0001
0100
0001
0100
0001
0100
0001
,
0100
0000
0000
0010
0000
0000
1000
0000
0000
0100
0000
0000
0001
0000
0000
0000
,
0000
0000
0000
0000
0010
0100
0000
0000
1000
0000
1000
0000
1000
0001
0100
0000
,
0110
0000
0000
0000
1001
0000
0000
0000
0110
0000
1000
0001
0100
0010
0000
0000
,
1001
0000
0010
0000
1000
0000
0100
0010
0001
0100
0001
1000
0000
0010
0000
0100
,
0000
0000
0000
0001
0000
0000
0010
0000
0000
1000
0000
0000
0100
0000
0000
0000
,
0001
0000
0001
0000
0001
0000
0000
0000
1000
0010
0000
1000
0100
0000
0000
0000
,
0011
0000
1010
0000
0011
0000
1000
0100
,
0010
0001
1000
0001
0010
0000
0100
0000
0100
0000
0100
0000
1000
0000
0001
0000
,
0020
0000
0000
0032
0000
0000
0103
0000
0010
1000
0000
0010
1000
0000
0001
0000
,
0101
0000
0011
0000
0101
0000
0100
0100
,
0200
0000
0000
0320
0000
0000
1030
0000
0001
0010
0000
0001
0010
0000
0100
0000
,
1100
0000
0110
0000
1100
0000
0001
0001
,
0002
0000
0000
2003
0000
0000
3100
0000
0010
0001
0000
0010
0001
0000
0100
0000
,
1010
0000
0000
0000
1100
0000
0000
0000
1010
0000
0100
0001
1000
0001
0000
0000
,
0010
0000
0010
0000
0010
0000
0000
0000
0001
0100
0000
0010
0100
0000
0000
0000
,
0001
0000
0001
0000
0001
0000
0000
0000
1100
0000
0000
0000
0010
1000
0100
0000
,
1000
0001
0100
0000
0001
0000
1000
0010
,
1000
0000
0100
0000
0010
0000
0001
0000
0100
0000
0010
0000
1000
0001
0100
0000
,
2002
0000
0000
0000
,
0000
0000
0000
0000
,
3003
0000
0000
0000
;

//---------------dance-single - ----------------
#NOTEDATA:;
#CHARTNAME:;
#STEPSTYPE:dance-single;
#DESCRIPTION:;
#CHARTSTYLE:;
#DIFFICULTY:Medium;
#METER:10;
#RADARVALUES:0.411706,0.460069,0.092593,0.127315,0.248843,249.000000,241.000000,8.000000,11.000000,0.000000,0.000000,0.000000,0.000000,0.000000,0.411706,0.460069,0.092593,0.127315,0.248843,249.000000,241.000000,8.000000,11.000000,0.000000,0.000000,0.000000,0.000000,0.000000;
#CREDIT:;
#DISPLAYBPM:150.000000;
#NOTES:
0000
0000
0000
0000
,
0000
0000
0000
0000
,
0000
0000
0000
0000
,
0000
0000
0000
0000
,
0000
0000
0000
0000
,
1000
0000
0001
0000
0010
0001
0100
0000
,
0010
0000
1000
0000
0100
0010
0001
1000
,
0001
0000
0010
0000
0001
0000
2000
0200
,
0000
0000
0000
3300
,
1000
0000
0000
0010
0000
0000
1000
0000
0000
0001
0000
0000
0100
0000
0000
0000
,
0000
0000
0010
0000
1000
0001
0100
0000
,
0001
0000
0000
0010
0000
0000
0001
0000
0000
1000
0000
0000
0100
0000
0000
0000
,
1000
0010
1000
0000
0001
0010
0001
0000
,
0100
0000
0000
0010
0000
0000
1000
0000
0000
0001
0000
0000
0100
0000
0000
0000
,
0001
1000
0001
0000
0011
0000
1010
0000
,
0100
0000
0000
0001
0000
0000
0100
0000
0000
0010
0000
0000
1000
0000
0000
0000
,
0001
0000
0010
0000
0001
0000
0000
0100
0000
0000
0010
0000
1000
0000
0001
0000
,
1000
0000
0000
0010
0000
0000
1000
0000
0000
0001
0000
0000
0010
0000
0100
0000
,
1000
0000
1000
0000
1000
0000
0001
1000
,
0100
0000
0000
0010
0000
0000
0100
0000
0000
1000
0000
0000
0001
0000
0010
0000
,
0001
0000
0001
0000
0001
0000
1000
0001
,
0010
0000
0000
0001
0000
0000
0100
0000
0000
0001
0000
0000
1000
0000
0010
0000
,
0100
0000
0100
0000
0100
0000
0001
1000
,
0100
0000
0000
0010
0000
0000
0001
0000
0000
1000
0000
0000
0001
0000
0100
0000
,
0010
1000
0001
0000
1000
0100
0001
0000
,
0010
0000
0001
0000
0100
0000
0000
0010
0000
2000
0000
0000
0000
0000
0000
0000
,
3001
0000
1000
0000
0100
0000
0000
0020
0000
0000
0000
0000
0000
0000
0000
0000
,
0031
0000
1000
0000
0001
0000
0000
0100
0000
0020
0000
0000
0000
0000
0000
0000
,
1030
0000
0010
0000
0100
0000
0000
0002
0000
0000
0000
0000
0000
0000
0013
0000
,
0001
0000
1000
0000
0001
0000
0000
0010
0000
0200
0000
0000
0000
0000
0000
0000
,
1300
0000
0001
0000
0010
0000
0000
0200
0000
0000
0000
0000
0000
0000
0000
0000
,
0310
0000
0100
0000
0010
0000
0000
0001
0000
2000
0000
0000
0000
0000
0000
0000
,
3001
0100
0010
1000
0001
0010
0100
1000
,
0010
0000
0000
0010
0000
0000
1000
0000
0000
0001
0000
0000
0100
0000
0000
0000
,
0000
0000
0001
0000
1000
0100
0010
0000
,
0001
0000
0000
0001
0000
0000
0100
0000
0000
0010
0000
0000
1000
0000
0000
0000
,
0100
1000
0001
0000
0010
0001
0100
0000
,
1000
0000
0000
1000
0000
0000
0010
0000
0000
0100
0000
0000
0001
0000
0000
0000
,
0010
0001
0100
0000
0101
0000
1100
0000
,
0100
0000
0000
0100
0000
0000
1000
0000
0000
0001
0000
0000
0010
0000
0000
0000
,
0001
0000
0010
0000
0100
0000
0000
1000
0000
0000
0010
0000
1000
0000
0001
0000
,
0100
0000
0000
0010
0000
0000
0100
0000
0000
0001
0000
0000
1000
0000
0010
0000
,
1000
0000
0100
0000
0001
0000
0010
0001
,
0100
0000
0000
0010
0000
0000
1000
0000
0000
0010
0000
0000
0100
0000
0001
0000
,
0010
0000
0001
0000
0100
0000
1000
0001
,
1000
0000
0000
0010
0000
0000
0100
0000
0000
0001
0000
0000
0010
0000
0001
0000
,
0100
0000
0010
0000
1000
0001
0100
0000
,
0010
1000
0100
0000
0011
0000
1100
0000
,
0001
0010
1000
0000
0110
0000
1000
0001
,
1000
0100
0000
0000
0000
0000
0000
0010
,
0001
0100
0000
0010
1000
0001
1000
0001
,
2002
0000
0000
0000
,
0000
0000
0000
0000
,
3003
0000
0000
0000
;

//---------------dance-single - ----------------
#NOTEDATA:;
#CHARTNAME:;
#STEPSTYPE:dance-single;
#DESCRIPTION:;
#CHARTSTYLE:;
#DIFFICULTY:Easy;
#METER:7;
#RADARVALUES:0.350529,0.429398,0.509259,0.115741,0.000000,212.000000,168.000000,44.000000,10.000000,0.000000,0.000000,0.000000,0.000000,0.000000,0.350529,0.429398,0.509259,0.115741,0.000000,212.000000,168.000000,44.000000,10.000000,0.000000,0.000000,0.000000,0.000000,0.000000;
#CREDIT:;
#DISPLAYBPM:150.000000;
#NOTES:
0000
0000
0000
0000
,
0000
0000
0000
0000
,
0000
0000
0000
0000
,
0000
0000
0000
0000
,
0000
0000
0000
0000
,
1000
0001
0000
0010
,
0000
0001
0000
0100
,
0000
0010
0000
2000
,
0002
0000
0000
3003
,
0010
0010
0001
0100
,
0000
0010
1000
0001
,
1001
0110
1001
0100
,
1001
0100
0001
0010
,
0100
0100
1000
0001
,
0010
0010
0011
1100
,
1001
0110
1001
0100
,
0010
1000
0010
0100
,
0001
0001
0001
1000
,
1100
0101
1100
0010
,
0100
0001
0010
0001
,
0011
1100
0011
1000
,
0100
0100
0010
0010
,
0011
0101
0011
0001
,
0001
0010
0001
0100
,
1000
1000
1000
0000
,
0010
1000
0200
0000
,
0310
0001
0200
0000
,
0301
0010
0002
0000
,
1003
0010
1000
0001
,
1000
0100
0020
0000
,
0031
1000
0020
0000
,
1030
0100
2000
0000
,
3010
0010
0010
0010
,
1000
0100
1000
0001
,
0000
0010
0001
0100
,
0110
1001
0110
1000
,
0110
0001
0010
1000
,
0100
1000
0001
0001
,
0100
0010
1010
0101
,
1001
0110
1001
0010
,
1000
0100
0001
0010
,
0100
0100
1000
0001
,
0101
1010
0101
1000
,
0001
0010
0001
0100
,
0110
0101
0110
0010
,
1000
0100
1000
0010
,
1001
1010
1001
0100
,
0001
0001
0011
1010
,
0100
0100
0110
1001
,
1100
0001
0001
0001
,
0011
0100
1010
0100
,
2002
0000
0000
0000
,
0000
0000
0000
0000
,
3003
0000
0000
0000
;

//---------------dance-single - ----------------
#NOTEDATA:;
#CHARTNAME:;
#STEPSTYPE:dance-single;
#DESCRIPTION:;
#CHARTSTYLE:;
#DIFFICULTY:Beginner;
#METER:3;
#RADARVALUES:0.195106,0.236111,0.277778,0.000000,0.000000,118.000000,94.000000,24.000000,0.000000,0.000000,0.000000,0.000000,0.000000,0.000000,0.195106,0.236111,0.277778,0.000000,0.000000,118.000000,94.000000,24.000000,0.000000,0.000000,0.000000,0.000000,0.000000,0.000000;
#CREDIT:;
#DISPLAYBPM:150.000000;
#NOTES:
0000
0000
0000
0000
,
0000
0000
0000
0000
,
0000
0000
0000
0000
,
0000
0000
0000
0000
,
0000
0000
0000
0000
,
1000
0000
0000
0000
,
0001
0000
0000
0000
,
0100
0000
0000
0000
,
0010
0000
0000
0000
,
1000
0000
0000
1000
,
0000
0010
0010
0000
,
1001
0000
0110
0000
,
1001
0000
0001
0000
,
0100
0000
0000
0000
,
0010
0010
0010
0000
,
1001
0000
0110
0000
,
1000
1000
1000
0000
,
0001
0000
1000
0000
,
1001
0000
0110
0000
,
0100
0000
0010
0000
,
0110
0000
1001
0000
,
0001
0000
0010
0000
,
1001
0000
0110
0000
,
1000
0000
0100
0000
,
0001
0001
0001
0000
,
0010
0000
0001
0000
,
0100
0000
0010
0000
,
1000
0000
0100
0000
,
1000
0000
0001
0000
,
0100
0000
0010
0000
,
0100
0000
0001
0000
,
0010
0000
0100
0000
,
1000
1000
1000
1000
,
1000
0000
0000
0001
,
0000
0100
0100
0000
,
0110
0000
1001
0000
,
0110
0000
1000
0000
,
0100
0000
0000
0000
,
0010
0010
0010
0000
,
1001
0000
0110
0000
,
0001
0001
0001
0000
,
0010
0000
0001
0000
,
1001
0000
0110
0000
,
1000
0000
0100
0000
,
0110
0000
1001
0000
,
0010
0000
1000
0000
,
1001
0000
0110
0000
,
1000
0000
0001
0000
,
0100
0100
0100
0000
,
0110
0000
0000
0000
,
1000
0000
0001
0000
,
1001
0000
0000
0000
;

//---------------dance-single - ----------------
#NOTEDATA:;
#CHARTNAME:;
#STEPSTYPE:dance-single;
#DESCRIPTION:;
#CHARTSTYLE:;
#DIFFICULTY:Challenge;
#METER:15;
#RADARVALUES:0.791997,0.858796,0.092593,0.092593,1.111111,479.000000,471.000000,8.000000,8.000000,0.000000,0.000000,0.000000,0.000000,0.000000,0.791997,0.858796,0.092593,0.092593,1.111111,479.000000,471.000000,8.000000,8.000000,0.000000,0.000000,0.000000,0.000000,0.000000;
#CREDIT:;
#DISPLAYBPM:150.000000;
#NOTES:
// measure 0
0000
0000
0000
0000
,  // measure 1
0000
0000
0000
0000
,  // measure 2
0000
0000
0000
0000
,  // measure 3
0000
0000
0000
0000
,  // measure 4
0000
0000
0000
0000
,  // measure 5
1000
0000
0000
0001
0010
0000
0100
0000
0000
1000
0001
0000
0100
0000
0000
0000
,  // measure 6
0010
1000
0000
0010
0100
0000
0001
0000
0000
1000
0001
0000
0010
0000
0100
0000
,  // measure 7
1000
0010
0000
1000
0010
0000
0100
0000
0000
0001
0000
0000
0010
0000
0200
0000
,  // measure 8
1000
0000
0000
0001
0000
0000
0010
0000
0000
0001
0000
0000
1300
0000
0001
0100
,  // measure 9
0001
0000
0000
0010
0100
0000
1000
0000
0000
0010
0000
1000
0001
0000
0000
0000
,  // measure 10
0100
0000
0001
0000
0010
0100
0000
0100
1000
0000
0001
1000
0000
0001
0100
0000
,  // measure 11
0001
0010
0000
0010
0100
0000
1000
0001
0000
1000
0010
0000
0100
0000
0000
0000
,  // measure 12
1001
0000
0010
0000
1000
0000
0100
0010
0001
0100
0001
0010
0001
1000
0010
0100
,  // measure 13
0001
0000
0000
0010
0100
0000
1000
0000
0001
0100
0000
0001
1000
0000
0000
0000
,  // measure 14
0010
0000
0010
0000
0010
1000
0000
0010
0100
0001
0000
1000
0100
0000
0010
0000
,  // measure 15
0011
0000
0000
1000
0100
0000
0010
0001
0000
1000
0001
0000
0100
0000
0100
0000
,  // measure 16
0010
1000
0010
1000
0001
0010
0001
0010
0100
1000
0100
1000
0001
0100
0001
0100
,  // measure 17
0010
0000
1000
0100
0000
0010
0001
0000
0100
0010
0000
1000
0001
0000
0010
0000
,  // measure 18
0100
1000
0000
0100
1000
0000
0100
0010
0000
0010
0001
0000
1000
0000
0001
0000
,  // measure 19
0100
0000
0001
0010
0000
0010
0100
0000
1000
0010
0000
0100
0001
0000
1000
0000
,  // measure 20
0001
0010
0000
0001
0010
0000
0001
1000
0000
1000
0010
0000
1000
0000
0100
0000
,  // measure 21
0001
0000
0010
0001
0000
1000
0010
0000
1000
0100
0000
0100
0010
0000
0001
0000
,  // measure 22
0100
0010
0000
1000
0010
0000
0100
0001
0000
1000
0001
0000
1000
0000
0100
0000
,  // measure 23
0010
0001
0000
0001
1000
0000
0001
0100
0000
0100
0010
0000
1000
0000
0001
0000
,  // measure 24
1000
0100
1000
0100
0010
0001
0010
0001
0100
0010
0100
0010
1000
0001
1000
0001
,  // measure 25
0010
0000
0001
0000
0100
0010
0000
1010
0000
0202
0000
0300
0000
1003
0010
0100
,  // measure 26
0001
0000
0001
0000
0010
0100
0000
2000
0001
0000
0000
0000
0001
0000
0000
0000
,  // measure 27
3001
0000
0100
0000
0010
1000
0000
1100
0000
0022
0000
0030
0000
1003
0100
0010
,  // measure 28
0001
0000
0001
0000
0001
0100
0010
1000
0100
0000
1000
0000
0001
0000
0100
0010
,  // measure 29
1000
0000
0001
0000
0010
0100
0000
1000
0100
0010
0000
0010
0001
0000
1000
0001
,  // measure 30
1000
0000
0010
0000
1000
0100
0000
0010
0001
0100
0000
0001
1000
0000
0010
0000
,  // measure 31
1000
0000
0100
0000
1000
0001
0000
0010
0001
0100
0000
0010
1000
0000
0000
0000
,  // measure 32
0001
0010
0100
1000
0001
0100
0010
1000
0001
0010
0100
1000
0001
0100
0010
1000
,  // measure 33
0001
0000
0010
0001
0000
0001
0100
0000
0010
1000
0000
1000
0001
0000
0000
0000
,  // measure 34
0100
0000
0010
0000
1000
0001
0000
0001
0010
0000
0001
1000
0000
1000
0100
0000
,  // measure 35
0010
0000
0001
0100
0000
0000
0010
0000
1000
0100
0000
1000
0001
0000
0000
0000
,  // measure 36
1001
0000
0010
0000
0100
0000
1000
0001
1000
0010
0100
0001
0010
0001
1000
0100
,  // measure 37
0010
0000
0001
1000
0000
0000
0010
0000
1000
0100
0000
0100
0001
0000
0000
0000
,  // measure 38
0010
0000
0010
0000
0010
0001
0000
0100
0010
0000
1000
0001
0000
1000
0100
0000
,  // measure 39
0010
0000
0001
1000
0000
0001
0010
0000
0100
1000
0000
1000
0001
0000
0100
0000
,  // measure 40
0010
1000
0010
0100
0001
0010
0001
0100
0010
1000
0001
1000
0100
0010
0001
0100
,  // measure 41
0001
0000
0010
0100
0000
0100
1000
0000
0001
1000
0000
0001
1000
0000
0010
0000
,  // measure 42
0100
0001
0000
0001
0010
0001
0000
1000
0010
1000
0100
0000
1000
0000
0001
0000
,  // measure 43
0100
0000
0010
1000
0000
1000
0001
0000
1000
0100
0000
0100
0010
0000
0001
0000
,  // measure 44
0100
0001
0000
1000
0001
0010
0000
0001
0100
0010
1000
0000
0001
0000
0100
0000
,  // measure 45
0010
0000
1000
0100
0000
1000
0001
0000
0010
0001
0000
1000
0001
0000
0100
0000
,  // measure 46
0010
1000
0000
0100
0010
0001
0000
0001
1000
0001
0100
0000
0010
0000
1000
0000
,  // measure 47
0100
0000
1000
0010
0000
0100
0001
0000
0010
0001
0000
1000
0001
0000
0100
0000
,  // measure 48
0010
1000
0000
0010
1000
0000
0001
0010
0001
0100
0010
1000
0010
0100
0010
1000
,  // measure 49
0001
0010
0001
0100
1000
0010
1000
0001
,  // measure 50
1000
0000
0100
0000
0010
0000
0001
0000
0100
0010
1000
0000
0100
0010
0001
0000
,  // measure 51
2002
0000
0000
0000
,  // measure 52
0000
0000
0000
0000
,  // measure 53
3003
0000
0000
0000
;
