#TITLE:BRILLIANT 2U (Orchestra Groove);
#SUBTITLE:;
#ARTIST:NAOKI;
#TITLETRANSLIT:;
#SUBTITLETRANSLIT:;
#ARTISTTRANSLIT:;
#GENRE:;
#CREDIT:;
#BANNER:BRILLIANT 2U (Orchestra Groove)-bn.png;
#BACKGROUND:BRILLIANT 2U (Orchestra Groove)-bg.png;
#LYRICSPATH:;
#CDTITLE:;
#MUSIC:BRILLIANT 2U (Orchestra Groove).ogg;
#OFFSET:0.000000;
#SAMPLESTART:27.205999;
#SAMPLELENGTH:20.000000;
#SELECTABLE:YES;
#DISPLAYBPM:150.000000;
#BPMS:0.000000=150.125000
,20.000000=150.065002
;
#STOPS:
;
#BGCHANGES:0.000=BRILLIANT 2U (Orchestra Groove).avi=1.000=0=0=0=StretchNoLoop====,
206.000=BRILLIANT 2U (Orchestra Groove)-bg.png=1.000=1=0=0=StretchNoLoop==CrossFade==,
99999=-nosongbg-=1.000=0=0=0 // don't automatically add -songbackground-
;
#KEYSOUNDS:;
#ATTACKS:;

//---------------dance-couple - ----------------
#NOTES:
     dance-couple:
     :
     Easy:
     5:
     0.271313,0.330884,0.094370,0.000000,0.005898,161.000000,153.000000,8.000000,0.000000,0.000000,0.000000,0.271313,0.330884,0.094370,0.000000,0.005898,161.000000,153.000000,8.000000,0.000000,0.000000,0.000000:
00000000
00000000
00000000
00000000
,
00000000
00000000
00000000
00000000
,
00000000
00000000
00000000
00000000
,
00000000
00000000
00000000
00000000
,
00000000
00000000
00000000
00000000
,
00000000
00000000
00000000
00000000
,
00000000
00000000
00000000
00000000
,
00010001
00100010
10001000
00100010
,
00010001
00000000
00000000
00010001
00000000
00000000
00010001
00000000
00000000
00000000
00010001
00000000
00000000
00000000
00000000
00000000
,
00100010
00000000
00100010
00000000
,
00100010
00000000
01000100
00000000
00100010
00010001
10001000
00000000
,
00100010
00000000
00100010
00000000
,
00010001
01000100
10001000
01000100
,
00100010
00000000
00000000
00000000
00000000
00100010
00000000
00100010
,
00010001
10001000
01000100
00000000
01000100
00000000
01000100
00000000
,
00000001
00010001
00001000
10001000
,
00100010
00000000
01000100
00000000
00100010
00010001
10001000
00000000
,
00000010
01000100
00000010
01000110
,
00000000
10000100
00000000
00010100
,
00100010
00000000
00100010
10011001
,
00000000
01000100
01000100
01000100
,
01000000
00010001
00100000
01100100
,
00000000
00100010
00100000
00100010
,
00100010
01000100
00100010
10011001
,
00000000
10001000
10001000
10001000
,
00100010
00000000
00100010
00000000
,
01000010
00001000
01000100
00000001
,
00100010
00000000
00100010
00000000
,
00010001
01000000
10001000
00100000
,
00100010
00000100
00010001
00000100
,
10001000
01000100
01000100
10011001
,
00100010
01000000
10001000
00100000
,
10001000
00100010
00010001
10011001
,
00100000
00010100
10000000
01000100
,
00100010
00000000
01000100
00000000
00100010
00010001
10001000
00000000
,
00100010
00000001
00101000
00000100
,
00010001
01000100
10001000
01000100
,
00100010
00000000
00100010
00000000
,
00010001
10001000
01000100
00000000
01000100
00000000
01000100
00000000
,
00010001
00010000
10001000
10000001
,
00100010
00000000
01000100
00000000
00100010
00010001
10001000
00000000
,
00100010
00000100
00100010
00000110
,
00100000
00010100
10000000
01000100
,
00100010
01000100
00100010
10011001
,
00000000
10001000
01000100
00010001
,
00100010
00010001
00100010
01101000
,
00000000
00010001
01000100
10001000
,
00100010
01000100
00100010
10011001
,
00000000
10001000
10001000
10001000
,
01000100
01000100
00000000
00000000
00000000
00000000
00000000
00010001
,
00010001
00010001
00000000
00010001
00010001
00010001
00010001
00010001
,
00010001
00000000
00000000
00000000
;

//---------------dance-couple - ----------------
#NOTES:
     dance-couple:
     :
     Medium:
     6:
     0.335349,0.421125,0.283109,0.000000,0.088472,199.000000,175.000000,24.000000,0.000000,0.000000,0.000000,0.338720,0.391044,0.306701,0.000000,0.082573,201.000000,175.000000,26.000000,0.000000,0.000000,0.000000:
00000000
00000000
00000000
00000000
,
00000000
00000000
00000000
00000000
,
00000000
00000000
00000000
00000000
,
00000000
00000000
00000000
00000000
,
00000000
00000000
00000000
00000000
,
00000000
00000000
00000000
00000000
,
00000000
00000000
00000000
00000000
,
00011000
00100010
10000001
00100010
,
00011000
00000000
00000000
00001000
00000000
00000000
00001000
00000000
00000000
00000000
00000001
00000000
00000000
00011000
00000000
00000000
,
00100010
00000000
00100010
00000000
,
00101010
00000000
01000101
00000000
00100010
00011000
10000001
00000000
,
00100010
00011000
10000101
00100010
,
00001000
01000100
00000001
01010100
,
00100010
00000000
00000000
00000000
00000000
00100010
00000000
00100000
,
00011000
00000000
10000001
00000000
01000100
00000000
00000000
00000000
10000100
01000000
00000000
00000000
10000100
01000000
00000000
00000000
,
00011000
01011000
10000001
01010001
,
00100010
00000000
01000100
00000000
00100010
00011000
10000001
00000000
,
00100010
01000100
00100010
01100110
,
00011000
01000101
10000001
01001100
,
00100010
00000000
00000000
01000100
00000000
00000000
00000000
00100010
00000000
00001000
00000000
00000000
10010001
00000000
00000100
00000000
,
10000000
01001100
00011000
10000101
,
00100010
00011000
00100010
01100110
,
00100010
00011000
01000100
10000001
,
00100010
00000000
00000000
01000100
00000000
00000000
00000000
00100010
00000000
10000000
00000000
00000000
00011001
00000000
01000000
00000000
,
00000000
10000001
10000001
10000001
,
01000100
00100010
11000001
01011000
,
00100010
01000100
10011001
00000000
,
11000101
00000000
10100011
01000000
,
00011000
01000100
10011001
00000000
,
00100010
01000100
00011100
10000101
,
10000001
01000100
10011001
00000000
,
10000001
00011000
10100010
01010100
,
00011000
00100010
01010100
10100001
,
00100010
00000000
00100010
00000000
,
00101010
00000000
01000101
00000000
00011000
10000001
01000100
00000000
,
00100010
00011000
11000101
00100010
,
00011000
01000100
10000001
01011000
,
00100010
00000000
00100010
00000000
,
00011000
00000000
10000001
00000000
01000100
00000000
00000000
00000000
10000001
01000100
00000000
00000000
10000001
01000100
00000000
00000000
,
00100010
00011000
01000011
10000001
,
00100010
00000000
01000100
00000000
00011000
10000001
01000100
00000000
,
00100010
01000100
00100010
01100110
,
10000001
01010100
00011000
11000100
,
00100010
00000000
00000000
01000100
00000000
00000000
00000000
00100010
00000000
00001000
00000000
00000000
10010001
00000000
00000100
00000000
,
00000000
01001100
00011000
01000101
,
00100010
00011000
00100010
01100110
,
00100010
00011000
01000100
10000001
,
00100010
00000000
00000000
01000100
00000000
00000000
00000000
00100010
00000000
10000000
00000000
00000000
00011001
00000000
01000000
00000000
,
00000000
10000001
10000001
10000001
,
01000100
10000001
00000000
00000000
00000000
00000000
00000000
01000100
,
10000001
00100010
00000000
10000001
01000100
10000001
00100010
10000001
,
00011000
00000000
00000000
00000000
;

//---------------dance-couple - ----------------
#NOTES:
     dance-couple:
     :
     Hard:
     7:
     0.396016,0.451205,0.224128,0.000000,0.064879,235.000000,216.000000,19.000000,0.000000,0.000000,0.000000,0.396016,0.451205,0.212332,0.000000,0.064879,235.000000,217.000000,18.000000,0.000000,0.000000,0.000000:
00000000
00000000
00000000
00000000
,
00000000
00000000
00000000
00000000
,
00000000
00000000
00000000
00000000
,
00000000
00000000
00000000
00000000
,
00000000
00000000
00000000
00000000
,
00000000
00000000
00000000
00000000
,
00000000
00000000
00000000
00000000
,
10000000
00000000
00000010
00000001
10000000
00000000
00001000
00001000
,
00100000
00000000
00000000
00100000
00000000
00000000
00010000
00000000
00000000
00000000
00000100
00000000
00000000
00001000
00000000
00000000
,
00100000
00000001
00100000
00000100
,
00100010
00010000
01000100
00000000
00100010
00000001
10001000
00000000
,
00100010
01000000
00010001
00000000
10001000
00000100
00100010
00000000
,
00010001
01000100
01000100
00000000
10001000
01000100
01000100
00000000
,
00100010
00010000
01000100
00000000
00010001
00000010
01000100
00000000
,
00010001
10001000
01000100
00000000
10001000
00000000
01000100
00000000
,
00010001
00100010
00010001
00000000
10001000
01000100
00010001
00000000
,
00100010
00010001
01000100
00000000
00100010
00010001
10001000
00000000
,
10101010
00000000
01000100
00000000
00100010
00010001
01000100
00000000
,
00010001
11001100
10001000
01010101
,
00100010
01000100
00100010
00000000
10001000
00000000
00010001
00000000
,
10001000
00000000
01010101
00000000
00010001
00000000
10001000
01000100
,
00100010
10101010
00100010
01100110
,
00100010
00010001
01000100
10001000
,
01000100
00000000
10011001
00000000
01000100
00010001
10011001
00000000
,
00100010
00000000
10001000
01000100
00010001
01000100
00100010
00000000
,
01000100
00010000
00100010
00000000
11000100
00000001
01010010
00000000
,
00101100
00010000
01000101
00000000
10100010
00001000
01000100
00000000
,
11001100
00100010
00110011
01100110
,
00010001
01000100
00100010
10001000
00010001
00000000
00000000
00000000
,
00100010
00000000
00000000
00000000
00100010
00000000
00000000
00000000
00100010
10001000
00000000
00000000
01000100
00000000
00000000
00000000
,
00100010
00000000
00000000
00000000
00100010
00000000
00000000
00000000
00100010
00010001
00000000
00000000
01000100
00000000
00000000
00000000
,
00100010
00000000
00000000
00000000
00100010
00000000
00000000
00000000
00100010
10001000
00000000
00000000
00010001
00000000
00000000
00000000
,
01000100
00000000
00000000
00000000
01000100
00000000
00000000
00000000
01000100
10001000
00000000
00000000
00010001
00000000
00000000
00000000
,
00100010
01010101
00100010
11001100
,
00100010
00000000
01000100
00000000
00100010
00010001
10001000
00000000
,
00100010
00010001
11001100
00100010
,
00010001
01000100
01000100
00000000
10001000
01000100
00010001
00000000
,
00100010
00000000
01000100
00000000
10011001
01000100
01000100
00000000
,
00010001
10001000
01000100
00000000
10001000
01000100
01010101
00000000
,
00010001
00100010
00010001
00000000
10001000
01000100
00010001
00000000
,
00100010
00010001
10001000
01000100
00100010
00010001
10001000
00000000
,
00100010
00000000
00000000
00000000
01000100
00000000
00000000
00000000
00100010
10001000
00000000
00000000
01000100
00000000
00000000
00000000
,
00100010
00000000
00000000
00000000
01000100
00000000
00000000
00000000
00100010
10001000
00000000
00000000
01000100
00000000
00000000
00000000
,
00100010
00000000
00000000
00000000
00100010
00000000
00000000
00000000
00100010
01000100
00000000
00000000
00100010
00000000
00000000
00000000
,
10001000
00000000
00000000
00000000
10001000
00000000
00000000
00000000
10001000
00010001
00000000
00000000
00100010
00000000
00000000
00000000
,
00100010
00000000
00000000
00000000
10001000
00000000
00000000
00000000
00100010
10001000
00000000
00000000
00010001
00000000
00000000
00000000
,
00100010
00000000
00000000
00000000
00010001
00000000
00000000
00000000
00100010
00010001
00000000
00000000
10001000
00000000
00000000
00000000
,
00100010
01000100
00100010
00000000
10001000
00000000
00010001
00000000
,
00100010
10001000
00010001
00000000
10001000
00000000
01000100
00000000
,
01000100
01000100
00000000
00000000
00000000
00000000
00000000
00010001
,
01000100
10001000
00000000
00100010
00010001
01000100
10001000
00100010
,
01000100
00000000
00000000
00000000
;

//---------------dance-couple - ----------------
#NOTES:
     dance-couple:
     :
     Challenge:
     5:
     0.299961,0.421125,0.294905,0.000000,0.005898,178.000000,153.000000,25.000000,0.000000,0.000000,0.000000,0.299961,0.421125,0.294905,0.000000,0.005898,178.000000,153.000000,25.000000,0.000000,0.000000,0.000000:
00000000
00000000
00000000
00000000
,
00000000
00000000
00000000
00000000
,
00000000
00000000
00000000
00000000
,
00000000
00000000
00000000
00000000
,
00000000
00000000
00000000
00000000
,
00000000
00000000
00000000
00000000
,
00000000
00000000
00000000
00000000
,
10001000
01000100
00010001
01000100
,
00010001
00000000
00000000
00010001
00000000
00000000
00010001
00000000
00000000
00000000
10001000
00000000
00010001
00000000
00000000
00000000
,
00001001
00000000
10000100
00000000
00000001
00001000
10000100
00000000
,
00001001
00000000
10000100
00000000
00000001
00001000
10000100
00000000
,
00001010
00000000
10000001
00000000
00000010
00000001
10000100
00000000
,
00001010
00000000
10000001
00000000
00000010
00000001
10000100
00000000
,
10010000
00000000
01000001
00000000
00010000
10000000
01000001
00000000
,
10010000
00000000
01000001
00000000
00010000
10000000
01000001
00000000
,
10100000
00000000
00010001
00000000
00100000
00010000
01000001
00000000
,
10100000
00000000
00010001
00000000
00100000
00010000
01000001
00000000
,
00001010
00000000
10000100
00000000
00000010
00000001
10000100
00000000
,
00000001
10001100
00001000
10000101
,
00000010
00000100
10000010
00000000
00001000
00000000
10000001
00000000
,
00001000
10000101
00000001
10001000
,
10100000
00000000
01000001
00000000
00100000
00010000
01000001
00000000
,
00010000
11000001
10000000
01010001
,
00100000
01000000
00100001
00000000
10000000
00000000
00010001
00000000
,
10000000
01010001
00010000
10000001
,
00000000
01000100
00000000
01000100
,
00000000
01000100
00000110
01100000
,
00100010
10101010
01000100
11001100
,
00010001
01000100
10001000
01000100
,
00100010
01000100
01010000
00000101
,
10001000
01000100
10010000
00001001
,
10001000
00010001
00001010
01010000
,
00010001
00100010
00000101
10100000
,
00001001
00000000
10001001
00000000
00000001
00001000
10000100
00000000
,
00000010
00000000
10000010
00000000
00000001
00001000
10000100
00000000
,
10010000
00000000
10010001
00000000
00010000
10000000
01000001
00000000
,
00100000
00000000
00100001
00000000
00010000
10000000
01000001
00000000
,
00000011
00000000
10000100
00000000
00001000
00000010
10000010
00000000
,
00000010
00000001
10001000
00000000
00001100
00000000
10000011
00000000
,
00110000
00000000
01000001
00000000
10000000
00100000
00100001
00000000
,
00100000
00010000
10000001
00000000
11000000
00000000
00110001
00000000
,
00001001
00000000
10000100
00000000
00000010
00001000
10000100
00000000
,
00000101
10001000
00001100
10000001
,
00000010
00000000
10000010
00000000
00000010
00000100
10000010
00000000
,
00000101
00000000
10001100
00000000
00000010
00001000
10000100
00000000
,
10010000
00000000
01000001
00000000
00100000
10000000
01000001
00000000
,
01010000
10000001
11000000
00010001
,
00100000
00000000
00100001
00000000
00100000
01000000
00100001
00000000
,
01010000
00000000
11000001
00000000
00100000
10000000
01000001
00000000
,
01000100
10001000
00000000
00000000
00000000
00000000
00000000
01000100
,
10001000
00100010
00000000
10001000
01000100
10001000
00100010
10001000
,
00010001
00000000
00000000
00000000
;

//---------------dance-solo - ----------------
#NOTES:
     dance-solo:
     :
     Easy:
     4:
     0.294905,0.391044,0.188739,0.000000,0.000000,175.000000,159.000000,16.000000,0.000000,0.000000,0.000000,0.294905,0.391044,0.188739,0.000000,0.000000,175.000000,159.000000,16.000000,0.000000,0.000000,0.000000:
000000
000000
000000
000000
,
000000
000000
000000
000000
,
000000
000000
000000
000000
,
000000
000000
000000
000000
,
000000
000000
000000
000000
,
000000
000000
000000
000000
,
000000
000000
000000
000000
,
000010
000100
000001
010000
,
010000
010000
010000
000000
,
000100
000000
000100
000000
,
000100
000000
001000
000000
000010
100000
001000
000000
,
000100
000000
000100
000000
,
000001
001000
100000
001000
,
000100
000000
000010
000010
,
000010
000000
001000
001000
,
000001
000001
100000
100000
,
000100
000000
001000
000000
000010
100000
001000
000000
,
000100
000001
100000
001010
,
000100
100010
010000
000001
,
000100
001000
000010
000101
,
010000
000010
100000
000100
,
001000
010000
001000
100100
,
000010
010001
001000
000101
,
001000
000100
001000
100001
,
001000
010000
010000
010000
,
000100
000000
000100
000000
,
000100
100000
001010
000000
,
000100
000000
000100
000000
,
000001
100000
001000
000000
,
010000
001000
000001
001000
,
100000
001000
010001
000000
,
000100
001000
000010
010000
,
001000
000100
000001
001000
,
000100
000000
000100
000000
,
000010
000000
100000
000000
000100
010000
001000
000000
,
000100
000000
000100
000000
,
000001
001000
100000
001000
,
010000
000000
010000
000000
,
000001
000100
000010
000000
000010
000000
000010
000000
,
100000
100000
000100
000100
,
001000
000000
000001
000000
000100
001000
010000
000000
,
000100
100000
000001
001100
,
100000
011000
000001
001000
,
000100
001000
000100
100001
,
001000
000001
100000
001000
,
010000
000001
100000
001010
,
100000
011000
000001
100010
,
001000
000100
001000
100001
,
000000
010000
010000
010000
,
000010
000000
000100
000100
,
000100
000000
001000
001000
,
001000
000000
000000
000000
;

//---------------dance-solo - ----------------
#NOTES:
     dance-solo:
     :
     Medium:
     6:
     0.365682,0.391044,0.401071,0.000000,0.058981,217.000000,183.000000,34.000000,0.000000,0.000000,0.000000,0.365682,0.391044,0.401071,0.000000,0.058981,217.000000,183.000000,34.000000,0.000000,0.000000,0.000000:
000000
000000
000000
000000
,
000000
000000
000000
000000
,
000000
000000
000000
000000
,
000000
000000
000000
000000
,
000000
000000
000000
000000
,
000000
000000
000000
000000
,
000000
000000
000000
000000
,
000001
000100
100000
000100
,
000010
000000
000000
000010
000000
000000
000010
000000
000000
000000
010000
000000
000000
000001
000000
000000
,
000000
000100
000000
000100
,
010010
000000
100100
000000
001000
000010
100000
000000
,
001000
000001
101000
010000
,
000001
001000
000100
100010
,
001000
000000
000000
000000
000000
000100
000000
000100
,
000001
010000
001000
000000
100000
000000
100000
000000
,
000001
001010
100000
001100
,
010000
000000
000001
000000
000100
001000
100000
000000
,
000100
001000
000010
100001
,
001000
010001
000100
001010
,
100000
000000
000000
000001
000000
000000
000100
000000
000000
001000
000000
000000
010000
000000
000001
000000
,
000000
001000
000100
001000
,
000100
100000
000010
001100
,
100000
001000
010000
000001
,
000100
000000
000000
001000
000000
000000
010000
000000
000000
000001
000000
000000
001000
000000
000100
000000
,
000000
100000
100000
100000
,
001000
010000
100001
001010
,
100000
001000
100001
001000
,
000100
100001
010000
001100
,
000001
001000
000010
100000
,
000100
010000
000110
100001
,
001000
000100
100001
001000
,
010000
000001
100010
010100
,
000010
000100
100001
011000
,
000100
000000
000100
000000
,
010001
000000
100010
000000
010000
001000
000100
000000
,
000001
100000
001100
000010
,
100000
001000
010000
000101
,
001000
000000
001000
000000
,
000100
100000
001000
000000
010000
000000
010000
000000
,
000101
100000
001010
000001
,
000100
000000
001000
000000
100000
000001
001000
000000
,
000010
100000
001000
000101
,
100000
001010
100000
011000
,
000001
000000
000000
001000
000000
000000
000100
000000
000000
100000
000000
000000
000001
000000
001000
000000
,
000000
100010
000001
011000
,
100000
000001
000100
101000
,
000100
000001
001000
000010
,
000100
000000
000000
001000
000000
000000
010000
000000
000000
000001
000000
000000
100000
000000
000100
000000
,
000000
010000
010000
010000
,
001000
000100
000000
000000
000000
000000
000000
000001
,
100000
000100
000000
010000
001000
000100
000001
010000
,
001000
000000
000000
000000
;

//---------------dance-solo - ----------------
#NOTES:
     dance-solo:
     :
     Hard:
     7:
     0.407812,0.451205,0.188739,0.000000,0.070777,242.000000,226.000000,16.000000,0.000000,0.000000,0.000000,0.407812,0.451205,0.188739,0.000000,0.070777,242.000000,226.000000,16.000000,0.000000,0.000000,0.000000:
000000
000000
000000
000000
,
000000
000000
000000
000000
,
000000
000000
000000
000000
,
000000
000000
000000
000000
,
000000
000000
000000
000000
,
000000
000000
000000
000000
,
000000
000000
000000
000000
,
010000
000000
000100
001000
000001
000000
100000
100000
,
000010
000000
000000
001000
000000
000000
000100
000000
000000
000000
100000
000000
000000
001000
000000
000000
,
000000
000001
000100
001000
,
010000
000001
001000
000000
000100
100000
001000
000000
,
010000
001000
000010
000000
000100
001000
100000
000000
,
000001
001000
001000
000000
100000
001000
001000
000000
,
000100
000001
001000
000000
000010
000100
001000
000000
,
010000
000100
001000
000000
000001
000000
100000
000000
,
000010
000100
000010
000000
010000
001000
000001
000000
,
000100
000001
001000
000000
100000
000010
010000
000000
,
000101
000000
001000
000000
000100
100000
001000
000000
,
010000
100001
001000
100010
,
010000
001000
010000
000000
000001
000000
001000
000000
,
100000
000000
011000
000000
000001
000000
001000
000010
,
100000
101000
000100
010001
,
001000
000100
100000
001000
,
000100
000000
100001
000000
001000
000010
100000
000000
,
000100
000000
010000
001000
000010
001000
000100
000000
,
000001
100000
000100
000000
011000
000000
100001
000000
,
001000
000010
100000
000000
010001
000000
001000
000000
,
100100
000010
011000
001001
,
000100
001000
010000
000001
001000
000000
000000
000000
,
000100
000000
000000
000000
000100
000000
000000
000000
000100
100000
000000
000000
001000
000000
000000
000000
,
010000
000000
000000
000000
010000
000000
000000
000000
010000
000001
000000
000000
001000
000000
000000
000000
,
000010
000000
000000
000000
000010
000000
000000
000000
000010
100000
000000
000000
000001
000000
000000
000000
,
001000
000000
000000
000000
001000
000000
000000
000000
001000
000100
000000
000000
100000
000000
000000
000000
,
000010
001001
000100
011000
,
000001
000000
001000
000000
000100
100000
000010
000000
,
010000
001000
000101
100000
,
000100
001000
001000
000000
000010
100000
001000
000000
,
000100
000000
000001
000000
100000
001000
001000
000000
,
000001
010000
001000
000000
000100
000001
000001
000000
,
010000
000010
010000
000000
001000
000100
000001
000000
,
010000
000010
100000
001000
000100
000001
100000
000000
,
000100
000000
000000
000000
001000
000000
000000
000000
000100
100000
000000
000000
001000
000000
000000
000000
,
000100
000000
000000
000000
000001
000000
000000
000000
010000
001000
000000
000000
000100
000000
000000
000000
,
000001
000000
000000
000000
010000
000000
000000
000000
000100
001000
000000
000000
000100
000000
000000
000000
,
100000
000000
000000
000000
001000
000000
000000
000000
010000
000001
000000
000000
000100
000000
000000
000000
,
001000
000000
000000
000000
100000
000000
000000
000000
000100
001000
000000
000000
000001
000000
000000
000000
,
010000
000000
000000
000000
000010
000000
000000
000000
100000
000001
000000
000000
001000
000000
000000
000000
,
000010
100000
000010
000000
010000
000000
001000
000000
,
000100
000001
001000
000000
000100
000000
010000
000000
,
001000
001000
000000
000000
000000
000000
000000
000010
,
001000
010000
000000
000100
100000
001000
010000
000001
,
000100
000000
000000
000000
;

//---------------dance-single - ----------------
#NOTES:
     dance-single:
     :
     Hard:
     14:
     0.692606,0.746700,0.636995,0.247720,0.465950,411.000000,357.000000,54.000000,21.000000,0.000000,0.000000,0.692606,0.746700,0.636995,0.247720,0.465950,411.000000,357.000000,54.000000,21.000000,0.000000,0.000000:
0000
0000
0000
0000
,
0000
0000
0000
0000
,
0000
0000
0000
0000
,
0000
0000
0000
0000
,
0000
0000
0000
0000
,
0010
0101
0010
1100
,
0010
0000
1001
0000
0010
0100
0001
1000
,
0100
0011
0100
1010
,
0101
0000
0000
1100
0000
0000
0101
0000
0000
0000
1001
0000
0110
0000
0000
0000
,
1000
0000
0000
0010
1000
0000
0100
0000
0000
0010
0000
0010
0001
0000
0100
0000
,
0001
0000
0000
0010
0100
0000
1000
0000
0000
0010
1000
0000
0001
0000
0100
0000
,
0010
0000
1000
0100
0000
0000
0010
0000
0000
0001
1000
0000
0001
0000
0100
0000
,
0010
0000
0000
1000
0000
0000
0001
0010
0000
0001
0100
0000
0010
0000
1000
0000
,
0100
0000
0000
1000
0001
0000
0100
0000
0000
0010
1000
0000
0001
0000
0100
0000
,
0001
0000
0001
0000
0001
0000
0000
0000
0010
0001
0000
1000
0100
0000
0010
0000
,
1001
0000
0110
0000
1001
0000
1000
0100
,
0010
0001
0100
0001
0010
0000
1000
0000
1000
0000
0100
0000
1000
0001
0100
0010
,
1000
0000
0100
0000
2010
0000
0002
0000
3000
1003
0100
0000
1000
0000
0000
0000
,
0101
0000
0000
0000
1100
0000
0001
1000
0020
0000
0000
0230
0000
0000
0302
0000
,
2003
0000
3100
0010
0000
0000
0001
0000
1000
0010
0000
1000
0001
0000
0100
0000
,
1010
0000
0101
0000
1010
0000
0001
0001
,
0001
0000
0010
0000
2100
0000
0002
0000
3000
1003
0100
0000
1000
0000
0000
0000
,
0110
0000
0000
0000
1001
0000
1000
0100
0020
0000
0000
0032
0000
0000
2003
0000
,
3020
0000
0130
0001
0000
0000
1000
0000
0010
0100
0010
0000
1000
0000
0001
0000
,
0010
0001
0010
0100
1000
0001
1000
0000
0010
0000
0100
0000
0001
0010
0001
0010
,
0001
1000
1100
0000
0010
0101
0000
1200
,
0000
1000
1300
0000
0110
0000
0011
0000
,
0100
0010
1001
0000
0101
0010
0000
2010
,
0000
0001
3001
0010
1000
0100
1000
0001
,
0110
0000
0100
0000
1001
0000
0010
0000
1000
0100
1000
0000
0001
0000
0100
0000
,
0010
0000
1000
0000
0101
0000
0010
0000
1000
0001
1000
0000
0100
0000
0010
0001
,
0010
0000
0100
0000
1100
0000
1000
0000
0001
0010
0001
0000
0100
0000
0010
0000
,
1000
0100
0010
0100
1000
0000
0001
0100
0010
0000
0010
0000
0010
0000
0010
0000
,
1000
0000
0100
1000
0000
0000
0010
0000
0100
0001
0000
0100
0001
0000
0000
0000
,
0010
0000
0001
0000
0100
0010
0000
0000
1000
0000
1000
0000
1000
0100
0010
0001
,
0100
0000
0000
0000
1010
0000
0000
0000
0011
0000
1000
0001
0100
0010
0000
0000
,
1001
0000
0010
0000
1000
0000
0100
0010
0001
0100
0001
1000
0000
0010
0000
0100
,
0000
0000
0001
0010
0000
0000
0100
0000
1000
0010
0000
1000
0001
0000
0000
0000
,
0100
0000
0100
0000
0100
0000
0000
0000
0010
1000
0000
1000
0001
0000
0000
0000
,
1100
0000
0110
0000
0011
0000
1000
0100
,
1000
0001
0010
0001
1000
0000
0010
0000
0100
0000
0100
0000
0001
1000
0010
0100
,
0001
0000
0010
0000
0102
0000
2000
0000
0003
3001
0100
0000
0001
0000
0000
0000
,
1001
0000
0000
0000
0011
0000
1000
0001
1000
0010
0000
0100
0001
0000
1000
0000
,
0001
0000
0010
0100
0000
0100
1000
0000
0001
0100
0000
0001
0100
0000
0010
0000
,
1010
0000
0101
0000
1100
0000
0001
0001
,
0001
0000
0100
0000
1002
0000
0020
0000
0003
0130
1000
0000
0001
0000
0000
0000
,
0110
0000
0000
0000
0101
0000
1000
0100
0010
0001
0000
0100
0010
0000
1000
0000
,
0001
0000
0001
0000
0001
0000
0100
0000
0010
1000
0000
0010
1000
0000
0001
0000
,
1000
0000
0100
0000
0001
0000
0010
0000
0001
0000
1000
0000
0010
0100
0001
0000
,
1000
0010
2100
0000
0001
0000
3100
0010
,
0101
0010
1000
0001
1100
0100
0011
0100
,
2002
0000
0000
0000
,
0000
0000
0000
3003
;

//---------------dance-single - ----------------
#NOTES:
     dance-single:
     :
     Medium:
     10:
     0.465108,0.528912,0.259517,0.495441,0.230026,276.000000,254.000000,22.000000,42.000000,0.000000,0.000000,0.465108,0.528912,0.259517,0.495441,0.230026,276.000000,254.000000,22.000000,42.000000,0.000000,0.000000:
0000
0000
0000
0000
,
0000
0000
0000
0000
,
0000
0000
0000
0000
,
0000
0000
0000
0000
,
0000
0000
0000
0000
,
0010
0101
0010
1100
,
0010
0000
1001
0000
0010
0100
0001
1000
,
0000
1100
0000
0101
,
1000
0000
0000
1000
0000
0000
1000
0000
0000
0000
0001
0000
0200
0000
0000
0000
,
0310
0000
0000
1000
0000
0000
0001
0000
0000
1000
0000
0000
0100
0000
0010
0000
,
0001
0000
0000
0100
0000
0000
0001
0000
0000
0010
0000
0000
0100
0000
1000
0000
,
0010
0000
0000
0100
0000
0000
0010
0000
0000
1000
0000
0000
0001
0000
0100
0000
,
0001
0000
0000
0010
0000
0000
0100
0000
0000
1000
0000
0000
0010
0000
0100
0000
,
0001
0000
0000
0010
0000
0000
0001
0000
0000
0100
0000
0000
0010
0000
1000
0000
,
0100
0000
0000
0010
0000
0000
0100
0000
0000
1000
0000
0000
0001
0000
1000
0000
,
0010
0000
0000
1000
0000
0000
0010
0000
0000
0100
0000
0000
0001
0000
1000
0000
,
0001
0000
0000
0010
0000
0000
0001
0000
0000
1000
0000
0000
0010
0000
0100
0000
,
0010
0100
0002
2000
0000
0000
0003
0000
,
0010
0000
0000
0000
3010
0000
1000
0100
2000
0000
0000
3020
0000
0000
0230
0000
,
0302
0000
0000
0010
0000
0000
1000
0000
0000
0100
0000
0000
1003
0000
0001
0000
,
0020
0230
2300
3002
,
1003
0010
0200
0002
0000
0000
0300
0000
,
0010
0000
0000
0000
0013
0000
0001
1000
0002
0000
0000
0203
0000
0000
0320
0000
,
2030
0000
0000
0100
0000
0000
0010
0000
0000
0100
0000
0000
3001
0000
1000
0000
,
0020
2030
3002
0203
,
0310
0000
1010
0000
0000
0101
0000
2100
,
0000
3001
1000
0000
0110
0000
1001
0000
,
0010
0000
0101
0000
1000
0001
0000
0012
,
0000
1003
0001
0100
0010
1000
0001
0010
,
0100
0000
1001
0000
0010
1000
0100
0000
,
0010
0001
0100
0000
0001
0010
1000
0000
,
1100
0000
0011
0000
1000
0100
0001
0000
,
0010
0001
0100
0010
1000
0100
0001
1000
,
0001
0000
0000
0010
0000
0000
0001
0000
0000
0100
0000
0000
1000
0000
0000
0000
,
0010
1000
0100
0000
0010
0001
0100
0000
,
0001
0000
0000
1000
0000
0000
0010
0000
0000
1000
0000
0000
0100
0000
0000
0000
,
0010
0001
0100
0010
1000
0100
1000
0001
,
0100
0000
0000
0010
0000
0000
1000
0000
0000
0001
0000
0000
0100
0000
0000
0000
,
0001
0010
1000
0000
0101
0000
1100
0000
,
1001
0000
0110
0000
1001
0000
1000
0100
,
0010
0001
0010
0001
1000
0100
1000
0001
,
0100
0010
2000
0002
0000
0000
3000
0000
,
0010
0000
0000
0000
0013
0000
0001
1000
0002
0000
0000
0203
0000
0000
0320
0000
,
2030
0000
0000
0001
0000
0000
0010
0000
0000
0100
0000
0000
3010
0000
1000
0000
,
0002
0023
0230
2300
,
3010
1000
0002
0200
0000
0000
0003
0000
,
0010
0000
0000
0000
0310
0000
0100
0001
0200
0000
0000
0320
0000
0000
2030
0000
,
3002
0000
0000
0010
0000
0000
1000
0000
0000
0100
0000
0000
1003
0000
0001
0000
,
0010
0001
0100
0000
1010
0000
1000
0001
,
0100
0010
2000
0000
0000
0000
3000
0001
,
1000
0100
0000
0010
0001
0100
0001
1000
,
2002
0000
0000
0000
,
0000
0000
0000
3003
;

//---------------dance-single - ----------------
#NOTES:
     dance-single:
     :
     Easy:
     6:
     0.296590,0.404462,0.235924,0.188739,0.000000,176.000000,156.000000,20.000000,16.000000,0.000000,0.000000,0.296590,0.404462,0.235924,0.188739,0.000000,176.000000,156.000000,20.000000,16.000000,0.000000,0.000000:
0000
0000
0000
0000
,
0000
0000
0000
0000
,
0000
0000
0000
0000
,
0000
0000
0000
0000
,
0000
0000
0000
0000
,
0000
1001
0000
0110
,
0000
1001
1000
0100
,
0000
0110
0000
1001
,
0010
0010
0010
0110
,
1000
1000
1000
0001
,
0010
0001
0100
0010
,
0100
0100
0001
0010
,
0001
0100
1000
0001
,
1000
1000
0010
1000
,
0100
0010
0001
0001
,
0100
0001
0010
0010
,
0100
1000
0010
0100
,
0002
2000
0000
0000
,
0000
0003
0001
3100
,
0010
0010
0010
1000
,
0001
1000
0001
0100
,
0020
0200
0000
0000
,
0000
0030
0010
0301
,
1000
0001
1000
1000
,
0010
0100
0001
0100
,
0000
1001
0000
0110
,
1000
0010
1000
0001
,
0000
0100
0100
0010
,
2000
0002
0000
3003
,
0010
1001
0010
0100
,
1000
0010
1000
0001
,
0100
0110
0001
1000
,
0020
0200
0000
0330
,
0001
0010
0001
1000
,
0000
0010
1000
0100
,
1001
0110
1001
0100
,
0110
0010
1000
0001
,
0100
0100
0100
0010
,
1000
0100
1000
0001
,
1001
0110
1001
0100
,
0001
0010
0110
0000
,
2000
0002
0000
3000
,
0010
0013
0001
1000
,
0001
0100
0010
1000
,
0100
0100
1000
0001
,
0200
0020
0000
0300
,
1000
1000
0100
1030
,
0010
1000
0100
0001
,
0100
0010
1000
0001
,
0010
0220
0000
0330
,
0001
0000
1000
0100
,
2002
0000
0000
0000
,
0000
0000
0000
3003
;

//---------------dance-single - ----------------
#NOTES:
     dance-single:
     :
     Beginner:
     3:
     0.163462,0.240643,0.165147,0.117962,0.000000,97.000000,83.000000,14.000000,10.000000,0.000000,0.000000,0.163462,0.240643,0.165147,0.117962,0.000000,97.000000,83.000000,14.000000,10.000000,0.000000,0.000000:
0000
0000
0000
0000
,
0000
0000
0000
0000
,
0000
0000
0000
0000
,
0000
0000
0000
0000
,
0000
0000
0000
0000
,
0000
1001
0000
0110
,
0000
1001
0000
0000
,
0000
0110
0000
1001
,
0000
0000
0000
0110
,
0000
0000
1000
1000
,
0000
0000
0001
0001
,
0000
0000
0010
0010
,
0000
0000
0100
0100
,
0000
0000
0000
0000
,
1000
1000
1000
0000
,
1001
0000
0110
0000
,
0010
0010
0010
0000
,
0100
0200
0000
0000
,
0300
0000
0001
0000
,
2000
0000
3000
0000
,
0010
0000
1000
0000
,
0001
0002
0000
0000
,
0003
0000
0100
0000
,
0020
0000
0030
0000
,
1000
0000
0100
0000
,
1000
1000
0000
0000
,
0001
0000
0010
0000
,
0001
0000
0100
0000
,
0010
0020
0000
0030
,
0000
1000
0000
0001
,
0001
0000
0100
0000
,
0010
0000
1000
0000
,
0001
0002
0003
0000
,
0010
0000
0010
0000
,
0000
0001
0001
0000
,
1001
0000
0110
0000
,
1000
1000
1000
0000
,
0100
0000
0000
0000
,
1000
0000
0001
0000
,
1001
0000
0110
0000
,
0010
0010
0010
0000
,
1000
2000
0000
0000
,
3000
0000
0001
0000
,
0020
0000
0030
0000
,
0001
0000
0100
0000
,
0010
0020
0000
0000
,
0030
0000
1000
0000
,
0002
0000
0003
0000
,
0100
0000
0010
0000
,
0110
0000
0000
0000
,
1000
0000
0001
0000
,
1001
0000
0000
0000
;

//---------------dance-single - ----------------
#NOTES:
     dance-single:
     :
     Challenge:
     15:
     0.876290,0.964487,0.448256,0.023592,0.855225,520.000000,482.000000,38.000000,2.000000,0.000000,0.000000,0.876290,0.964487,0.448256,0.023592,0.855225,520.000000,482.000000,38.000000,2.000000,0.000000,0.000000:
// measure 0
0000
0000
0000
0000
,  // measure 1
0000
0000
0000
0000
,  // measure 2
0000
0000
0000
0000
,  // measure 3
0000
0000
0000
0000
,  // measure 4
0000
0000
0000
0000
,  // measure 5
0010
1000
0101
0000
0010
0001
1100
0000
,  // measure 6
0010
0000
1001
0100
0010
1000
0001
1000
,  // measure 7
0100
0010
0011
0000
0100
0010
1010
0000
,  // measure 8
0101
0000
0000
1100
0000
0000
0101
0000
0000
0000
1001
0000
0110
0000
0000
0000
,  // measure 9
1000
0010
0000
1000
0001
0000
1000
0100
0000
0010
0001
0000
0100
0000
0010
0000
,  // measure 10
0100
0001
0000
1000
0001
0000
0010
0100
0000
0010
0001
0000
1000
0000
0100
0000
,  // measure 11
1000
0001
0000
1000
0010
0000
0100
0001
0000
0010
0100
0000
1000
0000
0001
0000
,  // measure 12
0010
0100
0000
0010
0001
0000
0100
0010
0000
1000
0001
0000
1000
0000
0100
0000
,  // measure 13
0010
0001
0000
1000
0001
0000
0100
0010
0000
1000
0010
0000
1000
0000
0100
0000
,  // measure 14
0010
0000
0010
0000
0010
0000
0001
0000
1000
0010
0000
1000
0100
0000
0010
0000
,  // measure 15
0001
1000
0000
0010
1000
0000
0100
0010
0000
0001
0100
0000
0010
1000
0001
0000
,  // measure 16
1000
0100
1000
0100
0010
0001
0010
0001
0100
0010
0100
0010
1000
0001
1000
0001
,  // measure 17
0010
0000
0001
0000
1100
0000
0010
0000
1000
0001
1000
0000
0100
0000
0010
0000
,  // measure 18
0001
0000
0100
0000
0001
0000
0010
0100
1000
0010
1000
0001
1000
0100
1000
0000
,  // measure 19
0010
0000
0001
0100
0000
0100
1000
0000
0001
0010
0000
0010
1000
0000
0001
0000
,  // measure 20
1000
0000
0010
0000
0001
0000
0100
0000
1000
0001
1000
0000
0010
0000
0100
0000
,  // measure 21
0001
0000
1000
0000
0101
0000
0010
0000
1000
0100
1000
0000
0001
0000
0100
0000
,  // measure 22
0010
0000
1000
0000
0001
0000
0010
0100
1000
0010
1000
0001
0010
0100
1000
0000
,  // measure 23
0001
0000
0010
0001
0000
0100
0010
0000
1000
0001
1000
0100
1000
0000
0010
0000
,  // measure 24
0001
0100
0010
0100
0001
0010
0100
0010
0001
0100
0010
0100
0001
0010
0100
0010
,  // measure 25
0001
1000
0110
0010
1000
1100
0010
0011
,  // measure 26
0100
0110
1001
0010
1010
1000
1100
0001
,  // measure 27
0010
0100
0110
0010
0011
1010
0100
0101
,  // measure 28
0010
1100
0101
1000
0010
0001
1000
0100
,  // measure 29
0001
0000
0010
0000
1001
0000
0100
0000
0010
1000
0100
0000
0010
0000
0001
0000
,  // measure 30
0100
0000
0010
0000
1000
0000
0001
0010
0100
0010
0001
0000
1000
0000
0010
0100
,  // measure 31
0010
0000
1000
0000
0001
0000
0010
0001
1000
0010
0100
0000
0001
0000
1000
0000
,  // measure 32
0010
1000
0100
1000
0001
0000
0010
0001
0100
0010
0100
0001
1000
0100
0010
0001
,  // measure 33
0100
0000
0010
1000
0000
0010
0100
0000
0001
0010
0000
0001
1000
0000
0100
0000
,  // measure 34
1000
0000
0010
0000
0100
0001
0000
0010
0001
0000
1000
0010
0100
0001
0010
0100
,  // measure 35
1000
0000
0001
0010
0000
0001
0100
0000
0010
1000
0001
0000
0010
0100
1000
0000
,  // measure 36
0001
0010
0100
1000
0010
0100
0001
1000
0100
0010
0001
1000
0001
0100
0010
1000
,  // measure 37
0001
0000
0010
0100
0000
0010
0001
0000
1000
0001
0000
1000
0100
0000
0010
0000
,  // measure 38
0001
0000
0001
0000
0001
0000
0100
0000
0010
1000
0001
0100
0001
0010
0100
1000
,  // measure 39
0001
0000
0010
0001
0100
0010
1000
0000
0001
0100
0001
0000
0010
0000
0010
0100
,  // measure 40
1000
0001
1000
0001
0010
0100
0010
0100
1000
0001
0100
0010
1000
0001
0010
0100
,  // measure 41
1000
0000
0010
0100
0001
0000
1000
0001
0010
0100
1000
0000
0001
0000
0100
0000
,  // measure 42
0010
0000
1000
0000
0100
0000
1000
0001
1000
0010
1000
0001
0010
0100
1000
0000
,  // measure 43
0001
0000
0100
0010
1000
0000
0001
0000
1000
0100
0010
0000
0001
0000
1000
0000
,  // measure 44
0001
0000
0100
0010
1000
0000
0100
0010
0001
0000
0000
0000
1000
0000
1000
0000
,  // measure 45
1000
0000
0010
0000
1010
0000
0001
0000
1000
0100
0010
0000
0001
0000
0100
0000
,  // measure 46
0010
0000
1000
0100
1000
0000
0001
0010
0001
0100
0010
1000
0001
0010
0100
0000
,  // measure 47
1100
0000
0110
0000
0011
0000
0100
0000
0001
0010
0001
1000
0100
0010
0001
0000
,  // measure 48
1000
0010
0100
0001
0010
0100
1000
0001
1000
0100
0010
0001
0100
0010
1000
0001
,  // measure 49
0010
1100
0101
0010
1000
0100
1000
1001
,  // measure 50
0011
0110
1000
0001
1010
0100
0101
0010
,  // measure 51
2002
0000
0000
0000
,  // measure 52
0000
0000
0000
3003
;
