#TITLE:BRILLIANT 2U (Orchestra Groove);
#SUBTITLE:(25th Anniversary Special);
#ARTIST:NAOKI;
#BANNER:BRILLIANT 2U (Orchestra Groove) (25th Anniversary Special)-bn.png;
#BACKGROUND:BRILLIANT 2U (Orchestra Groove) (25th Anniversary Special)-bg.png;
#JACKET:BRILLIANT 2U (Orchestra Groove) (25th Anniversary Special)-jacket.png;
#MUSIC:BRILLIANT 2U (Orchestra Groove) (25th Anniversary Special).ogg;
#SAMPLESTART:27.185;
#SAMPLELENGTH:20;
#DISPLAYBPM:5:600;
#BPMS:0=150.125,5=75.063,8.5=150.125,9.5=75.063,13=150.065,14=75.033,14.5=150.065,15.5=75.033,16=150.065,17=75.033,17.5=150.065,18.5=75.033,19=150.065,20=75.033,20.5=150.065,21.5=75.033,22=150.065,23=300.13,24=600.26,28=300.13,158=150.065,162=75.033,162.5=150.065,163.5=75.033,164=300.13,166=150.065,167=300.13,168=150.065,169=75.033,169.5=150.065,170=75.033,171.5=300.13,347.5=600.26,351.5=300.13,353.5=150.065,354.5=75.033,355=37.516,355.25=18.758,355.375=9.379,355.4375=4.69;
#STOPS:22=0.2,22.25=0.2,22.5=0.2;
#BGCHANGES:;

//---------------dance-single - ----------------
#NOTES:
     dance-single:
     :
     Challenge:
     17:
     :
0000
0000
0000
0000
,
0000
0000
0000
0000
,
0000
0000
0000
0000
,
0000
0000
1000
0000
1100
0001
0000
0101
,
1000
0000
1010
0001
0000
0011
0100
0000
,
1001
0000
0010
0000
0000
0000
0110
0000
1001
1010
1100
0000
0110
0000
0000
0000
,
2002
0000
0000
3003
,
1000
0010
0000
0010
0100
0000
0100
0001
,
0000
0001
0010
0000
0001
1000
0100
0000
,
1000
0001
0000
0001
0100
0000
0100
0010
,
0000
0010
1000
0000
0100
0010
0001
0000
,
0100
0001
0000
0001
0010
0000
0010
0100
,
0000
0100
1000
0000
0010
1000
0001
0000
,
0010
0001
0000
0001
1000
0000
1000
0010
,
0000
0010
0100
0000
0001
1000
0100
0000
,
1000
0001
0000
0001
1000
0000
1000
0100
,
0000
0100
0010
0000
0001
1000
0010
0000
,
1100
0110
0011
0100
,
0001
0010
1000
0010
0001
0100
1000
0100
,
0101
0000
0001
0010
0011
0000
0010
0100
,
1100
0000
0010
1000
0001
1000
0100
0000
,
1000
0001
0100
0010
0100
0001
1000
0010
,
0100
1000
0010
0001
0100
0001
0010
1000
,
0100
0010
0001
0100
0010
1000
0002
0000
,
0010
0010
0100
0000
0010
0000
1003
0000
,
0101
0000
0010
1000
1100
0000
0100
0010
,
0011
0000
0010
1000
0010
0001
0100
0000
,
1000
0001
0010
0100
1000
0000
0010
1000
,
0001
0100
0010
0000
1000
0100
0001
0000
,
1100
0000
0010
1000
1001
0000
0100
0010
,
0110
0000
0001
0010
0001
0100
1000
0000
,
0010
1000
0001
0100
1000
0100
0020
0000
,
1000
1000
0100
0000
0001
0000
0130
0000
,
1010
0000
0001
0010
0011
0000
0100
0010
,
1010
0000
1000
0001
0010
0100
1000
0000
,
0010
1000
0100
0010
0001
0000
0100
0001
,
0010
0001
1000
0000
0100
0010
0100
0000
,
1000
0001
0010
0001
0100
1000
0100
0010
,
1000
0100
0001
0100
0010
0001
0100
0010
,
1000
0000
0100
0000
1100
0010
0100
0101
,
0010
1001
0001
0100
0110
1100
0001
0011
,
0010
0000
0100
0000
1001
0001
0011
0000
,
1100
0000
0000
0000
0010
0000
0000
0000
1010
0000
0001
0000
1001
0000
0000
0000
0210
0000
0020
0030
2000
3000
0002
0003
2000
3000
0020
0300
0130
0000
0000
0000
,
0000
0010
0000
1010
0000
0001
0100
1000
,
0100
0001
0000
0010
0100
1000
0000
0010
,
0000
1001
0000
0101
0000
0010
0001
0010
,
1000
0100
0000
0010
0001
1000
0100
0010
,
0000
0001
0000
0101
0000
0100
0010
0001
,
0010
1000
0000
0100
0010
0001
0000
0100
,
0010
0001
0010
1000
0000
0100
0001
0100
,
0010
0001
0000
1000
0010
0100
0001
0010
,
0001
0000
0001
0100
0000
0100
0010
0000
,
0010
1000
0000
0100
0010
0001
0000
0100
,
0000
0010
0000
1001
0001
0100
0000
1010
,
0000
1010
0000
0001
0100
1000
0000
1100
,
0000
0010
1000
1001
0000
0010
0100
0101
,
0000
0010
0100
0001
0010
1000
0000
1100
,
0000
0101
0000
1010
0000
0011
0001
0100
,
0010
0001
0010
1000
0001
1000
0100
0010
,
0001
0000
1000
0010
0000
1000
0100
0000
,
0100
0010
0000
0001
0100
1000
0000
1100
,
0000
0110
0000
0011
0000
0100
0000
0010
,
0001
0010
0100
0001
0010
0100
1000
1001
,
0000
0010
1000
1100
0000
0100
0010
0011
,
0000
0100
0001
1000
0100
0010
0000
0001
,
0100
0010
0001
0010
1000
0100
0010
0001
,
0100
0001
0010
1000
0010
0100
1000
0001
,
0100
0010
0001
0010
1000
0200
0000
0010
,
0010
0001
0000
1000
0000
0310
0000
1100
,
0000
0001
0100
0110
0000
0010
1000
1010
,
0000
0100
0010
0001
0100
1000
0000
0010
,
1000
0001
0010
0100
0000
0001
0100
1000
,
0001
0100
0000
0010
1000
0001
0000
0011
,
0000
1000
0001
1010
0000
0100
0010
0101
,
0000
0010
1000
0100
0010
0001
0000
0100
,
0001
0010
0100
0001
0100
2000
0000
0001
,
0001
0100
0000
0010
0000
3100
0000
0011
,
0000
1000
0001
0110
0000
0010
1000
1100
,
0000
0100
0010
1000
0010
0001
0000
0011
,
0000
0110
0000
1100
0000
0010
0000
1000
,
0001
0010
1000
0010
0100
0010
0001
0100
,
0010
0001
0010
1000
0001
1000
0100
0001
,
0100
0010
0100
0001
0100
1000
0010
1001
,
0000
0110
0000
2001
0000
0001
0000
0100
,
0000
0010
0000
3001
0000
0011
0000
1001
,
0000
0101
0000
0010
0000
1010
0000
1000
,
0100
0010
0001
0010
0100
1000
0001
2002
,
0000
0000
0000
0000
,
0000
0000
0000
0000
0000
0000
0000
0000
0000
0000
0000
0000
0000
0000
0000
0000
0000
0000
0000
0000
0000
0000
0000
0000
0000
0000
0000
0000
0000
0000
0000
0000
0000
0000
0000
0000
0000
0000
0000
0000
0000
0000
0000
0000
0000
0000
0000
0000
0000
0000
0000
0000
0000
0000
0000
3003
0000
0000
0000
0000
0000
0000
0000
0000
;
