#TITLE:BRILLIANT 2U (CLUB VER.);
#ARTIST:NAOKI;
#BANNER:BRILLIANT 2U (CLUB VER.).png;
#BACKGROUND:BRILLIANT 2U (CLUB VER.)-bg.png;
#JACKET:BRILLIANT 2U (CLUB VER.)-jacket.png;
#MUSIC:BRILLIANT 2U (CLUB VER.).ogg;
#SAMPLESTART:27.2;
#SAMPLELENGTH:20;
#DISPLAYBPM:150;
#BPMS:0=150;
#BGCHANGES:;

//---------------dance-single - ----------------
#NOTES:
     dance-single:
     :
     Beginner:
     4:
     :
0000
0000
0000
0000
,
0000
0000
0000
0000
,
0000
0000
0000
0000
,
0000
0000
0000
0000
,
0000
0000
0000
0000
,
0000
0000
0000
0000
,
0000
0000
0000
0000
,
0010
0000
0010
0000
,
1001
0000
0000
0000
,
1000
1000
1000
1000
,
0000
0000
0000
0000
,
0001
0001
0001
0001
,
0000
0000
0000
0000
,
0010
0010
0010
0010
,
0000
0000
0000
0000
,
0100
0100
0100
0100
,
0000
0000
0000
0000
,
0010
0010
0010
0010
,
0000
0000
0000
0000
,
0001
0001
0001
0001
,
0000
0000
0000
0000
,
0100
0100
0100
0100
,
0000
0000
0000
0000
,
1000
1000
1000
1000
,
0000
0000
0000
0000
,
0001
0000
1000
0000
,
0001
0000
1000
0000
,
0001
0000
1000
0000
,
0010
0000
0010
0000
,
1000
1000
1000
0000
,
0001
0001
0001
0000
,
0100
0100
0100
0000
,
0001
0000
0010
0000
,
0100
0100
0100
0100
,
0000
0000
0000
0000
,
0010
0010
0010
0010
,
0000
0000
0000
0000
,
0001
0001
0001
0001
,
0000
0000
0000
0000
,
1000
1000
1000
1000
,
0000
0000
0000
0000
,
0010
0010
0010
0010
,
0000
0000
0000
0000
,
1000
1000
1000
1000
,
0000
0000
0000
0000
,
0001
0001
0001
0001
,
0000
0000
0000
0000
,
0100
0100
0100
0100
,
0000
0000
0000
0000
,
0001
0000
0000
0000
,
1000
0000
0001
0000
,
0110
0000
0000
0000
;

//---------------dance-single - ----------------
#NOTES:
     dance-single:
     :
     Easy:
     7:
     :
0000
0000
0000
0000
,
0000
0000
0000
0000
,
0000
0000
0000
0000
,
0000
0000
0000
0000
,
0000
0000
0000
0000
,
0000
0000
0000
0000
,
0000
0000
0000
0000
,
0010
0010
0001
0001
,
0100
0100
1000
1000
,
0010
0000
0010
0000
,
0010
0000
0100
0000
0001
1000
0100
0000
,
0010
0000
0010
0000
,
0010
0001
0100
1000
,
0010
0000
0010
0000
,
0010
0000
0100
0000
0001
1000
0100
0000
,
0010
0000
0010
0000
,
0010
0001
0100
1000
,
0010
0000
0010
0000
,
1001
1001
1001
1001
,
0100
0000
0100
0000
,
1001
1001
1001
1001
,
0010
0000
0010
0000
,
1001
1001
1001
1001
,
0100
0000
0100
0000
,
0001
1000
0001
1000
,
0010
0000
0010
0000
,
0010
0100
0110
0000
,
0010
0000
0010
0000
,
0100
0010
1001
0000
,
0010
0100
0001
0100
,
1000
0100
1001
0000
,
0010
0100
1000
0100
,
0001
0010
0001
0010
,
0100
0000
0100
0000
,
0010
0000
0100
0000
1000
0001
0100
0000
,
0010
1000
0100
0001
,
0100
1000
0010
0001
,
0100
0000
0100
0000
,
0010
0000
0100
0000
0001
1000
0100
0000
,
0010
0001
1000
0100
,
0010
0001
0100
1000
,
0001
0000
0010
0000
,
0100
1000
0010
0001
,
1000
0100
0001
0100
,
1001
1001
0110
0110
,
0001
1000
0001
0110
,
0001
0001
0001
0001
,
1000
1000
1000
0110
,
0001
0001
0001
0001
,
0100
0100
0000
0000
0000
0000
0000
0001
,
1000
0001
0000
0010
0100
0010
0100
0010
,
0100
0000
0000
0000
;

//---------------dance-single - ----------------
#NOTES:
     dance-single:
     :
     Medium:
     8:
     :
0000
0000
0000
0000
,
0000
0000
0000
0000
,
0000
0000
0000
0000
,
0000
0000
0000
0000
,
0000
0000
0000
0000
,
0000
0000
0000
0000
,
0000
0000
0000
0000
,
0010
0010
1001
1001
,
0100
0000
0100
0000
1000
0100
0001
0010
,
0100
0000
0010
0100
,
0010
0000
0100
0000
0001
1000
0100
0010
,
0100
0000
0010
0100
,
0010
1001
0100
1001
,
0010
0000
0010
0100
,
0010
0000
0100
0000
0001
1000
0100
0010
,
0100
0000
0010
0100
,
0010
0001
0100
1001
,
0010
1001
0010
0000
,
1001
0011
1100
1001
,
0100
1001
0100
0000
,
1001
0101
1010
1001
,
0010
1001
0010
0000
,
1001
0011
1100
1001
,
0100
1001
0100
0000
,
0001
1000
0100
0010
0001
0100
1000
0000
,
0010
0000
0010
0100
,
0011
1100
0110
0000
,
0001
0000
0010
1000
,
0101
1010
1001
0000
,
0010
0100
0001
0100
,
1000
0100
1001
0000
,
0010
0100
1000
0100
,
1000
0001
0100
0010
1000
0100
0010
0001
,
0100
0010
1000
0001
,
0010
0000
0100
0000
1000
0001
0100
0010
,
1000
0001
0100
0001
,
0100
1000
0010
0001
,
0100
0001
0100
1000
,
0010
0000
0100
0000
0001
1000
0100
0010
,
0100
0001
1000
0100
,
0010
0001
0100
1000
,
0001
0000
0010
0000
,
0100
1000
0010
0001
,
1000
0100
0001
0100
,
1010
1100
0011
0101
,
1000
0010
0001
0110
,
1001
1100
1001
1100
,
0010
0001
1000
0110
,
0001
1000
0001
0000
0001
1000
0001
0000
,
0100
0100
0000
0000
0000
0000
0000
0001
,
1000
0100
0000
0010
0001
0100
1000
0100
,
0010
0000
0000
0000
;

//---------------dance-single - ----------------
#NOTES:
     dance-single:
     :
     Hard:
     10:
     :
0000
0000
0000
0000
,
0000
0000
0000
0000
,
0000
0000
0000
0000
,
0000
0000
0000
0000
,
0000
0000
0000
0000
,
0000
0000
0000
0000
,
0000
0000
0000
0000
,
0010
0010
1000
0100
,
1000
0000
1000
0000
0100
0000
0001
0100
,
1000
0000
0010
0000
0100
0001
0010
0000
,
1100
0000
0011
0000
0100
1000
0001
0000
,
0101
0000
1010
0000
0100
0001
0010
0000
,
0100
1000
0001
0100
,
1010
0000
0101
0000
0010
0100
1000
0000
,
0010
0100
0001
0000
1010
0000
0100
0000
,
0001
0010
0100
1000
,
0010
0100
0001
0000
0010
0100
1000
0000
,
1001
0101
1001
1010
,
0110
0000
1001
0000
0101
0000
0010
1000
,
0100
0001
0100
1000
,
0110
0000
1001
0000
0110
0000
0001
1000
,
0100
0010
0001
0100
,
1010
0000
0101
0000
1001
0000
0010
0100
,
0001
1000
0010
0100
,
1001
0000
0100
0000
0010
0001
0010
0000
,
0001
0000
0100
0000
1000
0100
0000
0001
0000
0010
0000
0000
0000
0000
0000
0000
,
0100
0000
1000
0000
0010
0100
0000
0001
0000
0000
0000
0000
0000
0000
0000
0000
,
1000
0000
0100
0000
0010
0001
0000
0100
0000
0010
0000
0000
0000
0000
0000
0000
,
1000
0000
0001
0000
0010
0100
0000
1000
0000
0000
0000
0000
0000
0000
0000
0000
,
0001
0000
0100
0000
1000
0100
0000
0001
0000
0010
0000
0000
0000
0000
0000
0000
,
0100
0000
1000
0000
0010
0100
0000
0001
0000
0000
0000
0000
0000
0000
0000
0000
,
1000
0000
0100
0000
0010
0001
0000
0100
0000
0010
0000
0000
0000
0000
0000
0000
,
1000
0001
0010
0100
1000
0001
0100
0010
,
1000
0000
0001
0000
1000
0001
0100
0000
,
0011
0000
1100
0000
0001
1000
0100
0000
,
0001
0000
1000
0000
0001
1000
0100
0000
,
0110
1001
0010
0100
,
0011
0000
1100
0000
0001
1000
0100
0000
,
1000
1000
0001
0000
0110
0000
1001
0000
,
0110
0000
1000
0000
0001
0000
0010
0100
,
1000
0101
0010
0010
,
1010
0000
0101
0000
0010
1000
0100
0000
,
1001
0000
0110
0000
1001
0000
0010
0100
,
0010
0001
0100
0010
,
1001
0000
0110
0000
1001
0000
0010
0100
,
0001
1000
0010
0100
,
1001
0000
0110
0000
1001
0000
0010
0100
,
1000
0001
0010
1001
,
0100
1001
0010
1001
,
0100
0010
0001
0000
1000
0000
0100
0000
,
1000
0001
0100
0000
0001
1000
0100
0010
,
1001
0000
0000
0000
;

//---------------dance-single - ----------------
#NOTES:
     dance-single:
     :
     Challenge:
     12:
     :
0000
0000
0000
0000
,
0000
0000
0000
0000
,
0000
0000
0000
0000
,
0000
0000
0000
0000
,
0000
0000
0000
0000
,
0000
0000
0000
0000
,
0000
0000
0000
0000
,
0010
0000
0000
1000
0000
0000
0100
0000
0000
0010
0000
0000
0002
0000
0000
2000
,
0000
0000
0000
3003
,
0010
0000
0000
1000
0000
0000
1100
0000
0000
0101
0000
0000
1100
0000
0000
0000
,
0000
0000
0000
0000
0001
1000
0000
0000
0010
0000
0010
0000
1000
0001
1000
0000
,
0010
0000
0000
1000
0000
0000
1100
0000
0000
0110
0000
0000
0011
0000
0000
0000
,
1001
0000
0010
0000
1000
0000
0001
0000
0010
0100
0010
0100
0010
0000
0001
0000
,
0100
0000
0000
0010
0000
0000
1010
0000
0000
0101
0000
0000
1010
0000
0000
0000
,
0001
0000
0001
0000
0110
0000
0000
0000
1000
0010
0000
1000
0010
0000
0000
0000
,
1001
0000
0000
0100
0000
0000
0010
0000
0000
1000
0000
0000
0001
0000
1000
0000
,
0001
0010
0001
0010
0001
0000
1000
0000
0100
0000
0100
0000
0010
0000
0001
0000
,
0100
0000
0000
0010
0000
0000
1000
0000
0000
0001
0000
0000
0010
0000
0100
0000
,
1100
0000
0110
0000
0011
0000
1000
0001
,
0010
0000
0000
0001
0000
0000
0100
0000
0000
1000
0000
0000
0001
0000
0100
0000
,
1010
0000
1001
0000
1100
0000
0010
0001
,
1000
0000
0000
0001
0000
0000
0010
0000
0000
0100
0000
0000
1000
0000
0001
0000
,
0011
0000
0110
0000
1100
0000
0010
1000
,
0001
0000
0000
0001
0000
0000
1000
0000
0000
0010
0000
0000
1000
0000
0001
0000
,
1000
0010
1000
0010
1000
0000
0001
0000
0100
0000
0100
0000
0010
0000
1000
0000
,
0001
0000
0010
0000
0001
1000
0000
1100
0000
0000
1100
0000
0000
0000
0001
1000
,
0001
0000
0100
0000
0010
1000
0000
0202
0000
0000
0000
0000
0300
0000
0000
0000
,
1003
0000
0001
0000
1000
0100
0000
0110
0000
0110
0000
0000
0000
0001
1000
0001
,
1000
0000
0010
0000
0100
0001
0000
0202
0000
0000
0000
0300
0000
0000
1003
0001
,
1000
0000
0100
0000
0010
0001
0000
0011
0000
0011
0000
0000
0000
0100
1000
0100
,
1000
0000
0001
0000
0100
0010
0000
0220
0000
0000
0000
0000
0300
0000
0000
0000
,
0130
0000
0010
0000
0100
0001
0000
1001
0000
1001
0000
0000
0000
0000
0000
0000
,
1000
1000
0010
0010
0001
0001
0100
0100
,
0001
0000
0000
0010
0000
0000
1100
0000
0000
0101
0000
0000
1100
0000
0000
0000
,
0000
0000
0000
0000
0010
1000
0000
0000
0001
0000
0001
0000
1000
0100
1000
0000
,
0001
0000
0000
0100
0000
0000
1010
0000
0000
1100
0000
0000
0011
0000
0000
0000
,
1001
0000
0010
0000
1000
0000
0100
0000
0001
1000
0001
1000
0001
0000
0010
0000
,
0100
0000
0000
1000
0000
0000
1010
0000
0000
0110
0000
0000
0101
0000
0000
0000
,
0010
0000
0010
0000
1001
0000
0000
0000
0100
0001
0000
0100
0001
0000
0000
0000
,
1001
0000
0000
1000
0000
0000
0001
0000
0000
0010
0000
0000
0100
0000
0000
0000
,
1000
0001
1000
0001
1000
0000
0010
0000
0100
0000
0100
0000
0001
0000
1000
0000
,
0001
0000
0000
0010
0000
0000
1000
0000
0000
0100
0000
0000
1000
0000
0001
0000
,
0011
0000
1100
0000
0101
0000
1001
0100
,
0010
0000
0000
1000
0000
0000
0100
0000
0000
1000
0000
0000
0001
0000
0010
0000
,
0110
0000
1100
0000
1001
0000
0110
0001
,
1000
0000
0000
0010
0000
0000
0001
0000
0000
0100
0000
0000
0001
0000
1000
0000
,
1100
0000
0000
0000
1001
0000
0000
0000
0110
0000
0001
1000
0001
1000
0000
0000
,
0100
0000
0000
0010
0000
0000
0001
0000
0000
0100
0000
0000
0010
0000
1000
0000
,
0001
0000
0100
0000
1000
0000
0000
0000
1010
0000
0000
0000
0001
1000
0001
1000
,
0001
0100
0010
0000
1100
0000
0101
0001
,
1000
0010
0001
0100
0001
0010
1000
0001
,
1010
0000
0000
0000
;

//---------------dance-double - ----------------
#NOTES:
     dance-double:
     :
     Easy:
     7:
     :
00000000
00000000
00000000
00000000
,
00000000
00000000
00000000
00000000
,
00000000
00000000
00000000
00000000
,
00000000
00000000
00000000
00000000
,
00000000
00000000
00000000
00000000
,
00000000
00000000
00000000
00000000
,
00000000
00000000
00000000
00000000
,
00100000
00100000
00010000
00010000
,
00001000
00001000
00000001
00000001
,
00000010
00000000
00000010
00000000
,
00000100
00000000
00001000
00000000
00010000
01000000
10000000
00000000
,
00100000
00000000
00100000
00000000
,
01000000
00010000
00001000
00000100
,
00000010
00000000
00000010
00000000
,
00000001
00000000
00001000
00000000
00010000
01000000
10000000
00000000
,
00100000
00000000
00100000
00000000
,
10000000
01000000
00010000
00001000
,
00000010
00000000
00000010
00000000
,
00001001
00001001
00001001
00001001
,
00000100
00000000
00000100
00000000
,
00011000
00011000
00011000
00011000
,
00100000
00000000
00100000
00000000
,
10010000
10010000
10010000
10010000
,
01000000
00000000
01000000
00000000
,
00010000
00001000
00010000
00001000
,
00000010
00000000
00000010
00000000
,
00001000
00010000
01100000
00000000
,
00100000
00000000
00100000
00000000
,
00010000
00001000
00001001
00000000
,
00000010
00000100
00001000
00010000
,
10000000
01000000
10010000
00000000
,
00100000
01000000
00010000
00001000
,
00000010
00000001
00000010
00000001
,
00000100
00000000
00000100
00000000
,
00000010
00000000
00000100
00000000
00001000
00010000
00000100
00000000
,
00001000
00010000
01000000
10000000
,
00010000
00100000
10000000
00010000
,
01000000
00000000
01000000
00000000
,
00001000
00000000
00010000
00000000
00000100
00001000
00000001
00000000
,
00000010
00000100
00001000
00010000
,
01000000
00100000
10000000
00010000
,
00001000
00000000
00000010
00000000
,
00000100
00001000
00010000
00100000
,
10000000
01000000
00010000
00001000
,
10010000
10010000
00011000
00011000
,
00000100
00000001
00001000
00000110
,
00001000
00001000
00001000
00001000
,
00010000
00010000
00010000
01100000
,
10000000
10000000
10000000
10000000
,
01000000
01000000
00000000
00000000
00000000
00000000
00000000
00010000
,
10000000
00010000
00000000
00010000
00001000
00010000
00001000
00010000
,
00001000
00000000
00000000
00000000
;

//---------------dance-double - ----------------
#NOTES:
     dance-double:
     :
     Medium:
     9:
     :
00000000
00000000
00000000
00000000
,
00000000
00000000
00000000
00000000
,
00000000
00000000
00000000
00000000
,
00000000
00000000
00000000
00000000
,
00000000
00000000
00000000
00000000
,
00000000
00000000
00000000
00000000
,
00000000
00000000
00000000
00000000
,
00100000
00100000
10000000
01000000
,
10000000
00000000
10000000
00000000
01000000
00000000
00010000
00001000
,
00000010
00000000
00000010
00000000
00000010
00000001
00000100
00000000
,
00000011
00000000
00001100
00000000
00000010
00010000
01000000
00000000
,
10100000
00000000
11000000
00000000
01000000
00010000
00001000
00000000
,
00000010
00000001
00000100
00010000
,
10100000
00000000
01010000
00000000
00100000
00001000
00000100
00000000
,
00000010
00010000
00001000
00000000
00011000
00000000
01000000
00000000
,
00010000
00100000
01000000
00010000
,
00000010
00001000
00000100
00000000
00000001
00000100
00000010
00000000
,
00001010
00001100
00011000
01010000
,
01100000
00000000
10010000
00000000
01010000
00000000
00001000
00010000
,
00000100
00000001
00001000
00000100
,
00001001
00000000
00000110
00000000
00011000
00000000
00010000
10000000
,
01000000
00010000
00001000
00000100
,
00001001
00000000
00000110
00000000
00011000
00000000
00010000
10000000
,
01000000
00100000
00010000
01000000
,
00011000
00000000
00000100
00000000
00001000
00010000
00001000
00000000
,
00010000
00000000
00100000
00000000
01000000
10000000
01000000
00000000
,
00010000
00000000
00000010
00000000
00000100
00000001
00000100
00000000
,
00001000
00000000
00100000
00000000
01000000
10000000
01000000
00000000
,
00010000
00000010
00001001
00000110
,
00000001
00000100
00001000
00010000
01000000
00000000
10000000
00000000
,
10000000
01000000
00010000
00001000
00000100
00000000
00000001
00000000
,
00000001
00000100
00001000
00010000
01000000
00000000
10000000
00000000
,
10000000
01000000
00010000
00001000
00000100
00000001
00001000
00000000
,
00001000
00000000
00010000
00000000
10000000
00010000
01000000
00000000
,
00110000
00000000
11000000
00000000
00010000
10000000
01000000
00000000
,
00010000
00000000
00001000
00000000
00000001
00001000
00000100
00000000
,
00000110
00011000
10000000
01000000
,
00110000
00000000
11000000
00000000
00010000
10000000
01000000
00000000
,
10000000
10000000
00010000
00000000
00011000
00000000
00000110
00000000
,
00001001
00000000
00000100
00000000
00011000
00000000
00100000
10000000
,
01000000
01010000
00100000
00100000
,
00110000
00000000
01010000
00000000
00010000
10000000
01000000
00000000
,
10010000
00000000
01100000
00000000
00011000
00000000
00000010
00000001
,
00000100
00001000
00100000
01000000
,
10010000
00000000
01100000
00000000
00011000
00000000
00000010
00000001
,
00000100
00001000
00100000
01000000
,
10010000
00000000
01100000
00000000
00011000
00000000
00000001
00001000
,
00000100
00001000
00100000
10010000
,
00100000
10010000
00010000
00011000
,
00000010
00000100
00001000
00000000
00010000
00000000
01000000
00000000
,
10000000
00010000
01000000
00000000
00001000
00010000
00000100
00000010
,
00001001
00000000
00000000
00000000
;

//---------------dance-double - ----------------
#NOTES:
     dance-double:
     :
     Hard:
     11:
     :
00000000
00000000
00000000
00000000
,
00000000
00000000
00000000
00000000
,
00000000
00000000
00000000
00000000
,
00000000
00000000
00000000
00000000
,
00000000
00000000
00000000
00000000
,
00000000
00000000
00000000
00000000
,
00000000
00000000
00000000
00000000
,
00000001
00000000
00000000
00000010
00000000
00000000
00001000
00000000
00000000
00000100
00000000
00000000
00020000
00000000
00000000
00002000
,
00000000
00000000
00000000
00033000
,
00001000
00000000
00000000
00010000
00000000
00000000
00001000
00000000
00000000
01000000
00000000
00000000
00100000
00000000
00000000
00000000
,
00000000
00000000
00000000
00000000
10000000
00010000
00000000
00000000
00100000
00000000
00100000
00000000
00100000
00000000
00010000
00000000
,
01010000
00000000
00000000
00000000
11000000
00000000
00000000
00000000
01010000
00000000
00000000
00000000
10000000
00100000
00000000
00000000
,
10010000
00100000
10000000
01000000
00100000
00001000
00010000
00000010
,
00000100
00000000
00000000
00000001
00000000
00000000
00000010
00000000
00000000
00000001
00000000
00000000
00001000
00000000
00000000
00000000
,
00000010
00000000
00000010
00000000
00001001
00000000
00000000
00000000
00010000
00000100
00000000
00010000
00000100
00000000
00000000
00000000
,
00001100
00000000
00010100
00000000
01001000
00000000
00100000
01000000
,
00010000
00100000
00010000
01000000
00100000
10000000
00010000
00100000
,
01000000
00000000
00000000
01000000
00000000
00000000
00100000
00000000
00000000
00010000
00000000
00000000
10000000
00000000
00010000
00000000
,
00110000
00000000
01010000
00000000
10010000
00000000
01000000
00010000
,
00100000
00000000
00000000
00100000
00000000
00000000
00001000
00000000
00000000
00010000
00000000
00000000
00000010
00000000
00000100
00000000
,
00000101
00000000
00010010
00000000
00001100
00000000
00000010
00000001
,
00001000
00000000
00000000
00001000
00000000
00000000
00000010
00000000
00000000
00010000
00000000
00000000
00001000
00000000
01000000
00000000
,
01100000
00000000
10010000
00000000
10100000
00000000
01000000
10000000
,
00010000
00000000
00000000
00100000
00000000
00000000
00010000
00000000
00000000
01000000
00000000
00000000
00001000
00000000
00010000
00000000
,
00000010
00000000
00001000
00000000
00000100
00000000
00000000
00000001
00000000
00000000
00000010
00000000
00000001
00000000
00001000
00000000
,
00000100
00000000
00010000
00000000
00001000
00010000
00000000
01000000
00000000
00000000
02000000
00000000
00000000
00000000
00000000
00000000
,
13000000
00000000
00100000
00000000
10000000
00010000
00000000
00200000
00000000
00000000
00000000
00000000
00000000
00000000
00000000
00000000
,
00301000
00000000
00100000
00000000
00001000
00010000
00000000
00000010
00000000
00000020
00000000
00000000
00000000
00000000
00000000
00000000
,
00001030
00000000
00000100
00000000
00001000
00000001
00000000
00000002
00000000
00000000
00000000
00000000
00000000
00000000
00000000
00000000
,
00000013
00000000
00000001
00000000
00001000
00000010
00000000
00001000
00000000
00000200
00000000
00000000
00000000
00000000
00000000
00000000
,
00010300
00000000
00000100
00000000
00010000
00001000
00000000
00200000
00000000
00000000
00000000
00000000
00000000
00000000
00000000
00000000
,
01300000
00000000
00100000
00000000
01000000
10000000
00000000
00010000
00000000
20000000
00000000
00000000
00000000
00000000
00000000
00000000
,
30100000
10000000
00010000
01000000
00001000
00010000
00000010
00000100
,
00000001
00000000
00000000
00000010
00000000
00000000
00001000
00000000
00000000
00000001
00000000
00000000
00001000
00000000
00000000
00000000
,
00000000
00000000
00000000
00000000
00000010
00000100
00000000
00000000
00000001
00000000
00000001
00000000
00000001
00000000
00001000
00000000
,
00001100
00000000
00000000
00000000
00001010
00000000
00000000
00000000
00010010
00000000
00000000
00000000
00001000
00010000
00000000
00000000
,
00011000
00100000
00010000
10000000
01000000
00100000
00010000
00001000
,
00000100
00000000
00000000
00000100
00000000
00000000
00000010
00000000
00000000
00001000
00000000
00000000
00000001
00000000
00000000
00000000
,
00000010
00000000
00000010
00000000
00001001
00000000
00000000
00000000
00000010
00010000
00000000
00000010
00010000
00000000
00000000
00000000
,
00010100
00000000
00101000
00000000
01001000
00000000
00010000
01000000
,
00100000
00000000
10000000
00000000
00010000
00000000
00000000
00100000
00000000
00000000
00010000
00000000
00001000
00000000
00000100
00000000
,
00000001
00000000
00000000
00000010
00000000
00000000
00001000
00000000
00000000
00000001
00000000
00000000
00001000
00000000
00000100
00000000
,
00000110
00000000
00000011
00000000
00010010
00000000
00001000
01000000
,
10000000
00000000
00000000
01000000
00000000
00000000
00010000
00000000
00000000
00100000
00000000
00000000
00010000
00000000
10000000
00000000
,
10100000
00000000
10010000
00000000
01100000
00000000
01000000
00010000
,
00100000
00000000
00000000
00001000
00000000
00000000
00010000
00000000
00000000
00000010
00000000
00000000
00010000
00000000
00001000
00000000
,
00011000
00000000
00000000
00000000
00000110
00000000
00000000
00000000
00001001
00000000
00000000
00000000
00000010
00000100
00000000
00000000
,
00000001
00000000
00000001
00000000
00001100
00000000
00000000
00000000
00100000
00001000
00000000
00100000
00001000
00000000
00000000
00000000
,
00010000
00010000
00010000
00001000
01000000
00100000
10000000
00010000
,
00100000
01000000
10010000
00000000
01000000
00000000
01100000
00010000
,
10000000
00100000
00000000
10000000
01000000
00010000
00001000
00000100
,
00000101
00000000
00000000
00000000
;

//---------------dance-double - ----------------
#NOTES:
     dance-double:
     :
     Challenge:
     12:
     :
00000000
00000000
00000000
00000000
,
00000000
00000000
00000000
00000000
,
00000000
00000000
00000000
00000000
,
00000000
00000000
00000000
00000000
,
00000000
00000000
00000000
00000000
,
00000000
00000000
00000000
00000000
,
00000000
00000000
00000000
00000000
,
00001000
00000000
00000000
01000000
00000000
00000000
00100000
00000000
00000000
10000000
00000000
00000000
01000000
00000000
00000000
00000000
,
00010000
00000000
00000000
00000010
00000000
00000000
00001000
00000000
00000000
00000001
00000000
00000000
00000100
00000000
00000000
00000000
,
00000010
00000000
00000000
00001000
00000000
00000000
00001100
00000000
00000000
00000101
00000000
00000000
00001100
00000000
00000000
00000000
,
00000000
00000000
00000000
00000000
00010000
00001000
00000000
00000000
01000000
00000000
01000000
00000000
00100000
10000000
00100000
00000000
,
01000000
00000000
00000000
00010000
00000000
00000000
00110000
00000000
00000000
10100000
00000000
00000000
00110000
00000000
00000000
00000000
,
10010000
00000000
00100000
00000000
10000000
00000000
01000000
00000000
00100000
00001000
00100000
00001000
00100000
00000000
00010000
00000000
,
00000100
00000000
00000000
00000010
00000000
00000000
00001010
00000000
00000000
00000101
00000000
00000000
00001010
00000000
00000000
00000000
,
00000100
00000000
00000100
00000000
00010010
00000000
00000000
00000000
00010000
00001000
00000000
00001000
01000000
00000000
00000000
00000000
,
01100000
00000000
00000000
00010000
00000000
00000000
00100000
00000000
00000000
00001000
00000000
00000000
00010000
00000000
00000100
00000000
,
00000010
00000001
00000010
00000001
00000010
00000000
00000100
00000000
00010000
00000000
01000000
00000000
10000000
00000000
00010000
00000000
,
01000000
00000000
00000000
00100000
00000000
00000000
10000000
00000000
00000000
00010000
00000000
00000000
10000000
00000000
01000000
00000000
,
00100000
00010000
00000000
00100000
00010000
00000000
00100000
00010000
00000000
00100000
00010000
00000000
00001000
00000000
00000100
00000000
,
00000001
00000000
00000000
00000010
00000000
00000000
00000001
00000000
00000000
00001000
00000000
00000000
00000010
00000000
00000100
00000000
,
00000010
00001000
00000000
00000010
00001000
00000000
00000010
00001000
00000000
00000010
00001000
00000000
00000001
00000000
00000100
00000000
,
00000010
00000000
00000000
00010000
00000000
00000000
01000000
00000000
00000000
10000000
00000000
00000000
00100000
00000000
01000000
00000000
,
00001000
00010000
00000000
00001000
00010000
00000000
00001000
00010000
00000000
00001000
00010000
00000000
00001000
00000000
00000100
00000000
,
00000001
00000000
00000000
00000010
00000000
00000000
00001000
00000000
00000000
00000100
00000000
00000000
00010000
00000000
00001000
00000000
,
01000000
00100000
01000000
00100000
01000000
00000000
00010000
00000000
10000000
00000000
01000000
00000000
10000000
00000000
00000000
00000000
,
00100000
00000000
10000000
00000000
00010000
01000000
00000000
01010000
00000000
00000000
01010000
00000000
00000000
00000000
00001000
00010000
,
00001000
00000000
00000100
00000000
00000001
00000010
00000000
00000022
00000000
00000000
00000000
00000000
00000030
00000000
00000000
00000000
,
00001003
00000000
00000001
00000000
00001000
00000010
00000000
00001010
00000000
00001010
00000000
00000000
00000000
00000100
00001000
00000100
,
00001000
00000000
00000010
00000000
00010000
00001000
00000000
00022000
00000000
00000000
00000000
00030000
00000000
00000000
00103000
00001000
,
00100000
00000000
01000000
00000000
10000000
00010000
00000000
10010000
00000000
10010000
00000000
00000000
00000000
01000000
00100000
01000000
,
00100000
00000000
10000000
00000000
01000000
10000000
00000000
22000000
00000000
00000000
00000000
00000000
03000000
00000000
00000000
00000000
,
30010000
00000000
00100000
00000000
00010000
01000000
00000000
01010000
00000000
01010000
00000000
00000000
00000000
00000000
00000000
00000000
,
00001000
00001000
00100000
00100000
00010000
00010000
00000100
00000100
,
00000001
00000000
00000000
00000010
00000000
00000000
00001001
00000000
00000000
00000110
00000000
00000000
00001001
00000000
00000000
00000000
,
00000000
00000000
00000000
00000000
00000010
00001000
00000000
00000000
00000100
00000000
00000100
00000000
00010000
00001000
00010000
00000000
,
01000000
00000000
00000000
10000000
00000000
00000000
10100000
00000000
00000000
10010000
00000000
00000000
11000000
00000000
00000000
00000000
,
10010000
00000000
00100000
00000000
10000000
00000000
00010000
00000000
00100000
00001000
00100000
00001000
00100000
00000000
00010000
00000000
,
00000100
00000000
00000000
00000001
00000000
00000000
00000011
00000000
00000000
00000110
00000000
00000000
00001100
00000000
00000000
00000000
,
00000010
00000000
00000010
00000000
00001001
00000000
00000000
00000000
00000010
00010000
00000000
00010000
00001000
00000000
00000000
00000000
,
01001000
00000000
00000000
00100000
00000000
00000000
10000000
00000000
00000000
00010000
00000000
00000000
10000000
00000000
01000000
00000000
,
00100000
00010000
00100000
00010000
00100000
00000000
00001000
00000000
00010000
00000000
00000100
00000000
00000010
00000000
00000001
00000000
,
00000100
00000000
00000000
00000010
00000000
00000000
00001000
00000000
00000000
00000001
00000000
00000000
00001000
00000000
00000100
00000000
,
00010000
00000010
00000000
00010000
00000010
00000000
00010000
00000100
00000000
00010000
00000100
00000000
00010000
00000000
00001000
00000000
,
01000000
00000000
00000000
00100000
00000000
00000000
01000000
00000000
00000000
00010000
00000000
00000000
10000000
00000000
01000000
00000000
,
00100000
00001000
00000000
00100000
00001000
00000000
00010000
00000100
00000000
00010000
00000100
00000000
00001000
00000000
00000001
00000000
,
00000010
00000000
00000000
00000100
00000000
00000000
00001000
00000000
00000000
00000001
00000000
00000000
00001000
00000000
00000100
00000000
,
00001000
00000010
00000000
00001000
00000010
00000000
00010000
00000010
00000000
00010000
00000010
00000000
00010000
00000000
00001000
00000000
,
01000000
00000000
00000000
00100000
00000000
00000000
01000000
00000000
00000000
00001000
00000000
00000000
00010000
00000000
00000100
00000000
,
00000010
00000000
00000001
00000000
00000100
00000000
00000000
00000000
00000010
00001000
00000000
00000000
00000001
00000100
00000001
00000100
,
00000001
00000010
00001000
00000000
00010100
00000000
00101000
00010000
,
01000000
00100000
01000000
00010000
10000000
01000000
00100000
00001000
,
00010010
00000000
00000000
00000000
;
