#TITLE:BRILLIANT 2U;
#SUBTITLE:(25th Anniversary Special);
#ARTIST:NAOKI;
#BANNER:BRILLIANT 2U (25th Anniversary Special)-bn.png;
#BACKGROUND:BRILLIANT 2U (25th Anniversary Special)-bg.png;
#JACKET:BRILLIANT 2U (25th Anniversary Special)-jacket.png;
#MUSIC:BRILLIANT 2U (25th Anniversary Special).ogg;
#SAMPLESTART:14.4;
#SAMPLELENGTH:20;
#DISPLAYBPM:5:600;
#BPMS:0=150,4=300,200.5=150,201.5=300,206.5=150,208.75=300,213.25=150,214.25=300,219.25=150,221.5=300,226=150,227=300,232=150,234.25=300,238.75=150,240.5=300,392.5=600,396.5=300,398.5=150,399.5=75,400=37.5,400.25=18.75,400.375=9.375,400.4375=4.688;
#BGCHANGES:;

//---------------dance-single - ----------------
#NOTES:
     dance-single:
     :
     Challenge:
     17:
     :
0000
0000
0000
0000
,
0000
0000
0000
0000
,
0000
0000
0000
0000
,
0000
0000
0000
0000
,
0000
0000
0000
0000
,
0000
0000
0000
0000
,
0000
0000
0000
0020
,
0000
0000
1030
0001
2000
0000
0200
0000
,
0000
0000
3300
1100
,
1001
0000
0000
1100
0000
0000
0110
0000
,
0000
0011
0000
0000
1001
0000
0100
0000
,
0110
0000
0000
0101
0000
0000
1001
0000
,
0000
1100
0000
0000
0110
0000
0001
0000
,
0011
0000
0000
0110
0000
0000
1100
0000
,
0000
0110
0000
0000
0011
0000
0200
0000
,
0302
2003
3002
2003
,
3010
0100
1000
0100
0001
1000
0001
0010
,
0100
0000
0100
1000
0000
1000
0001
0000
,
0001
0100
0000
0100
0010
1000
0010
0000
,
0100
0000
0001
0000
0011
0010
0100
0000
,
1100
0000
1100
0000
0001
1000
0100
0000
,
1100
0000
0010
0100
0101
0000
0001
1000
,
1010
0000
0010
0100
0001
1000
0100
0000
,
0110
1001
0110
1001
,
0001
0100
1000
0100
0010
0100
0001
0000
,
0011
0000
0001
1000
0000
1000
0100
0000
,
0100
0010
0000
0010
0001
0100
0001
0000
,
1001
1010
1100
1000
,
0010
1000
0010
0100
0001
0010
0100
1000
,
1010
0000
1000
0100
0110
0000
0010
0001
,
0101
0000
0010
0100
0110
0000
1001
0000
,
1000
0100
0001
0100
0010
0100
1000
0100
,
0010
1000
0010
0100
0010
0001
0100
0000
,
0101
0000
0010
1000
0000
1000
0100
0000
,
0100
0010
0000
0010
0001
1000
0100
0000
,
1100
0000
0010
1000
1001
0000
0001
0010
,
0011
0000
0010
0001
0100
0010
1000
0000
,
1100
0000
1000
0010
0000
0010
0100
0000
,
0100
0001
0000
0001
0010
0100
1000
0000
,
1001
0000
0010
0100
0101
0000
0001
0010
,
0110
0000
0100
1000
0010
0100
0001
0000
,
0011
0000
0010
0100
0000
0010
0001
0000
,
0100
0010
0000
1000
0001
0100
0010
0000
,
1010
0000
1000
0100
0110
0000
0001
0010
,
0011
0000
0010
0001
0100
0010
1000
0000
,
1100
0110
0011
0100
,
0010
1000
0100
0010
0001
0100
0001
1000
,
0010
0100
0010
1000
0100
0010
1000
0010
,
0001
0100
0010
0001
0010
1000
0100
0010
,
0011
0000
0011
0000
1000
0001
0000
0101
,
0000
0000
0000
0000
0000
0000
0000
0000
2200
0000
0000
0000
0000
0000
0000
0000
0000
0000
0000
0000
0000
0000
0000
3000
1300
0000
0000
0000
0000
0000
0000
0000
0001
0000
0000
0000
0000
0000
0000
0000
0100
0000
0000
0000
0000
0000
0000
0000
0110
0000
0000
0000
0000
0000
0000
0000
0000
0000
0000
0000
0000
0000
0000
0000
,
0110
0000
0100
0001
0000
0022
0000
0000
,
0000
0000
0000
0000
0000
0000
0000
0000
0000
0000
0000
0033
0101
0000
0000
0000
0000
0000
0000
0000
0000
0000
0000
0000
0000
0000
0000
0000
0101
0000
0000
0000
0000
0000
0000
0000
0000
0000
0000
0000
0000
0000
0000
0000
1000
0000
0000
0000
0000
0000
0000
0000
0010
0000
0000
0000
0000
0000
0000
0000
0000
0000
0000
0000
,
0000
0000
0000
0000
1010
0000
0000
0000
0000
0000
0000
0000
0000
0000
0000
0000
0000
0000
0000
0000
0220
0000
0000
0000
0000
0000
0000
0000
0000
0000
0000
0000
0000
0000
0000
0300
0130
0000
0000
0000
0000
0000
0000
0000
0010
0000
0000
0000
0000
0000
0000
0000
1000
0000
0000
0000
0000
0000
0000
0000
1100
0000
0000
0000
,
0000
0000
0000
0000
0000
0000
1100
0000
0000
0000
0000
0000
0000
0000
1000
0000
0000
0000
0001
0000
0000
0000
0000
0000
0000
0000
0102
0000
0200
0000
0000
0003
,
0320
0000
1030
0100
0010
0001
1001
0000
0000
0000
1100
0000
0000
0000
0001
0000
,
0010
0000
0000
0000
0000
0000
0000
0000
0000
0000
0000
0000
0000
0000
0000
0000
0011
0000
0000
0000
0000
0000
0000
0000
0000
0000
0000
0000
0000
0000
0000
0000
2020
0000
0000
0000
0000
0000
0000
0000
0000
0000
0000
0000
0000
0000
0000
0030
3010
0000
0000
0000
0000
0000
0000
0000
1000
0000
0000
0000
0000
0000
0000
0000
,
0001
0011
0000
1100
0000
0001
0100
0000
,
2002
0000
0000
0000
0000
0000
0000
0000
0000
0000
0000
0000
0000
0000
0000
0000
0000
0000
0000
0000
0000
0000
0000
0000
0000
0000
0000
0000
0000
0000
0000
0000
0000
0000
0000
3003
1010
0000
0000
0000
0000
0000
0000
0000
0000
0000
0000
0000
0000
0000
0000
0000
0110
0000
0000
0000
0000
0000
0000
0000
0000
0000
0000
0000
,
0000
1000
0000
0001
0000
0000
0000
1100
0000
0000
0000
0202
0000
0000
0000
0000
,
0000
0003
1300
0000
0100
0000
0001
0000
0100
0000
0010
0000
1000
0000
0001
0000
,
0010
0100
0001
0100
1000
0010
0001
0010
,
1000
1001
0000
0010
1000
0000
0001
0010
,
0000
0001
1000
0000
0100
0010
0001
0100
,
0000
0010
0000
1000
0000
1001
0010
0100
,
0000
0101
0000
0101
0000
0001
0010
1000
,
0000
1010
0000
0010
0100
0101
0000
0001
,
1000
0110
0000
0010
1000
0100
0010
0001
,
0000
0011
0000
1100
0000
0101
0000
1010
,
0000
0010
0001
0010
1000
0001
0100
0010
,
0000
1000
0000
1000
0001
0000
0100
0001
,
0000
0010
0100
0000
0010
0001
1000
0100
,
0000
1100
0000
0110
0000
0011
0000
0100
,
0000
0001
0010
1000
0010
0001
0100
1000
,
0100
0101
0000
0010
1000
1001
0000
0001
,
0100
1010
0000
0100
0001
0010
0100
1000
,
0000
0010
1000
0010
0100
0001
0010
1000
,
0010
0100
0001
0100
1000
0001
0100
0010
,
0000
1010
0000
0001
0010
0000
1000
0001
,
0000
0010
0001
0000
0100
0010
1000
0100
,
0000
1001
0000
0010
1000
1100
0000
0100
,
0010
0011
0000
0001
0100
0010
0001
0010
,
0000
0110
0000
0100
0001
0000
0010
0100
,
0000
1000
0010
0000
1000
0001
0010
0100
,
0000
0011
0000
0100
0001
1001
0000
0100
,
0010
0110
0000
0010
1000
0100
0001
0100
,
0000
1100
0000
0010
1000
0000
0001
1000
,
0000
0100
0001
0000
0100
0010
0001
1000
,
0000
0101
0000
1000
0001
0011
0000
0100
,
0010
1001
0000
0100
0001
0010
0100
1000
,
0000
0011
0000
0110
0000
1100
0000
0001
,
0000
0100
0010
0001
0010
1000
0001
1000
,
0100
0001
0100
0010
0001
1000
0001
1000
,
0010
0001
0010
1000
0100
0010
0001
0100
,
0010
1010
0000
1010
0000
1000
0000
0100
,
0000
0001
0000
0100
0000
0010
0000
0011
,
0000
0101
0000
1001
0000
0100
0000
0110
,
0000
1000
0001
0010
1000
0010
0100
0010
,
0001
2002
0000
0000
0000
0000
0000
0000
,
0000
0000
0000
0000
,
0000
0000
0000
0000
0000
0000
0000
3003
0000
0000
0000
0000
0000
0000
0000
0000
0000
0000
0000
0000
0000
0000
0000
0000
0000
0000
0000
0000
0000
0000
0000
0000
0000
0000
0000
0000
0000
0000
0000
0000
0000
0000
0000
0000
0000
0000
0000
0000
0000
0000
0000
0000
0000
0000
0000
0000
0000
0000
0000
0000
0000
0000
0000
0000
;
