#TITLE:BRE∀K DOWN!;
#SUBTITLE:(GF&DM STYLE);
#ARTIST:BeForU;
#TITLETRANSLIT:BREAK DOWN!;
#BANNER:BREAK DOWN! (GF&DM STYLE)-bn.png;
#BACKGROUND:BREAK DOWN! (GF&DM STYLE)-bg.png;
#JACKET:BREAK DOWN! (GF&DM STYLE)-jacket.png;
#MUSIC:BREAK DOWN! (GF&DM STYLE).ogg;
#SAMPLESTART:43.896;
#SAMPLELENGTH:20;
#DISPLAYBPM:190;
#BPMS:0=190;
#BGCHANGES:;

//---------------dance-single - ----------------
#NOTES:
     dance-single:
     :
     Beginner:
     3:
     :
0000
0000
0000
0000
,
0000
0000
0000
0000
,
0000
0000
0000
0000
,
0000
0000
0000
0000
,
0000
0000
0000
0000
,
0001
0000
0000
0000
,
1000
0000
0000
0000
,
0010
0000
0010
0000
,
0010
0000
0000
0000
,
1000
0000
1000
0000
,
0001
0001
0001
0001
,
0000
0000
0100
0000
,
0010
0000
1000
0000
,
0000
0000
0001
0000
,
1000
0000
0100
0000
,
0000
0000
0010
0000
,
0001
0000
0100
0000
,
0010
0000
1000
0000
,
0001
0000
0000
0000
,
1000
0000
0100
0000
,
1000
0000
0010
0000
,
0100
0000
0001
0000
,
0010
0000
0000
0000
,
0100
0000
0010
0000
,
0001
0000
0100
0000
,
0001
0000
1000
0000
,
0010
0000
0000
0000
,
1000
0000
0001
0000
,
1001
0000
0000
0000
,
0010
0000
0010
0000
,
1000
0000
0100
0000
,
1000
0000
0001
0000
,
1001
0000
0000
0000
,
0010
0000
0010
0000
,
1000
1000
1000
0000
,
0100
0000
0000
0000
,
1000
0000
0001
0000
,
0010
0000
0000
0000
,
0001
0000
0100
0000
,
1000
0000
0000
0000
,
0010
0000
1000
0000
,
0001
0000
0001
0000
,
0100
0100
0100
0000
,
0010
0000
0000
0000
,
1000
0000
0100
0000
,
0001
0000
0000
0000
,
0010
0000
0001
0000
,
0100
0000
0000
0000
,
0010
0000
1000
0000
,
0100
0000
0010
0000
,
0000
0000
0001
0000
,
1001
0000
0000
0000
,
0000
0000
0000
0000
,
1001
0000
0000
0000
,
0000
0000
0000
0000
,
0010
0000
0010
0000
,
1000
0000
0001
0000
,
0100
0000
0000
0000
,
0010
0000
0000
0000
,
1000
0000
0000
0000
,
0100
0000
1000
0000
,
0001
0000
0000
0000
,
0010
0000
0001
0000
,
0100
0000
0000
0000
,
0001
0000
0010
0000
,
0001
0000
1000
0000
,
0010
0010
0010
0000
,
1000
0000
1000
0000
,
0001
0000
0001
0000
,
0010
0000
0010
0000
,
0001
0000
0001
0000
,
0100
0000
0100
0000
,
0010
0000
1000
0000
,
0001
0000
1000
0000
,
0010
0000
0100
0000
,
0001
0000
0000
0000
,
1000
0000
0000
0000
;

//---------------dance-single - ----------------
#NOTES:
     dance-single:
     :
     Easy:
     7:
     :
0000
0000
0000
0000
,
0000
0000
0000
0000
,
0000
0000
0000
0000
,
0000
0000
0000
0000
,
0000
0000
0000
0000
,
0001
1000
0001
0100
,
0010
1000
0100
0010
,
0001
1000
0001
0000
,
0010
0100
1000
0000
,
1001
0000
0110
0000
,
1001
0110
1001
0110
,
0000
1000
0100
1000
,
0010
0100
0001
1000
,
0000
0001
0010
0001
,
0100
0010
1000
0001
,
0000
1000
0001
0010
,
0001
0100
0010
1000
,
0001
0100
1000
0100
,
0020
0000
0000
0030
,
0000
0001
0010
0001
,
0100
0010
1000
0001
,
0000
1000
0001
0000
,
0100
0010
1000
0000
,
0000
0100
0010
0001
,
0100
0001
0010
0100
,
1000
0010
0001
0010
,
0200
0000
0000
0300
,
1100
0101
1000
0001
,
1001
0000
0010
0000
,
2000
3000
0002
0003
,
0010
0001
0100
0000
,
0101
1100
0001
1000
,
1001
0010
0100
0001
,
1000
0100
1000
0001
,
0100
1001
0110
1000
,
0100
0010
0001
1000
,
0001
0100
0010
1000
,
0100
0010
0100
1000
,
0010
1000
0100
0001
,
1000
0001
0010
0100
,
0010
0001
0100
1000
,
0020
0030
0200
0300
,
0001
0001
1000
1000
,
0001
0010
0001
0100
,
1000
0001
1000
0100
,
0010
0100
0010
0001
,
0100
0001
0010
0100
,
1000
0010
1000
0001
,
1000
0010
1000
0001
,
0200
0300
0020
0030
,
1000
0001
0100
0000
,
2002
0000
0000
0003
,
0010
0010
3001
0000
,
0220
0000
0000
0300
,
1000
1000
0130
0000
,
1000
0001
1000
0001
,
0010
0100
1000
0010
,
1000
0100
1000
0001
,
0010
0100
1000
0001
,
0100
0000
0010
0000
,
1000
0000
0001
0000
,
1000
0000
0100
0000
,
0010
0000
0001
0000
,
0100
0010
0000
0010
,
1000
0100
0010
0001
,
2000
3000
0020
0030
,
1000
1000
0001
0001
,
0010
0001
0010
0100
,
1000
0010
1000
0001
,
1000
0100
0010
0001
,
0100
0001
0010
0100
,
0010
0001
0100
0001
,
1000
0100
0001
0010
,
0100
0010
0001
1000
,
0010
1000
0100
0000
,
0110
0000
0000
0000
,
1001
0000
0000
0000
;

//---------------dance-single - ----------------
#NOTES:
     dance-single:
     :
     Medium:
     11:
     :
0000
0000
0000
0000
,
0000
0000
0000
0000
,
0000
0000
0000
0000
,
0000
0000
0000
0000
,
0000
0000
0000
0000
,
0001
0000
0010
0100
0000
1000
0001
1000
,
0010
0000
0100
0001
0000
1000
0100
0010
,
0000
0011
0000
0000
1100
0000
0000
0000
,
0001
0100
0010
2000
0000
0000
3000
0000
,
1001
0100
1001
0100
,
1010
0101
0011
1100
,
0000
0001
0010
0100
1000
0010
1000
0001
,
0100
0010
1000
0002
0000
0000
0000
0003
,
0000
0010
0001
0100
0010
1000
0001
1000
,
0100
0010
0001
2000
0000
0000
0000
3000
,
0000
0020
0000
1030
0001
1000
0100
0010
,
0001
0100
0001
1000
0000
0010
0100
0010
,
1000
0000
0001
0100
0000
0001
1000
0000
,
1000
0100
1000
0100
0000
0010
0001
0000
,
0100
0010
0100
0001
1000
0100
1000
0010
,
0100
0001
1000
0002
0000
0000
0013
0100
,
0000
1000
0001
0000
1000
0010
0000
0100
,
0001
1000
0001
0100
0000
0000
0000
0000
,
0010
1000
0001
1000
0001
0010
0100
1000
,
0010
1000
0001
1000
0000
0100
0010
0001
,
1000
0000
0001
1000
0000
0010
0100
0002
,
0000
1003
0001
0000
0100
0010
0100
0001
,
1000
0100
1000
0100
0000
1000
0100
1000
,
0200
0000
0300
0110
0000
0001
1000
0001
,
0200
0000
0310
1000
0002
0000
0013
0100
,
2000
0000
3001
0100
0000
0010
1000
0100
,
0010
0001
0010
0001
0000
0010
0001
0010
,
0002
0000
0000
1003
0100
0000
1001
0000
,
0000
0010
1000
0010
1000
0100
0010
0001
,
0000
1000
0001
1000
0001
0000
0010
0000
,
0100
0000
1000
0010
0000
1000
0100
0010
,
0002
0000
1003
0010
0000
0100
0000
0001
,
0000
0000
1000
0100
0000
1000
0010
1000
,
0002
0000
0013
0100
0000
0010
0000
0001
,
1000
0100
0010
0000
0000
0001
1000
0001
,
0100
0010
0100
0001
0000
1000
0000
0010
,
2000
0000
3100
0010
0002
0000
0003
0000
,
0011
1100
0101
1010
,
1001
0000
0100
0010
0000
1000
0001
1000
,
0100
0010
0001
1000
0000
0001
0000
0100
,
0010
0000
1000
0100
0000
1000
0001
0010
,
0100
1000
0010
1000
0000
0001
0000
0100
,
0010
0000
1000
0100
0010
0001
0010
0100
,
1000
0000
0001
0100
0000
0010
0000
1000
,
0002
0000
1003
0001
0200
0000
0310
1000
,
0000
0001
1000
0001
0200
0000
0300
0000
,
2002
0000
0000
0000
0000
0003
0000
0010
,
0000
3010
0000
1000
0001
0000
0000
0000
,
0200
0000
0320
0000
1030
0001
1000
0100
,
0000
0100
0000
0010
0001
0000
1000
0000
,
1100
0000
0101
0000
1100
0000
0001
1000
,
0000
0010
0100
0000
1001
0000
0110
0000
,
1000
0010
0200
0002
0000
0000
0300
0000
,
0013
0001
0010
0100
1000
0010
1000
0001
,
0100
0000
0000
0000
0000
0010
1000
0010
,
1000
0000
0100
0010
0000
0001
0000
1000
,
0000
0000
0000
0000
0000
0001
0100
0001
,
0010
0000
0001
0100
0000
0010
0000
1000
,
0000
0100
1000
0001
0000
0010
0001
1000
,
0001
0000
0100
0010
0000
1000
0000
0001
,
2000
0000
3001
1000
0020
0000
0030
0000
,
0101
0011
1100
1010
,
1001
0000
0010
0100
0000
0010
0000
1000
,
0000
0001
0000
0010
0000
0100
0000
1000
,
0000
0010
0000
1000
0000
0100
0000
0001
,
0000
0010
0000
0001
0000
0100
0000
1000
,
0001
0000
0100
0010
0000
1000
0001
1000
,
0010
0100
0001
1000
0000
0020
0000
0230
,
0000
0301
0010
0100
1000
0100
0010
0001
,
0000
1000
0001
1000
0100
0000
0000
2200
,
0300
0001
0001
3001
,
1001
0000
0000
0000
;

//---------------dance-single - ----------------
#NOTES:
     dance-single:
     :
     Hard:
     13:
     :
0000
0000
0000
0000
,
0000
0000
0000
0000
,
0000
0000
0000
0000
,
0000
0000
0000
0000
,
0000
0000
0000
0000
,
0001
0100
0010
0100
0000
0001
1000
0100
,
1000
0010
0100
0010
0000
1000
0001
0100
,
0010
1000
0000
0100
0001
0000
0010
0100
,
1000
0000
0001
0000
0100
0000
0010
0000
1000
0000
0100
0000
0010
0000
0001
1000
,
0001
0100
1001
0000
1000
0100
1001
0000
,
0010
0000
1000
0000
0100
0000
0010
0000
0001
0000
1000
0100
1000
0000
0000
0000
,
0001
0010
0100
0010
0001
0100
0010
1000
,
0100
0001
0100
1000
0010
0100
0001
0000
,
1000
0001
0010
0100
0010
0001
0100
1000
,
0100
0001
1000
0001
0010
0100
1000
0000
,
0010
1000
0100
0010
0100
0001
0100
1000
,
0010
1000
0001
1000
0100
0010
0001
1000
,
0010
1000
0100
0010
0001
0100
1000
0000
,
0001
0100
0001
1000
0000
0010
0010
0010
,
1000
0001
0010
0100
0010
0001
0100
0010
,
1000
0100
0001
0010
0000
0100
1000
0001
,
1000
0010
0100
0010
1000
0001
0010
0100
,
1000
0010
1000
0001
0010
0100
1000
0000
,
0001
0100
0010
0100
1000
0100
0010
0100
,
0001
0010
0100
1000
0000
1000
0010
0001
,
1000
0100
0010
0001
0100
0010
1000
0001
,
0000
0110
0110
0000
1001
0100
0010
1000
,
0001
0001
0001
0001
0000
1000
0100
0010
,
1001
0000
0010
0100
1000
0010
1000
0001
,
0200
0010
0310
0100
0002
1000
1003
0100
,
0010
0001
0010
0100
0000
1000
0001
1000
,
0010
0010
0010
0010
0000
1000
0001
0000
,
0110
0000
0001
0100
0010
1000
0100
0000
,
1000
0010
1000
0000
0001
0000
0100
0000
0010
0000
1000
0000
0100
0000
0110
0000
,
0000
0001
0001
1000
0001
0000
1010
0000
,
0100
0001
0010
0001
0010
0100
1000
0001
,
0100
1000
0100
0001
0010
0100
0010
0001
,
1000
0010
0001
0010
0100
0010
0001
0010
,
1000
0001
1000
0100
0010
0001
0100
0001
,
0010
1000
0010
0001
0100
0010
1000
0001
,
1000
0100
0010
0100
0001
0100
1000
0010
,
0200
0001
0301
1000
0002
0100
0103
0010
,
1000
0000
0100
0000
0001
0000
0100
0000
1000
0000
0100
0000
0010
0000
0001
1000
,
0001
0100
0010
1000
0000
0100
1000
0001
,
0100
0010
0100
0001
0010
0100
1000
0001
,
0100
1000
0100
0010
0001
0010
1000
0001
,
0010
0100
0010
0001
1000
0001
0100
0010
,
1010
0000
0100
0001
0010
0100
0010
0001
,
1000
0010
0100
0010
1000
0001
0010
0100
,
2000
0000
0001
0000
3001
0000
0010
0000
0001
0000
1000
0010
1000
0000
0100
0000
,
0000
0010
0010
0010
0020
0000
0030
0000
,
0001
0100
0010
0100
1000
0100
0001
0011
,
0000
1100
0000
0101
0101
0010
1000
0001
,
1000
0100
0010
0001
0100
0010
1000
1001
,
0000
0000
0000
0110
0000
0000
0000
0000
0000
0001
0000
0000
1000
0000
0010
0000
1000
0000
0010
0000
0100
0000
0001
0000
,
1000
0000
0000
0010
0100
0000
0000
0001
1000
0000
0000
0001
0010
0000
0100
0000
,
1000
0010
0100
0010
1000
0001
0100
0000
,
0010
1000
0010
0100
0001
0010
0001
1000
,
0001
0100
0010
1000
0100
0010
0001
1000
,
0001
0000
1000
1000
0000
0010
0100
0001
,
1000
0001
0010
0100
0000
1000
0000
0001
,
0100
0000
0010
1000
0100
0010
0001
1000
,
0001
0000
0100
0000
0010
0000
1000
0000
0100
0000
0000
0000
1000
0001
1000
0001
,
1000
0010
0100
0001
0000
0010
0100
1000
,
0010
1000
0001
0100
0000
0010
0000
1000
,
0002
0010
0013
0001
2000
0100
3100
0000
,
1000
0000
0010
0000
0100
0000
0000
0000
0001
0000
0000
0000
1000
0010
1000
0010
,
1000
0100
0010
0001
0000
0001
0100
1000
,
0001
1000
0100
0010
0000
0001
0000
0100
,
0001
0010
0100
1000
0000
0010
1000
0001
,
1000
0100
0010
0100
0000
1000
0001
0010
,
0100
1000
0010
1000
0100
0010
0001
0100
,
0001
0010
0100
1000
0010
1000
0001
0100
,
0001
0000
0010
0000
0100
0000
0010
0000
0001
0000
1000
0000
0010
0100
0010
0100
,
0000
0001
0001
1000
1100
0000
0000
0202
,
0003
0000
0000
0000
0001
0000
0000
0000
0001
0000
0000
0000
0301
0000
1000
0100
,
1000
0000
0000
0000
;
